<?xml version="1.0" encoding="UTF-8"?>
<svg xmlns="http://www.w3.org/2000/svg" xmlns:xlink="http://www.w3.org/1999/xlink" version="1.2" >
<font id="BureauGrotesque-ThreeThree">
<font-face  font-family="BureauGrotesque" units-per-em="1000" ascent="750" descent="-250" font-style="normal" font-weight="400" font-stretch="normal" cap-height="750" x-height="500" underline-position="-123" underline-thickness="20" />
<missing-glyph  horiz-adv-x="500" d="" />
<glyph glyph-name="CR" unicode="&#xd;" horiz-adv-x="250" d="" />
<glyph glyph-name="space" unicode="&#x20;" horiz-adv-x="220" d="" />
<glyph glyph-name="exclam" unicode="&#x21;" horiz-adv-x="247" d="M182 495 L182 768 L65 768 L65 495 L92 228 L157 228 L182 495 Z M183 0 L183 151 L63 151 L63 0 L183 0 Z " />
<glyph glyph-name="quotedbl" unicode="&#x22;" horiz-adv-x="361" d="M321 768 L209 768 L224 511 L305 511 L321 768 Z M152 768 L40 768 L55 511 L136 511 L152 768 Z " />
<glyph glyph-name="numbersign" unicode="&#x23;" horiz-adv-x="563" d="M536 574 L436 574 L461 768 L387 768 L362 574 L251 574 L276 768 L202 768 L177 574 L77 574 L65 474 L164 474 L140 294 L39 294 L27 195 L127 195 L102 0 L176 0 L201 195 L312 195 L287 0 L361 0 L386 195 L486 195 L499 294 L399 294 L423 474 L525 474 L536 574 Z M349 474 L325 294 L214 294 L238 474 L349 474 Z " />
<glyph glyph-name="dollar" unicode="&#x24;" horiz-adv-x="480" d="M447 236 C447 342 402 395 330 432 C304 445 272 459 260 464 L260 678 C297 671 315 639 315 575 C315 555 312 534 309 525 L410 529 C414 546 418 568 418 587 C418 690 362 752 262 755 L262 794 L206 794 L206 755 C101 752 36 675 36 561 C36 467 75 420 143 386 C167 374 198 361 208 357 L208 106 C166 119 150 154 150 215 C150 237 152 268 155 283 L55 273 C50 253 44 214 44 185 C44 67 116 27 206 18 L206 -52 L262 -52 L262 17 C387 21 447 91 447 236 L447 236 Z M208 484 C155 504 142 530 142 583 C142 635 164 667 208 677 L208 484 Z M336 210 C336 132 305 106 260 100 L260 334 C311 315 336 269 336 210 L336 210 Z " />
<glyph glyph-name="percent" unicode="&#x25;" horiz-adv-x="801" d="M766 202 C766 387 724 450 612 450 C513 450 458 380 458 201 C458 40 514 -12 612 -12 C712 -12 766 44 766 202 L766 202 Z M626 770 L565 770 L178 -8 L239 -8 L626 770 Z M343 534 C343 719 297 781 189 781 C82 781 35 717 35 533 C35 371 91 320 189 320 C289 320 343 375 343 534 L343 534 Z M665 216 C665 93 648 72 612 72 C576 72 560 93 560 216 C560 345 574 367 613 367 C649 367 665 348 665 216 L665 216 Z M242 547 C242 425 225 404 189 404 C153 404 137 424 137 547 C137 677 151 699 190 699 C226 699 242 679 242 547 L242 547 Z " />
<glyph glyph-name="ampersand" unicode="&#x26;" horiz-adv-x="611" d="M584 132 C584 166 578 207 575 221 L507 216 C513 193 516 170 516 150 C516 122 512 90 485 90 C466 90 447 115 429 151 C453 192 478 256 497 310 C515 366 534 447 543 509 L468 509 C465 484 451 414 441 378 C430 339 407 269 391 240 C378 264 349 329 340 349 C328 377 306 434 300 450 C366 493 432 550 432 637 C432 728 384 780 289 780 C187 780 140 714 140 617 C140 577 158 510 174 474 C87 417 26 332 26 211 C26 81 97 -11 201 -11 C252 -11 314 8 355 52 C383 10 412 -11 467 -11 C550 -11 584 47 584 132 L584 132 Z M346 638 C346 600 325 566 266 528 C252 561 238 604 238 637 C238 682 257 700 293 700 C328 700 346 679 346 638 L346 638 Z M322 127 C302 105 271 89 248 89 C187 89 139 130 139 235 C139 286 166 338 214 378 C228 339 252 281 262 259 C270 241 312 148 322 127 L322 127 Z " />
<glyph glyph-name="quotesingle" unicode="&#x27;" horiz-adv-x="192" d="M152 768 L40 768 L55 511 L136 511 L152 768 Z " />
<glyph glyph-name="parenleft" unicode="&#x28;" horiz-adv-x="291" d="M286 -124 C183 15 150 151 150 330 C150 528 195 657 286 780 L241 789 C123 689 45 547 45 330 C45 127 109 -27 241 -133 L286 -124 Z " />
<glyph glyph-name="parenright" unicode="&#x29;" horiz-adv-x="291" d="M246 330 C246 547 168 689 50 789 L5 780 C96 657 141 528 141 330 C141 151 108 15 5 -124 L50 -133 C182 -27 246 127 246 330 L246 330 Z " />
<glyph glyph-name="asterisk" unicode="&#x2a;" horiz-adv-x="312" d="M287 597 L217 637 L287 678 L253 733 L190 696 L190 774 L123 774 L123 697 L59 734 L25 678 L96 637 L25 597 L59 541 L123 578 L123 501 L190 501 L190 578 L253 541 L287 597 Z " />
<glyph glyph-name="plus" unicode="&#x2b;" horiz-adv-x="472" d="M434 303 L434 394 L284 394 L284 551 L187 551 L187 394 L37 394 L37 303 L187 303 L187 146 L284 146 L284 303 L434 303 Z " />
<glyph glyph-name="comma" unicode="&#x2c;" horiz-adv-x="232" d="M182 0 C182 53 182 155 182 155 L50 155 L50 0 L116 0 C117 -36 115 -60 105 -77 C93 -97 79 -109 56 -116 L73 -163 C109 -155 137 -131 153 -109 C173 -81 182 -50 182 0 L182 0 Z " />
<glyph glyph-name="hyphen" unicode="&#x2d;" horiz-adv-x="408" d="M373 289 L373 387 L35 387 L35 289 L373 289 Z " />
<glyph glyph-name="period" unicode="&#x2e;" horiz-adv-x="232" d="M182 0 L182 155 L50 155 L50 0 L182 0 Z " />
<glyph glyph-name="slash" unicode="&#x2f;" horiz-adv-x="385" d="M381 768 L309 768 L2 0 L77 0 L381 768 Z " />
<glyph glyph-name="zero" unicode="0" horiz-adv-x="409" d="M385 358 C385 699 342 777 204 777 C61 777 24 695 24 357 C24 48 70 -11 204 -11 C333 -11 385 50 385 358 L385 358 Z M268 380 C268 116 257 73 204 73 C147 73 141 123 141 380 C141 636 147 697 204 697 C260 697 268 640 268 380 L268 380 Z " />
<glyph glyph-name="one" unicode="1" horiz-adv-x="304" d="M247 0 L247 771 L185 771 C157 706 108 659 7 649 L7 584 C27 580 116 580 136 587 L136 0 L247 0 Z " />
<glyph glyph-name="two" unicode="2" horiz-adv-x="401" d="M377 549 C377 705 323 780 195 780 C93 780 24 717 24 572 C24 524 27 475 35 429 L143 431 C137 470 132 524 132 553 C132 641 140 697 193 697 C242 697 260 666 260 551 C260 384 162 208 24 105 L24 0 L376 0 L376 106 L129 106 C243 185 377 375 377 549 L377 549 Z " />
<glyph glyph-name="three" unicode="3" horiz-adv-x="411" d="M385 235 C385 368 345 434 253 434 C352 460 379 535 379 606 C379 757 260 780 209 780 C107 780 35 718 35 615 C35 575 43 543 45 532 L155 533 C149 549 143 584 143 608 C143 649 158 697 207 697 C257 697 264 659 264 586 C264 512 227 452 129 452 C117 452 97 452 97 452 L97 371 C110 371 159 371 174 371 C249 371 268 340 268 243 C268 109 255 73 198 73 C144 73 136 109 136 204 C136 235 141 263 144 281 L36 276 C28 246 24 209 24 165 C24 58 76 -11 191 -11 C314 -11 385 46 385 235 L385 235 Z " />
<glyph glyph-name="four" unicode="4" horiz-adv-x="418" d="M411 158 L411 254 L335 254 L335 768 L202 768 L17 293 L17 158 L224 158 L224 0 L335 0 L335 158 L411 158 Z M224 254 L101 254 L224 596 L224 254 Z " />
<glyph glyph-name="five" unicode="5" horiz-adv-x="405" d="M381 280 C381 456 339 537 242 537 C191 537 161 510 143 469 L157 665 L338 665 L345 768 L67 768 L38 356 L146 349 C152 403 165 441 199 441 C245 441 263 411 263 281 C263 116 251 73 197 73 C152 73 136 100 136 191 C136 218 138 242 141 260 L33 256 C28 237 24 200 24 166 C24 48 78 -11 195 -11 C312 -11 381 57 381 280 L381 280 Z " />
<glyph glyph-name="six" unicode="6" horiz-adv-x="409" d="M385 251 C385 435 320 500 230 500 C182 500 146 471 133 420 C135 434 136 451 136 463 C136 480 136 494 136 508 C136 628 167 697 210 697 C254 697 266 675 266 608 C266 584 260 557 258 548 L367 553 C371 566 374 596 374 617 C374 720 309 780 218 780 C103 780 24 706 24 386 C24 77 74 -11 205 -11 C322 -11 385 56 385 251 L385 251 Z M268 247 C268 130 262 73 206 73 C156 73 141 115 141 247 C141 374 154 410 208 410 C259 410 268 369 268 247 L268 247 Z " />
<glyph glyph-name="seven" unicode="7" horiz-adv-x="354" d="M347 659 L347 768 L5 768 L-3 659 L259 659 C165 526 77 323 77 78 C77 48 79 24 81 0 L210 0 C206 35 202 100 202 164 C202 336 258 560 347 659 L347 659 Z " />
<glyph glyph-name="eight" unicode="8" horiz-adv-x="405" d="M381 209 C381 332 346 397 293 410 C340 427 367 474 367 561 C367 702 320 777 202 777 C86 777 37 705 37 561 C37 471 66 424 112 410 C60 395 23 330 23 209 C23 48 75 -11 202 -11 C336 -11 381 51 381 209 L381 209 Z M253 573 C253 468 243 448 202 448 C163 448 151 469 151 573 C151 666 162 698 202 698 C240 698 253 668 253 573 L253 573 Z M266 222 C266 96 248 70 202 70 C157 70 138 95 138 222 C138 343 157 372 202 372 C243 372 266 345 266 222 L266 222 Z " />
<glyph glyph-name="nine" unicode="9" horiz-adv-x="409" d="M385 380 C385 677 347 780 199 780 C80 780 21 706 21 515 C21 332 79 269 169 269 C217 269 253 288 276 349 C274 337 273 322 273 310 C273 299 273 287 273 275 C273 125 250 72 198 72 C152 72 143 97 143 163 C143 187 149 210 151 221 L43 216 C38 197 35 174 35 148 C35 53 80 -11 196 -11 C328 -11 385 59 385 380 L385 380 Z M268 519 C268 392 255 359 201 359 C151 359 138 397 138 519 C138 647 147 696 200 696 C252 696 268 662 268 519 L268 519 Z " />
<glyph glyph-name="colon" unicode="&#x3a;" horiz-adv-x="228" d="M178 388 L178 543 L50 543 L50 388 L178 388 Z M178 0 L178 155 L50 155 L50 0 L178 0 Z " />
<glyph glyph-name="semicolon" unicode="&#x3b;" horiz-adv-x="232" d="M178 388 L178 543 L50 543 L50 388 L178 388 Z M182 0 C182 53 182 155 182 155 L50 155 L50 0 L116 0 C117 -36 115 -60 105 -77 C93 -97 79 -109 56 -116 L73 -163 C109 -155 137 -131 153 -109 C173 -81 182 -50 182 0 L182 0 Z " />
<glyph glyph-name="less" unicode="&#x3c;" horiz-adv-x="352" d="M302 120 L302 221 L118 342 L302 463 L302 564 L40 388 L40 296 L302 120 Z " />
<glyph glyph-name="equal" unicode="&#x3d;" horiz-adv-x="458" d="M409 388 L409 472 L52 472 L52 388 L409 388 Z M409 198 L409 282 L52 282 L52 198 L409 198 Z " />
<glyph glyph-name="greater" unicode="&#x3e;" horiz-adv-x="352" d="M312 296 L312 388 L50 564 L50 463 L234 342 L50 221 L50 120 L312 296 Z " />
<glyph glyph-name="question" unicode="&#x3f;" horiz-adv-x="410" d="M375 533 C375 711 314 780 202 780 C81 780 35 715 35 630 C35 598 39 579 44 562 L142 562 C139 573 135 592 135 614 C135 665 152 689 192 689 C239 689 258 649 258 533 C258 438 250 397 203 397 C163 397 150 424 144 478 L72 478 L72 224 L153 224 L153 348 C172 318 202 298 247 298 C324 298 375 345 375 533 L375 533 Z M186 0 L186 155 L58 155 L58 0 L186 0 Z " />
<glyph glyph-name="at" unicode="&#x40;" horiz-adv-x="731" d="M701 399 C701 657 568 773 377 773 C166 773 30 612 30 324 C30 26 155 -112 376 -112 C475 -112 524 -79 589 -19 L554 20 C507 -31 448 -62 380 -62 C204 -62 92 57 92 323 C92 570 210 727 370 727 C522 727 644 614 644 398 C644 234 593 155 540 155 C510 155 503 175 503 193 C503 200 505 215 509 242 C512 265 521 333 527 376 C534 426 536 446 536 457 C536 508 507 589 396 589 C274 589 226 520 226 436 C226 431 226 421 228 413 L328 428 C327 433 326 439 326 445 C326 482 338 510 380 510 C414 510 426 481 426 454 C426 442 421 403 421 403 C284 399 182 351 182 204 C182 126 230 95 288 95 C369 95 404 156 419 177 C421 134 454 95 515 95 C627 95 701 209 701 399 L701 399 Z M413 344 C413 333 402 259 402 259 C397 219 380 178 324 178 C294 178 284 198 285 235 C288 325 364 342 413 344 L413 344 Z " />
<glyph glyph-name="A" unicode="A" horiz-adv-x="422" d="M420 0 L275 771 L140 771 L2 0 L107 0 L133 146 L278 146 L305 0 L420 0 Z M260 241 L149 241 L205 617 L260 241 Z " />
<glyph glyph-name="B" unicode="B" horiz-adv-x="465" d="M440 217 C440 328 389 401 327 406 C384 416 419 466 419 557 C419 684 368 768 232 768 C161 768 57 768 57 768 L57 0 C57 0 173 0 250 0 C359 0 440 52 440 217 L440 217 Z M304 556 C304 488 280 449 233 449 C203 449 172 449 172 449 L172 681 C172 681 199 681 228 681 C278 681 304 640 304 556 L304 556 Z M320 231 C320 127 293 89 240 89 C208 89 172 89 172 89 L172 363 C172 363 206 363 238 363 C291 363 320 302 320 231 L320 231 Z " />
<glyph glyph-name="C" unicode="C" horiz-adv-x="451" d="M426 257 C426 277 426 303 423 325 L314 332 C317 303 318 269 318 234 C318 132 306 75 245 75 C175 75 148 112 148 377 C148 639 168 694 237 694 C299 694 311 647 311 543 C311 526 310 489 308 470 L415 481 C418 497 421 522 421 536 C425 680 396 780 236 780 C83 780 27 677 27 355 C27 131 47 -14 245 -14 C389 -14 426 100 426 257 L426 257 Z " />
<glyph glyph-name="D" unicode="D" horiz-adv-x="484" d="M457 353 C457 660 380 768 240 768 C168 768 57 768 57 768 L57 0 C57 0 171 0 248 0 C400 0 457 102 457 353 L457 353 Z M336 355 C336 136 315 91 235 91 C207 91 172 91 172 91 L172 679 C172 679 202 679 228 679 C302 679 336 612 336 355 L336 355 Z " />
<glyph glyph-name="E" unicode="E" horiz-adv-x="399" d="M387 0 L387 91 L172 91 L172 347 L346 347 L346 444 L172 444 L172 679 L367 679 L367 768 L57 768 L57 0 L387 0 Z " />
<glyph glyph-name="F" unicode="F" horiz-adv-x="381" d="M361 679 L361 768 L57 768 L57 0 L172 0 L172 342 L338 342 L338 439 L172 439 L172 679 L361 679 Z " />
<glyph glyph-name="G" unicode="G" horiz-adv-x="469" d="M434 -3 L434 399 L253 399 L253 309 L327 309 C329 291 331 247 331 221 C331 124 311 75 251 75 C182 75 148 97 148 363 C148 643 164 694 241 694 C309 694 318 638 318 550 C318 537 317 514 316 490 L424 502 C426 515 427 531 427 545 C430 700 387 780 242 780 C87 780 27 687 27 359 C27 97 71 -14 237 -14 C301 -14 333 16 360 58 L385 -3 L434 -3 Z " />
<glyph glyph-name="H" unicode="H" horiz-adv-x="500" d="M443 0 L443 768 L328 768 L328 449 L172 449 L172 768 L57 768 L57 0 L172 0 L172 352 L328 352 L328 0 L443 0 Z " />
<glyph glyph-name="I" unicode="I" horiz-adv-x="229" d="M172 0 L172 768 L57 768 L57 0 L172 0 Z " />
<glyph glyph-name="J" unicode="J" horiz-adv-x="412" d="M365 217 C365 432 365 768 365 768 L251 768 C251 768 251 424 251 204 C251 113 236 80 189 80 C141 80 127 112 127 179 C127 210 131 248 138 281 L28 277 C22 248 17 210 17 183 C17 57 69 -14 185 -14 C329 -14 365 56 365 217 L365 217 Z " />
<glyph glyph-name="K" unicode="K" horiz-adv-x="451" d="M454 0 L260 414 L434 768 L324 768 L172 450 L172 768 L57 768 L57 0 L172 0 L172 358 L334 0 L454 0 Z " />
<glyph glyph-name="L" unicode="L" horiz-adv-x="375" d="M373 0 L373 91 L172 91 L172 768 L57 768 L57 0 L373 0 Z " />
<glyph glyph-name="M" unicode="M" horiz-adv-x="618" d="M569 0 L569 768 L404 768 L311 251 L219 768 L57 768 L57 0 L161 0 C161 0 161 474 161 495 C161 528 159 557 156 595 C159 575 164 562 167 542 C200 330 256 0 256 0 L350 0 C350 0 405 319 446 542 C449 557 453 570 458 590 C456 555 455 531 455 486 C455 453 455 0 455 0 L569 0 Z " />
<glyph glyph-name="N" unicode="N" horiz-adv-x="483" d="M426 0 L426 768 L323 768 C323 768 323 385 323 355 C323 310 325 285 328 256 C320 284 313 300 310 310 C269 429 163 768 163 768 L57 768 L57 0 L161 0 C161 0 161 239 161 391 C161 443 160 469 156 500 C165 471 176 447 183 424 C236 259 322 0 322 0 L426 0 Z " />
<glyph glyph-name="O" unicode="O" horiz-adv-x="484" d="M457 384 C457 686 385 780 242 780 C97 780 27 686 27 384 C27 75 90 -14 242 -14 C391 -14 457 75 457 384 L457 384 Z M336 383 C336 129 313 75 242 75 C168 75 148 128 148 383 C148 618 169 694 242 694 C312 694 336 618 336 383 L336 383 Z " />
<glyph glyph-name="P" unicode="P" horiz-adv-x="446" d="M429 536 C429 706 359 768 241 768 C168 768 57 768 57 768 L57 0 L172 0 L172 313 C195 312 208 312 240 312 C357 312 429 357 429 536 L429 536 Z M308 535 C308 444 281 403 239 403 C209 403 172 403 172 403 L172 681 C214 681 216 681 229 680 C284 675 308 643 308 535 L308 535 Z " />
<glyph glyph-name="Q" unicode="Q" horiz-adv-x="483" d="M457 384 C457 702 385 780 242 780 C97 780 27 702 27 384 C27 87 80 8 188 -10 C185 -24 182 -44 182 -57 C182 -140 232 -167 304 -167 C377 -167 415 -136 415 -65 C415 -58 414 -49 413 -44 L345 -30 C346 -71 339 -99 308 -99 C273 -99 260 -78 264 -33 C264 -28 266 -18 267 -13 C397 -4 457 74 457 384 L457 384 Z M336 383 C336 115 313 71 242 71 C169 71 148 115 148 383 C148 628 169 694 242 694 C312 694 336 631 336 383 L336 383 Z " />
<glyph glyph-name="R" unicode="R" horiz-adv-x="463" d="M439 0 C430 15 422 54 418 93 C416 118 413 150 413 179 C413 297 391 368 318 377 C389 394 431 437 431 556 C431 707 363 768 245 768 C170 768 57 768 57 768 L57 0 L172 0 L172 340 C172 340 203 340 230 340 C279 340 295 303 296 241 C297 203 297 141 297 114 C297 69 306 24 318 0 L439 0 Z M313 542 C313 458 289 426 239 426 C208 426 172 426 172 426 L172 681 C172 681 199 681 225 681 C283 681 313 639 313 542 L313 542 Z " />
<glyph glyph-name="S" unicode="S" horiz-adv-x="434" d="M412 214 C412 325 379 395 298 434 C269 448 249 457 223 469 C152 502 143 530 143 602 C143 666 157 698 206 698 C258 698 274 664 274 589 C274 566 271 538 268 521 L370 528 C375 549 380 575 380 602 C380 713 322 780 211 780 C84 780 31 701 31 573 C31 490 65 417 130 386 C154 374 172 368 197 356 C278 319 297 280 297 191 C297 97 271 74 218 74 C166 74 143 96 143 194 C143 223 146 255 151 279 L46 275 C38 249 32 212 32 181 C32 46 92 -14 217 -14 C358 -14 412 64 412 214 L412 214 Z " />
<glyph glyph-name="T" unicode="T" horiz-adv-x="391" d="M389 679 L389 768 L2 768 L2 679 L138 679 L138 0 L254 0 L254 679 L389 679 Z " />
<glyph glyph-name="U" unicode="U" horiz-adv-x="491" d="M439 186 C439 417 439 768 439 768 L326 768 C326 768 326 415 326 183 C326 129 320 79 247 79 C181 79 167 126 167 183 C167 414 167 768 167 768 L52 768 C52 768 52 417 52 186 C52 67 100 -14 246 -14 C409 -14 439 73 439 186 L439 186 Z " />
<glyph glyph-name="V" unicode="V" horiz-adv-x="418" d="M416 768 L309 768 C309 768 267 491 236 312 C228 267 221 219 215 181 C210 218 202 268 194 313 C162 491 117 768 117 768 L2 768 L146 -3 L271 -3 L416 768 Z " />
<glyph glyph-name="W" unicode="W" horiz-adv-x="588" d="M586 768 L482 768 C482 768 449 514 428 355 C424 321 419 282 415 257 C412 282 408 321 403 356 C380 516 345 768 345 768 L248 768 C248 768 210 519 187 355 C182 321 177 283 174 260 C172 283 167 320 163 354 C143 519 112 768 112 768 L2 768 L115 0 L220 0 C220 0 260 256 285 415 C289 439 292 468 295 485 C298 468 302 438 305 415 C328 253 365 0 365 0 L467 0 L586 768 Z " />
<glyph glyph-name="X" unicode="X" horiz-adv-x="433" d="M431 0 L279 405 L416 768 L303 768 L223 513 L141 768 L24 768 L159 399 L2 0 L113 0 L215 289 L314 0 L431 0 Z " />
<glyph glyph-name="Y" unicode="Y" horiz-adv-x="422" d="M425 768 L319 768 L218 428 L116 768 L-3 768 L155 297 L155 0 L271 0 L271 299 L425 768 Z " />
<glyph glyph-name="Z" unicode="Z" horiz-adv-x="410" d="M385 661 L385 768 L41 768 L41 679 L278 679 L19 107 L19 0 L383 0 L383 91 L126 91 L385 661 Z " />
<glyph glyph-name="bracketleft" unicode="&#x5b;" horiz-adv-x="311" d="M276 -136 L276 -48 L154 -48 L154 680 L276 680 L276 768 L50 768 L50 -136 L276 -136 Z " />
<glyph glyph-name="backslash" unicode="&#x5c;" horiz-adv-x="385" d="M382 0 L76 768 L3 768 L308 0 L382 0 Z " />
<glyph glyph-name="bracketright" unicode="&#x5d;" horiz-adv-x="311" d="M261 -136 L261 768 L35 768 L35 680 L157 680 L157 -48 L35 -48 L35 -136 L261 -136 Z " />
<glyph glyph-name="asciicircum" unicode="&#x5e;" horiz-adv-x="374" d="M324 600 L234 768 L141 768 L50 600 L132 600 L187 688 L242 600 L324 600 Z " />
<glyph glyph-name="underscore" unicode="&#x5f;" horiz-adv-x="490" d="M490 -200 L490 -117 L0 -117 L0 -200 L490 -200 Z " />
<glyph glyph-name="grave" unicode="&#x60;" horiz-adv-x="360" d="M283 605 L225 725 L76 725 L219 605 L283 605 Z " />
<glyph glyph-name="a" unicode="a" horiz-adv-x="393" d="M405 11 L405 63 C402 62 391 61 386 61 C354 61 346 75 346 99 C346 234 346 332 346 446 C346 531 296 574 195 574 C85 574 35 527 35 441 C35 409 40 394 45 375 L138 380 C134 397 131 415 131 433 C131 480 132 506 188 506 C240 506 246 471 246 418 C246 362 218 344 164 329 C157 327 137 321 130 319 C65 301 17 251 17 157 C17 34 60 -11 144 -11 C194 -11 229 7 255 55 C262 15 284 -9 325 -9 C358 -9 386 1 405 11 L405 11 Z M245 292 C245 292 244 216 243 164 C242 99 215 64 180 62 C134 59 123 91 123 151 C123 215 144 237 194 259 C208 265 237 282 245 292 L245 292 Z " />
<glyph glyph-name="b" unicode="b" horiz-adv-x="412" d="M390 280 C390 516 324 570 246 570 C183 570 156 529 142 491 C142 502 142 768 142 768 L37 768 L37 0 L70 0 L113 61 C132 27 161 -11 230 -11 C332 -11 390 47 390 280 L390 280 Z M282 279 C282 134 269 67 216 67 C158 67 141 110 141 289 C141 439 164 493 211 493 C265 493 282 456 282 279 L282 279 Z " />
<glyph glyph-name="c" unicode="c" horiz-adv-x="373" d="M353 160 C353 191 350 222 345 241 L254 245 C255 226 257 202 257 188 C257 94 245 67 198 67 C138 67 130 107 130 285 C130 451 141 497 196 497 C235 497 248 470 248 386 C248 370 247 358 245 345 L341 348 C343 360 345 384 345 403 C345 512 313 574 199 574 C84 574 22 516 22 274 C22 55 63 -11 196 -11 C315 -11 353 54 353 160 L353 160 Z " />
<glyph glyph-name="d" unicode="d" horiz-adv-x="412" d="M375 0 L375 768 L270 768 C270 768 270 507 270 495 C250 548 221 570 175 570 C83 570 22 491 22 271 C22 55 69 -11 172 -11 C220 -11 254 17 275 65 L275 0 L375 0 Z M271 278 C271 125 248 65 200 65 C140 65 130 113 130 279 C130 437 145 496 199 496 C254 496 271 390 271 278 L271 278 Z " />
<glyph glyph-name="e" unicode="e" horiz-adv-x="383" d="M356 144 C357 161 356 189 354 200 L262 207 C263 200 263 183 263 177 C261 102 253 67 200 67 C154 67 139 100 132 203 C131 212 130 246 130 257 L354 257 C356 277 357 305 356 332 C350 494 303 574 197 574 C81 574 22 495 22 264 C22 39 73 -11 202 -11 C311 -11 350 45 356 144 L356 144 Z M256 325 L130 325 C130 325 130 337 130 347 C135 465 149 498 196 498 C238 498 253 433 256 373 C257 356 257 339 256 325 L256 325 Z " />
<glyph glyph-name="f" unicode="f" horiz-adv-x="248" d="M306 679 C306 746 262 783 183 783 C105 783 61 737 61 659 C61 648 62 574 62 562 L2 562 L2 492 L62 492 L62 0 L168 0 L168 492 L244 492 L244 562 L164 562 C162 574 161 659 163 675 C166 700 177 712 194 712 C215 712 226 699 226 666 C226 652 224 642 221 630 L300 621 C303 634 306 655 306 679 L306 679 Z " />
<glyph glyph-name="g" unicode="g" horiz-adv-x="399" d="M405 -20 C405 89 353 142 258 138 C240 137 209 136 177 135 C113 133 111 145 111 168 C111 186 122 197 149 204 C166 199 189 196 217 196 C323 196 371 264 371 382 C371 451 358 488 333 517 L398 643 L301 643 L284 549 C267 560 238 570 203 570 C87 570 32 496 32 382 C32 315 55 243 103 221 C50 206 13 178 13 124 C13 85 34 46 99 42 C29 25 2 -15 2 -61 C2 -151 64 -194 199 -194 C349 -194 405 -133 405 -20 L405 -20 Z M264 382 C264 286 248 265 201 265 C158 265 139 286 139 382 C139 475 153 502 201 502 C247 502 264 475 264 382 L264 382 Z M316 -39 C316 -88 289 -127 199 -127 C118 -127 94 -104 94 -45 C94 -14 112 25 148 38 C163 40 203 42 224 42 C292 42 316 21 316 -39 L316 -39 Z " />
<glyph glyph-name="h" unicode="h" horiz-adv-x="409" d="M372 0 L372 455 C372 533 338 570 262 570 C209 570 161 536 142 479 L142 768 L37 768 L37 0 L143 0 C143 0 143 238 143 371 C143 447 180 488 213 488 C256 488 267 470 267 414 C267 279 267 0 267 0 L372 0 Z " />
<glyph glyph-name="i" unicode="i" horiz-adv-x="180" d="M143 630 L143 751 L37 751 L37 630 L143 630 Z M143 0 L143 562 L37 562 L37 0 L143 0 Z " />
<glyph glyph-name="j" unicode="j" horiz-adv-x="175" d="M150 630 L150 751 L41 751 L41 630 L150 630 Z M148 -54 C148 186 148 562 148 562 L42 562 C42 562 42 92 42 30 C42 15 45 -57 45 -65 C45 -96 35 -111 13 -111 C-9 -111 -19 -94 -19 -59 C-19 -51 -19 -43 -17 -34 L-100 -24 C-104 -35 -106 -56 -106 -70 C-106 -146 -60 -181 20 -181 C103 -181 148 -142 148 -54 L148 -54 Z " />
<glyph glyph-name="k" unicode="k" horiz-adv-x="381" d="M384 0 L237 330 L371 562 L264 562 L142 333 L142 768 L37 768 L37 0 L143 0 L143 185 L173 239 L273 0 L384 0 Z " />
<glyph glyph-name="l" unicode="l" horiz-adv-x="180" d="M143 0 L143 768 L37 768 L37 0 L143 0 Z " />
<glyph glyph-name="m" unicode="m" horiz-adv-x="630" d="M593 0 L593 450 C593 528 564 570 493 570 C432 570 383 537 364 476 C358 536 325 570 255 570 C194 570 161 538 141 477 C142 490 142 562 142 562 L37 562 L37 0 L143 0 C143 0 143 238 143 371 C143 450 174 488 207 488 C243 488 263 472 263 414 C263 275 263 0 263 0 L367 0 C367 0 367 238 367 371 C367 447 405 488 442 488 C482 488 488 472 488 414 C488 274 488 0 488 0 L593 0 Z " />
<glyph glyph-name="n" unicode="n" horiz-adv-x="409" d="M372 0 L372 455 C372 533 338 570 262 570 C209 570 161 536 142 479 L142 562 L37 562 L37 0 L143 0 C143 0 143 238 143 371 C143 447 180 488 213 488 C256 488 267 470 267 414 C267 279 267 0 267 0 L372 0 Z " />
<glyph glyph-name="o" unicode="o" horiz-adv-x="397" d="M375 272 C375 473 323 574 198 574 C73 574 22 473 22 272 C22 73 78 -11 198 -11 C318 -11 375 73 375 272 L375 272 Z M267 274 C267 108 254 67 198 67 C142 67 130 108 130 274 C130 443 142 497 198 497 C254 497 267 443 267 274 L267 274 Z " />
<glyph glyph-name="p" unicode="p" horiz-adv-x="412" d="M390 280 C390 516 324 570 246 570 C192 570 159 540 141 487 C141 498 141 562 141 562 L37 562 L37 -170 L141 -170 L141 53 C161 21 183 -9 234 -9 C332 -9 390 51 390 280 L390 280 Z M282 279 C282 85 258 67 211 67 C163 67 139 127 139 279 C139 435 168 491 211 491 C259 491 282 461 282 279 L282 279 Z " />
<glyph glyph-name="q" unicode="q" horiz-adv-x="412" d="M375 -170 L375 562 L335 562 L292 488 C277 525 245 570 184 570 C85 570 22 499 22 267 C22 57 69 -11 172 -11 C223 -11 251 18 270 59 L270 -170 L375 -170 Z M271 280 C271 134 256 65 200 65 C138 65 130 102 130 277 C130 460 150 496 196 496 C237 496 271 452 271 280 L271 280 Z " />
<glyph glyph-name="r" unicode="r" horiz-adv-x="354" d="M342 441 C342 526 310 570 240 570 C187 570 157 522 142 464 C142 482 142 562 142 562 L37 562 L37 0 L143 0 L143 335 C143 426 165 477 208 477 C239 477 244 452 244 411 C244 383 236 336 231 316 L326 328 C335 360 342 405 342 441 L342 441 Z " />
<glyph glyph-name="s" unicode="s" horiz-adv-x="375" d="M353 162 C353 242 322 298 242 329 C220 337 205 343 185 351 C135 371 125 392 125 432 C125 468 134 498 177 498 C219 498 233 475 233 430 C233 416 230 390 227 380 L323 385 C326 396 331 419 331 437 C331 523 279 574 176 574 C83 574 22 516 22 415 C22 332 46 295 108 270 C120 265 148 255 163 249 C237 219 244 192 244 144 C244 88 227 67 179 67 C127 67 117 98 117 148 C117 163 122 190 127 209 L32 205 C25 184 20 152 20 128 C20 43 71 -11 181 -11 C304 -11 353 54 353 162 L353 162 Z " />
<glyph glyph-name="t" unicode="t" horiz-adv-x="287" d="M287 21 L287 93 C266 84 246 76 220 76 C179 76 164 88 164 134 C164 273 164 492 164 492 L265 492 L265 562 L164 562 L164 723 L58 723 L58 562 L-8 562 L-8 492 L58 492 C58 492 58 266 58 121 C58 23 94 -9 172 -9 C226 -9 270 8 287 21 L287 21 Z " />
<glyph glyph-name="u" unicode="u" horiz-adv-x="409" d="M372 0 L372 562 L267 562 C267 562 267 346 267 208 C267 127 235 74 195 74 C147 74 143 101 143 151 C143 311 143 562 143 562 L37 562 C37 562 37 288 37 114 C37 35 71 -11 147 -11 C212 -11 244 25 268 83 C267 67 267 0 267 0 L372 0 Z " />
<glyph glyph-name="v" unicode="v" horiz-adv-x="367" d="M367 562 L269 562 L186 151 L104 562 L0 562 L128 0 L240 0 L367 562 Z " />
<glyph glyph-name="w" unicode="w" horiz-adv-x="546" d="M546 562 L448 562 L389 205 L317 562 L230 562 L167 205 L101 562 L0 562 L114 0 L209 0 L273 333 L340 0 L432 0 L546 562 Z " />
<glyph glyph-name="x" unicode="x" horiz-adv-x="375" d="M383 0 L240 293 L367 562 L261 562 L190 391 L121 562 L6 562 L132 297 L-8 0 L98 0 L180 205 L265 0 L383 0 Z " />
<glyph glyph-name="y" unicode="y" horiz-adv-x="387" d="M387 562 L284 562 L204 148 L111 562 L0 562 L152 -17 C145 -80 135 -105 102 -105 C78 -105 67 -93 67 -61 C67 -54 67 -46 69 -35 L-18 -24 C-21 -31 -24 -53 -24 -67 C-24 -139 12 -178 100 -178 C184 -178 230 -131 260 -2 C293 141 348 401 387 562 L387 562 Z " />
<glyph glyph-name="z" unicode="z" horiz-adv-x="334" d="M318 466 L318 562 L31 562 L31 479 L216 479 L8 85 L8 0 L316 0 L316 86 L113 86 L318 466 Z " />
<glyph glyph-name="braceleft" unicode="&#x7b;" horiz-adv-x="312" d="M284 -145 L284 -59 C284 -59 253 -59 235 -59 C210 -59 202 -45 202 -18 C202 62 202 164 202 256 C202 302 187 327 151 327 C191 327 202 349 202 396 C202 468 202 570 202 641 C202 665 212 682 235 682 C253 682 284 682 284 682 L284 768 C284 768 235 768 203 768 C129 768 98 730 98 653 C98 600 98 471 98 421 C98 383 92 369 59 366 C56 366 38 365 34 365 L34 289 C38 289 57 289 60 288 C88 285 98 271 98 237 C98 168 98 39 98 -32 C98 -118 134 -145 203 -145 C235 -145 284 -145 284 -145 L284 -145 Z " />
<glyph glyph-name="bar" unicode="&#x7c;" horiz-adv-x="203" d="M141 -200 L141 799 L60 799 L60 -200 L141 -200 Z " />
<glyph glyph-name="braceright" unicode="&#x7d;" horiz-adv-x="312" d="M282 289 L282 365 C278 365 260 366 257 366 C224 369 218 383 218 421 C218 471 218 600 218 653 C218 730 187 768 113 768 C83 768 32 768 32 768 L32 682 C32 682 63 682 81 682 C104 682 114 665 114 641 C114 570 114 468 114 396 C114 349 125 327 165 327 C129 327 114 302 114 256 C114 164 114 62 114 -18 C114 -45 106 -59 81 -59 C64 -59 32 -59 32 -59 L32 -145 C32 -145 82 -145 113 -145 C182 -145 218 -118 218 -32 C218 39 218 168 218 237 C218 271 228 285 256 288 C259 289 278 289 282 289 L282 289 Z " />
<glyph glyph-name="asciitilde" unicode="&#x7e;" horiz-adv-x="373" d="M335 709 C335 740 329 759 325 766 L286 766 C291 744 287 708 256 708 C242 708 230 718 221 726 C213 733 206 739 199 745 C176 763 156 776 119 776 C62 776 43 736 43 688 C43 661 49 642 53 635 L93 635 C88 656 89 689 121 689 C137 689 149 678 162 667 C170 660 179 651 183 648 C200 634 219 621 250 621 C309 621 335 660 335 709 L335 709 Z " />
<glyph glyph-name="nbspace" unicode="&#xa0;" horiz-adv-x="110" d="" />
<glyph glyph-name="exclamdown" unicode="&#xa1;" horiz-adv-x="247" d="M183 617 L183 768 L63 768 L63 617 L183 617 Z M182 0 L182 273 L157 540 L92 540 L65 273 L65 0 L182 0 Z " />
<glyph glyph-name="cent" unicode="&#xa2;" horiz-adv-x="409" d="M381 295 C381 326 378 357 373 376 L282 380 C283 361 285 337 285 323 C285 235 269 208 232 203 L232 629 C261 622 276 589 276 521 C276 505 275 493 273 480 L369 483 C371 495 373 519 373 538 C373 641 336 703 234 708 L234 768 L182 768 L182 707 C88 696 30 625 30 409 C30 210 72 136 182 126 L182 42 L234 42 L234 125 C340 132 381 196 381 295 L381 295 Z M184 208 C149 219 138 272 138 420 C138 558 151 613 184 626 L184 208 Z " />
<glyph glyph-name="sterling" unicode="&#xa3;" horiz-adv-x="535" d="M522 163 C522 192 517 216 510 237 L418 247 C422 236 426 212 426 195 C426 140 414 94 359 94 C319 94 289 113 270 126 C290 154 309 200 309 260 C309 280 308 301 305 315 L418 315 L418 410 L286 410 C268 464 253 516 253 583 C253 671 281 697 319 697 C356 697 383 663 383 579 C383 551 379 518 374 493 L481 505 C488 527 490 549 490 575 C490 709 426 777 318 777 C192 777 137 696 137 559 C137 505 150 455 165 410 L75 410 L75 315 L194 315 C201 291 206 265 206 241 C206 216 201 179 194 161 C168 173 144 180 115 180 C44 180 10 139 10 80 C10 25 48 -10 109 -10 C161 -10 194 15 222 50 C261 21 311 -11 382 -11 C474 -11 522 55 522 163 L522 163 Z M161 87 C149 70 129 52 109 52 C95 52 80 60 80 75 C80 95 93 104 109 104 C127 104 148 96 161 87 L161 87 Z " />
<glyph glyph-name="currency" unicode="&#xa4;" horiz-adv-x="468" d="M423 360 C423 520 338 651 235 651 C132 651 45 520 45 360 C45 202 130 70 235 70 C338 70 423 201 423 360 L423 360 Z M395 355 L304 281 L259 137 L216 262 L87 275 L169 400 L107 519 L217 466 L270 590 L303 431 L395 355 Z " />
<glyph glyph-name="yen" unicode="&#xa5;" horiz-adv-x="448" d="M448 768 L338 768 L231 432 L123 768 L0 768 L83 534 L5 534 L5 461 L110 461 L147 357 L5 357 L5 284 L168 284 L168 0 L284 0 L284 284 L443 284 L443 357 L304 357 L341 461 L443 461 L443 534 L366 534 L448 768 Z " />
<glyph glyph-name="brokenbar" unicode="&#xa6;" horiz-adv-x="468" d="M423 360 C423 520 338 651 235 651 C132 651 45 520 45 360 C45 202 130 70 235 70 C338 70 423 201 423 360 L423 360 Z M395 355 L304 281 L259 137 L216 262 L87 275 L169 400 L107 519 L217 466 L270 590 L303 431 L395 355 Z " />
<glyph glyph-name="section" unicode="&#xa7;" horiz-adv-x="413" d="M383 105 C383 173 354 212 314 243 C344 260 383 299 383 368 C383 455 338 504 260 536 C243 543 215 553 202 558 C145 580 134 601 134 640 C134 665 149 704 195 704 C237 704 263 683 263 637 C263 623 259 593 257 586 L353 591 C356 601 361 625 361 644 C361 730 299 780 195 780 C105 780 32 727 32 620 C32 538 66 512 101 489 C52 458 32 413 32 355 C32 273 64 239 128 211 C142 205 169 195 190 187 C260 159 274 132 274 85 C274 29 247 8 200 8 C145 8 127 39 127 89 C127 102 131 126 137 150 L42 146 C35 125 30 92 30 68 C30 -24 102 -70 199 -70 C323 -70 383 -7 383 105 L383 105 Z M274 354 C274 314 262 290 238 280 C226 283 176 302 163 311 C142 326 135 343 135 375 C135 419 158 446 180 452 C193 448 223 435 236 428 C265 413 274 394 274 354 L274 354 Z " />
<glyph glyph-name="dieresis" unicode="&#xa8;" horiz-adv-x="360" d="M340 605 L340 709 L229 709 L229 605 L340 605 Z M131 605 L131 709 L20 709 L20 605 L131 605 Z " />
<glyph glyph-name="copyright" unicode="&#xa9;" horiz-adv-x="681" d="M646 447 C646 620 509 761 341 761 C172 761 35 620 35 447 C35 275 173 133 341 133 C509 133 646 275 646 447 L646 447 Z M602 447 C602 297 487 172 341 172 C195 172 79 297 79 447 C79 596 195 721 341 721 C487 721 602 596 602 447 L602 447 Z M472 368 C472 381 469 406 468 414 L394 420 C396 401 397 387 397 371 C397 311 382 296 347 296 C306 296 286 314 286 444 C286 575 302 597 342 597 C369 597 391 587 391 520 C391 511 389 498 388 490 L464 496 C465 501 466 511 466 518 C466 604 438 655 341 655 C252 655 198 612 198 445 C198 285 240 236 344 236 C436 236 472 278 472 368 L472 368 Z " />
<glyph glyph-name="ordfeminine" unicode="&#xaa;" horiz-adv-x="377" d="M327 412 L327 454 C324 452 317 449 312 449 C296 449 295 458 295 475 C295 547 295 615 295 685 C295 745 245 771 180 771 C105 771 59 743 59 685 C59 667 62 653 67 640 L141 643 C138 654 136 668 136 680 C136 716 152 727 174 727 C198 727 212 705 212 680 C212 643 198 627 158 616 C151 614 137 611 124 608 C75 597 45 560 45 504 C45 426 85 396 138 396 C171 396 196 405 218 438 C223 409 244 397 280 397 C298 397 315 404 327 412 L327 412 Z M327 315 L327 361 L50 361 L50 315 L327 315 Z M211 522 C211 489 200 448 171 448 C145 448 134 469 134 500 C134 545 147 553 177 568 C189 574 207 588 211 593 C211 593 211 544 211 522 L211 522 Z " />
<glyph glyph-name="guillemotleft" unicode="&#xab;" horiz-adv-x="530" d="M480 49 L480 169 L340 283 L480 397 L480 517 L267 348 L267 218 L480 49 Z M253 49 L253 169 L113 283 L253 397 L253 517 L40 348 L40 218 L253 49 Z " />
<glyph glyph-name="logicalnot" unicode="&#xac;" horiz-adv-x="468" d="M423 360 C423 520 338 651 235 651 C132 651 45 520 45 360 C45 202 130 70 235 70 C338 70 423 201 423 360 L423 360 Z M395 355 L304 281 L259 137 L216 262 L87 275 L169 400 L107 519 L217 466 L270 590 L303 431 L395 355 Z " />
<glyph glyph-name="registered" unicode="&#xae;" horiz-adv-x="681" d="M646 447 C646 620 509 761 341 761 C172 761 35 620 35 447 C35 275 173 133 341 133 C509 133 646 275 646 447 L646 447 Z M602 447 C602 297 487 172 341 172 C195 172 79 297 79 447 C79 596 195 721 341 721 C487 721 602 596 602 447 L602 447 Z M467 525 C467 615 431 650 362 650 C315 650 229 650 229 650 L229 245 L306 245 L306 405 C306 405 332 405 347 405 C371 405 380 389 380 362 C380 353 380 310 380 294 C380 264 386 252 388 245 L465 245 C462 253 459 274 459 290 C459 377 454 424 387 435 C442 442 467 473 467 525 L467 525 Z M387 528 C387 479 377 460 350 460 C334 460 306 460 306 460 L306 599 C306 599 333 599 349 599 C370 599 387 581 387 528 L387 528 Z " />
<glyph glyph-name="macron" unicode="&#xaf;" horiz-adv-x="360" d="M305 623 L305 697 L58 697 L58 623 L305 623 Z " />
<glyph glyph-name="degree" unicode="&#xb0;" horiz-adv-x="332" d="M282 660 C282 723 230 774 166 774 C102 774 50 723 50 660 C50 596 102 544 166 544 C230 544 282 596 282 660 L282 660 Z M228 659 C228 622 201 593 166 593 C132 593 105 622 105 659 C105 696 131 725 166 725 C201 725 228 696 228 659 L228 659 Z " />
<glyph glyph-name="plusminus" unicode="&#xb1;" horiz-adv-x="619" d="M592 0 L592 768 L482 768 C464 776 441 783 407 783 C366 783 325 773 301 746 C275 772 237 783 195 783 C107 783 61 743 61 659 C61 648 62 574 62 562 L2 562 L2 492 L62 492 L62 0 L168 0 L168 492 L274 492 L274 0 L380 0 L380 492 L445 492 L445 562 L376 562 C374 574 373 656 375 672 C378 697 393 712 423 712 C465 712 486 676 486 638 C486 390 486 0 486 0 L592 0 Z M274 562 L164 562 C162 574 160 654 163 670 C169 703 183 712 212 712 C245 712 271 687 273 645 C274 615 274 573 274 562 L274 562 Z " />
<glyph glyph-name="twosuperior" unicode="&#xb2;" horiz-adv-x="468" d="M423 360 C423 520 338 651 235 651 C132 651 45 520 45 360 C45 202 130 70 235 70 C338 70 423 201 423 360 L423 360 Z M395 355 L304 281 L259 137 L216 262 L87 275 L169 400 L107 519 L217 466 L270 590 L303 431 L395 355 Z " />
<glyph glyph-name="threesuperior" unicode="&#xb3;" horiz-adv-x="468" d="M423 360 C423 520 338 651 235 651 C132 651 45 520 45 360 C45 202 130 70 235 70 C338 70 423 201 423 360 L423 360 Z M395 355 L304 281 L259 137 L216 262 L87 275 L169 400 L107 519 L217 466 L270 590 L303 431 L395 355 Z " />
<glyph glyph-name="acute" unicode="&#xb4;" horiz-adv-x="360" d="M283 725 L134 725 L76 605 L140 605 L283 725 Z " />
<glyph glyph-name="mu" unicode="&#xb5;" horiz-adv-x="468" d="M423 360 C423 520 338 651 235 651 C132 651 45 520 45 360 C45 202 130 70 235 70 C338 70 423 201 423 360 L423 360 Z M395 355 L304 281 L259 137 L216 262 L87 275 L169 400 L107 519 L217 466 L270 590 L303 431 L395 355 Z " />
<glyph glyph-name="paragraph" unicode="&#xb6;" horiz-adv-x="479" d="M414 -47 L414 768 C414 768 281 768 199 768 C110 768 30 709 30 517 C30 341 114 274 240 274 L240 -47 L305 -47 L305 711 L349 711 L349 -47 L414 -47 Z M240 330 C214 330 180 347 180 516 C180 667 196 711 240 711 L240 330 Z " />
<glyph glyph-name="periodcentered" unicode="&#xb7;" horiz-adv-x="306" d="M241 393 C241 442 202 481 153 481 C104 481 65 442 65 393 C65 344 104 305 153 305 C202 305 241 344 241 393 L241 393 Z " />
<glyph glyph-name="cedilla" unicode="&#xb8;" horiz-adv-x="360" d="M271 -106 C271 -58 236 -21 180 -21 C167 -21 150 -22 146 -23 L132 -80 C163 -69 194 -76 194 -109 C194 -127 188 -141 162 -141 C123 -141 101 -126 84 -112 L57 -160 C76 -178 119 -196 169 -196 C234 -196 271 -158 271 -106 L271 -106 Z " />
<glyph glyph-name="onesuperior" unicode="&#xb9;" horiz-adv-x="468" d="M423 360 C423 520 338 651 235 651 C132 651 45 520 45 360 C45 202 130 70 235 70 C338 70 423 201 423 360 L423 360 Z M395 355 L304 281 L259 137 L216 262 L87 275 L169 400 L107 519 L217 466 L270 590 L303 431 L395 355 Z " />
<glyph glyph-name="ordmasculine" unicode="&#xba;" horiz-adv-x="377" d="M323 582 C323 714 279 780 189 780 C99 780 55 714 55 582 C55 449 99 396 189 396 C279 396 323 449 323 582 L323 582 Z M327 315 L327 361 L50 361 L50 315 L327 315 Z M234 583 C234 464 220 446 189 446 C158 446 144 466 144 583 C144 700 158 729 189 729 C220 729 234 701 234 583 L234 583 Z " />
<glyph glyph-name="guillemotright" unicode="&#xbb;" horiz-adv-x="530" d="M490 218 L490 348 L277 517 L277 397 L417 283 L277 169 L277 49 L490 218 Z M263 218 L263 348 L50 517 L50 397 L190 283 L50 169 L50 49 L263 218 Z " />
<glyph glyph-name="onequarter" unicode="&#xbc;" horiz-adv-x="468" d="M423 360 C423 520 338 651 235 651 C132 651 45 520 45 360 C45 202 130 70 235 70 C338 70 423 201 423 360 L423 360 Z M395 355 L304 281 L259 137 L216 262 L87 275 L169 400 L107 519 L217 466 L270 590 L303 431 L395 355 Z " />
<glyph glyph-name="onehalf" unicode="&#xbd;" horiz-adv-x="468" d="M423 360 C423 520 338 651 235 651 C132 651 45 520 45 360 C45 202 130 70 235 70 C338 70 423 201 423 360 L423 360 Z M395 355 L304 281 L259 137 L216 262 L87 275 L169 400 L107 519 L217 466 L270 590 L303 431 L395 355 Z " />
<glyph glyph-name="threequarters" unicode="&#xbe;" horiz-adv-x="468" d="M423 360 C423 520 338 651 235 651 C132 651 45 520 45 360 C45 202 130 70 235 70 C338 70 423 201 423 360 L423 360 Z M395 355 L304 281 L259 137 L216 262 L87 275 L169 400 L107 519 L217 466 L270 590 L303 431 L395 355 Z " />
<glyph glyph-name="questiondown" unicode="&#xbf;" horiz-adv-x="410" d="M352 613 L352 768 L224 768 L224 613 L352 613 Z M375 138 C375 170 371 189 366 206 L268 206 C271 195 275 176 275 154 C275 103 258 79 218 79 C171 79 152 119 152 235 C152 330 160 371 207 371 C247 371 260 344 266 290 L338 290 L338 544 L257 544 L257 420 C238 450 208 470 163 470 C86 470 35 423 35 235 C35 57 96 -12 208 -12 C329 -12 375 53 375 138 L375 138 Z " />
<glyph glyph-name="Agrave" unicode="&#xc0;" horiz-adv-x="422" d="M420 0 L275 771 L140 771 L2 0 L107 0 L133 146 L278 146 L305 0 L420 0 Z M260 241 L149 241 L205 617 L260 241 Z M262 800 L204 920 L55 920 L198 800 L262 800 Z " />
<glyph glyph-name="Aacute" unicode="&#xc1;" horiz-adv-x="422" d="M420 0 L275 771 L140 771 L2 0 L107 0 L133 146 L278 146 L305 0 L420 0 Z M260 241 L149 241 L205 617 L260 241 Z M354 920 L205 920 L147 800 L211 800 L354 920 Z " />
<glyph glyph-name="Acircumflex" unicode="&#xc2;" horiz-adv-x="422" d="M420 0 L275 771 L140 771 L2 0 L107 0 L133 146 L278 146 L305 0 L420 0 Z M260 241 L149 241 L205 617 L260 241 Z M332 800 L260 920 L150 920 L78 800 L130 800 L205 855 L280 800 L332 800 Z " />
<glyph glyph-name="Atilde" unicode="&#xc3;" horiz-adv-x="422" d="M420 0 L275 771 L140 771 L2 0 L107 0 L133 146 L278 146 L305 0 L420 0 Z M260 241 L149 241 L205 617 L260 241 Z M330 861 C330 878 324 892 320 899 L281 899 C283 895 283 891 283 885 C282 874 278 861 259 861 C247 861 239 866 230 871 C225 874 216 881 212 883 C191 898 174 907 145 907 C94 907 76 878 76 846 C76 829 82 816 86 810 L125 810 C124 813 123 818 123 823 C123 833 128 846 148 846 C159 846 168 841 178 835 C181 833 192 825 195 823 C212 811 230 800 256 800 C308 800 330 829 330 861 L330 861 Z " />
<glyph glyph-name="Adieresis" unicode="&#xc4;" horiz-adv-x="422" d="M420 0 L275 771 L140 771 L2 0 L107 0 L133 146 L278 146 L305 0 L420 0 Z M260 241 L149 241 L205 617 L260 241 Z M365 800 L365 904 L254 904 L254 800 L365 800 Z M156 800 L156 904 L45 904 L45 800 L156 800 Z " />
<glyph glyph-name="Aring" unicode="&#xc5;" horiz-adv-x="422" d="M420 0 L278 757 C296 776 309 800 309 831 C309 888 263 933 205 933 C147 933 101 888 101 831 C101 801 115 771 137 752 L1 0 L107 0 L133 146 L278 146 L305 0 L420 0 Z M261 830 C261 797 236 771 205 771 C174 771 150 797 150 830 C150 863 174 889 205 889 C236 889 261 863 261 830 L261 830 Z M260 241 L149 241 L205 616 L260 241 Z " />
<glyph glyph-name="AE" unicode="&#xc6;" horiz-adv-x="613" d="M606 0 L606 91 L381 91 L381 347 L565 347 L565 444 L381 444 L381 679 L586 679 L586 768 L207 768 L-19 0 L93 0 L135 146 L266 146 L266 0 L606 0 Z M266 241 L162 241 L266 636 L266 241 Z " />
<glyph glyph-name="Ccedilla" unicode="&#xc7;" horiz-adv-x="451" d="M426 257 C426 277 426 303 423 325 L314 332 C317 303 318 269 318 234 C318 132 306 75 245 75 C175 75 148 112 148 377 C148 639 168 694 237 694 C299 694 311 647 311 543 C311 526 310 489 308 470 L415 481 C418 497 421 522 421 536 C425 680 396 780 236 780 C83 780 27 677 27 355 C27 131 47 -14 245 -14 C389 -14 426 100 426 257 L426 257 Z M331 -106 C331 -58 296 -21 240 -21 C227 -21 210 -22 206 -23 L192 -80 C223 -69 254 -76 254 -109 C254 -127 248 -141 222 -141 C183 -141 161 -126 144 -112 L117 -160 C136 -178 179 -196 229 -196 C294 -196 331 -158 331 -106 L331 -106 Z " />
<glyph glyph-name="Egrave" unicode="&#xc8;" horiz-adv-x="399" d="M387 0 L387 91 L172 91 L172 347 L346 347 L346 444 L172 444 L172 679 L367 679 L367 768 L57 768 L57 0 L387 0 Z M313 800 L255 920 L106 920 L249 800 L313 800 Z " />
<glyph glyph-name="Eacute" unicode="&#xc9;" horiz-adv-x="399" d="M387 0 L387 91 L172 91 L172 347 L346 347 L346 444 L172 444 L172 679 L367 679 L367 768 L57 768 L57 0 L387 0 Z M345 920 L196 920 L138 800 L202 800 L345 920 Z " />
<glyph glyph-name="Ecircumflex" unicode="&#xca;" horiz-adv-x="399" d="M387 0 L387 91 L172 91 L172 347 L346 347 L346 444 L172 444 L172 679 L367 679 L367 768 L57 768 L57 0 L387 0 Z M341 800 L269 920 L159 920 L87 800 L139 800 L214 855 L289 800 L341 800 Z " />
<glyph glyph-name="Edieresis" unicode="&#xcb;" horiz-adv-x="399" d="M387 0 L387 91 L172 91 L172 347 L346 347 L346 444 L172 444 L172 679 L367 679 L367 768 L57 768 L57 0 L387 0 Z M373 800 L373 904 L262 904 L262 800 L373 800 Z M164 800 L164 904 L53 904 L53 800 L164 800 Z " />
<glyph glyph-name="Igrave" unicode="&#xcc;" horiz-adv-x="229" d="M172 0 L172 768 L57 768 L57 0 L172 0 Z M152 800 L94 920 L-55 920 L88 800 L152 800 Z " />
<glyph glyph-name="Iacute" unicode="&#xcd;" horiz-adv-x="229" d="M172 0 L172 768 L57 768 L57 0 L172 0 Z M264 920 L115 920 L57 800 L121 800 L264 920 Z " />
<glyph glyph-name="Icircumflex" unicode="&#xce;" horiz-adv-x="229" d="M172 0 L172 768 L57 768 L57 0 L172 0 Z M242 800 L170 920 L60 920 L-12 800 L40 800 L115 855 L190 800 L242 800 Z " />
<glyph glyph-name="Idieresis" unicode="&#xcf;" horiz-adv-x="229" d="M172 0 L172 768 L57 768 L57 0 L172 0 Z M265 800 L265 904 L154 904 L154 800 L265 800 Z M56 800 L56 904 L-55 904 L-55 800 L56 800 Z " />
<glyph glyph-name="Eth" unicode="&#xd0;" horiz-adv-x="484" d="M457 353 C457 660 380 768 240 768 C168 768 57 768 57 768 L57 439 L8 439 L8 342 L57 342 L57 0 C57 0 174 0 248 0 C400 0 457 102 457 353 L457 353 Z M336 355 C336 136 315 91 235 91 C207 91 172 91 172 91 L172 342 L261 342 L261 439 L172 439 L172 679 C172 679 201 679 228 679 C302 679 336 612 336 355 L336 355 Z " />
<glyph glyph-name="Ntilde" unicode="&#xd1;" horiz-adv-x="483" d="M426 0 L426 768 L323 768 C323 768 323 385 323 355 C323 310 325 285 328 256 C320 284 313 300 310 310 C269 429 163 768 163 768 L57 768 L57 0 L161 0 C161 0 161 239 161 391 C161 443 160 469 156 500 C165 471 176 447 183 424 C236 259 322 0 322 0 L426 0 Z M368 861 C368 878 362 892 358 899 L319 899 C321 895 321 891 321 885 C320 874 316 861 297 861 C285 861 277 866 268 871 C263 874 254 881 250 883 C229 898 212 907 183 907 C132 907 114 878 114 846 C114 829 120 816 124 810 L163 810 C162 813 161 818 161 823 C161 833 166 846 186 846 C197 846 206 841 216 835 C219 833 230 825 233 823 C250 811 268 800 294 800 C346 800 368 829 368 861 L368 861 Z " />
<glyph glyph-name="Ograve" unicode="&#xd2;" horiz-adv-x="484" d="M457 384 C457 686 385 780 242 780 C97 780 27 686 27 384 C27 75 90 -14 242 -14 C391 -14 457 75 457 384 L457 384 Z M336 383 C336 129 313 75 242 75 C168 75 148 128 148 383 C148 618 169 694 242 694 C312 694 336 618 336 383 L336 383 Z M333 800 L275 920 L126 920 L269 800 L333 800 Z " />
<glyph glyph-name="Oacute" unicode="&#xd3;" horiz-adv-x="484" d="M457 384 C457 686 385 780 242 780 C97 780 27 686 27 384 C27 75 90 -14 242 -14 C391 -14 457 75 457 384 L457 384 Z M336 383 C336 129 313 75 242 75 C168 75 148 128 148 383 C148 618 169 694 242 694 C312 694 336 618 336 383 L336 383 Z M355 920 L206 920 L148 800 L212 800 L355 920 Z " />
<glyph glyph-name="Ocircumflex" unicode="&#xd4;" horiz-adv-x="484" d="M457 384 C457 686 385 780 242 780 C97 780 27 686 27 384 C27 75 90 -14 242 -14 C391 -14 457 75 457 384 L457 384 Z M336 383 C336 129 313 75 242 75 C168 75 148 128 148 383 C148 618 169 694 242 694 C312 694 336 618 336 383 L336 383 Z M369 800 L297 920 L187 920 L115 800 L167 800 L242 855 L317 800 L369 800 Z " />
<glyph glyph-name="Otilde" unicode="&#xd5;" horiz-adv-x="484" d="M457 384 C457 686 385 780 242 780 C97 780 27 686 27 384 C27 75 90 -14 242 -14 C391 -14 457 75 457 384 L457 384 Z M336 383 C336 129 313 75 242 75 C168 75 148 128 148 383 C148 618 169 694 242 694 C312 694 336 618 336 383 L336 383 Z M371 861 C371 878 365 892 361 899 L322 899 C324 895 324 891 324 885 C323 874 319 861 300 861 C288 861 280 866 271 871 C266 874 257 881 253 883 C232 898 215 907 186 907 C135 907 117 878 117 846 C117 829 123 816 127 810 L166 810 C165 813 164 818 164 823 C164 833 169 846 189 846 C200 846 209 841 219 835 C222 833 233 825 236 823 C253 811 271 800 297 800 C349 800 371 829 371 861 L371 861 Z " />
<glyph glyph-name="Odieresis" unicode="&#xd6;" horiz-adv-x="484" d="M457 384 C457 686 385 780 242 780 C97 780 27 686 27 384 C27 75 90 -14 242 -14 C391 -14 457 75 457 384 L457 384 Z M336 383 C336 129 313 75 242 75 C168 75 148 128 148 383 C148 618 169 694 242 694 C312 694 336 618 336 383 L336 383 Z M402 800 L402 904 L291 904 L291 800 L402 800 Z M193 800 L193 904 L82 904 L82 800 L193 800 Z " />
<glyph glyph-name="multiply" unicode="&#xd7;" horiz-adv-x="468" d="M423 360 C423 520 338 651 235 651 C132 651 45 520 45 360 C45 202 130 70 235 70 C338 70 423 201 423 360 L423 360 Z M395 355 L304 281 L259 137 L216 262 L87 275 L169 400 L107 519 L217 466 L270 590 L303 431 L395 355 Z " />
<glyph glyph-name="Oslash" unicode="&#xd8;" horiz-adv-x="484" d="M465 780 L412 780 L383 723 C346 765 300 780 242 780 C97 780 27 686 27 384 C27 243 39 154 66 93 L13 -14 L64 -14 L94 45 C128 3 179 -14 242 -14 C391 -14 457 75 457 384 C457 525 444 613 412 676 L465 780 Z M323 602 L150 260 C148 298 148 328 148 383 C148 618 169 694 242 694 C281 694 308 668 323 602 L323 602 Z M336 383 C336 129 313 75 242 75 C198 75 167 99 158 171 L332 517 C336 476 336 442 336 383 L336 383 Z " />
<glyph glyph-name="Ugrave" unicode="&#xd9;" horiz-adv-x="491" d="M439 186 C439 417 439 768 439 768 L326 768 C326 768 326 415 326 183 C326 129 320 79 247 79 C181 79 167 126 167 183 C167 414 167 768 167 768 L52 768 C52 768 52 417 52 186 C52 67 100 -14 246 -14 C409 -14 439 73 439 186 L439 186 Z M326 800 L268 920 L119 920 L262 800 L326 800 Z " />
<glyph glyph-name="Uacute" unicode="&#xda;" horiz-adv-x="491" d="M439 186 C439 417 439 768 439 768 L326 768 C326 768 326 415 326 183 C326 129 320 79 247 79 C181 79 167 126 167 183 C167 414 167 768 167 768 L52 768 C52 768 52 417 52 186 C52 67 100 -14 246 -14 C409 -14 439 73 439 186 L439 186 Z M374 920 L225 920 L167 800 L231 800 L374 920 Z " />
<glyph glyph-name="Ucircumflex" unicode="&#xdb;" horiz-adv-x="491" d="M439 186 C439 417 439 768 439 768 L326 768 C326 768 326 415 326 183 C326 129 320 79 247 79 C181 79 167 126 167 183 C167 414 167 768 167 768 L52 768 C52 768 52 417 52 186 C52 67 100 -14 246 -14 C409 -14 439 73 439 186 L439 186 Z M374 800 L302 920 L192 920 L120 800 L172 800 L247 855 L322 800 L374 800 Z " />
<glyph glyph-name="Udieresis" unicode="&#xdc;" horiz-adv-x="491" d="M439 186 C439 417 439 768 439 768 L326 768 C326 768 326 415 326 183 C326 129 320 79 247 79 C181 79 167 126 167 183 C167 414 167 768 167 768 L52 768 C52 768 52 417 52 186 C52 67 100 -14 246 -14 C409 -14 439 73 439 186 L439 186 Z M407 800 L407 904 L296 904 L296 800 L407 800 Z M198 800 L198 904 L87 904 L87 800 L198 800 Z " />
<glyph glyph-name="Yacute" unicode="&#xdd;" horiz-adv-x="422" d="M425 768 L319 768 L218 428 L116 768 L-3 768 L155 297 L155 0 L271 0 L271 299 L425 768 Z M369 920 L220 920 L162 800 L226 800 L369 920 Z " />
<glyph glyph-name="Thorn" unicode="&#xde;" horiz-adv-x="446" d="M429 379 C429 549 354 611 236 611 C203 611 172 611 172 611 L172 768 L57 768 L57 0 L172 0 L172 156 C172 156 203 155 235 155 C353 155 429 200 429 379 L429 379 Z M308 378 C308 287 277 246 232 246 C202 246 172 246 172 246 L172 524 C172 524 203 525 224 523 C280 519 308 484 308 378 L308 378 Z " />
<glyph glyph-name="germandbls" unicode="&#xdf;" horiz-adv-x="430" d="M401 217 C401 340 359 395 279 412 C352 422 382 478 382 574 C382 702 340 780 215 780 C89 780 45 720 45 582 C45 355 45 0 45 0 L150 0 C150 0 150 603 150 625 C150 660 168 703 209 703 C245 703 271 674 271 585 C271 495 255 454 202 454 L202 359 C257 359 293 311 293 229 C293 96 256 81 202 81 L202 0 C202 0 210 0 215 0 C333 0 401 55 401 217 L401 217 Z " />
<glyph glyph-name="agrave" unicode="&#xe0;" horiz-adv-x="393" d="M405 11 L405 63 C402 62 391 61 386 61 C354 61 346 75 346 99 C346 234 346 332 346 446 C346 531 296 574 195 574 C85 574 35 527 35 441 C35 409 40 394 45 375 L138 380 C134 397 131 415 131 433 C131 480 132 506 188 506 C240 506 246 471 246 418 C246 362 218 344 164 329 C157 327 137 321 130 319 C65 301 17 251 17 157 C17 34 60 -11 144 -11 C194 -11 229 7 255 55 C262 15 284 -9 325 -9 C358 -9 386 1 405 11 L405 11 Z M245 292 C245 292 244 216 243 164 C242 99 215 64 180 62 C134 59 123 91 123 151 C123 215 144 237 194 259 C208 265 237 282 245 292 L245 292 Z M264 605 L206 725 L57 725 L200 605 L264 605 Z " />
<glyph glyph-name="aacute" unicode="&#xe1;" horiz-adv-x="393" d="M405 11 L405 63 C402 62 391 61 386 61 C354 61 346 75 346 99 C346 234 346 332 346 446 C346 531 296 574 195 574 C85 574 35 527 35 441 C35 409 40 394 45 375 L138 380 C134 397 131 415 131 433 C131 480 132 506 188 506 C240 506 246 471 246 418 C246 362 218 344 164 329 C157 327 137 321 130 319 C65 301 17 251 17 157 C17 34 60 -11 144 -11 C194 -11 229 7 255 55 C262 15 284 -9 325 -9 C358 -9 386 1 405 11 L405 11 Z M245 292 C245 292 244 216 243 164 C242 99 215 64 180 62 C134 59 123 91 123 151 C123 215 144 237 194 259 C208 265 237 282 245 292 L245 292 Z M340 725 L191 725 L133 605 L197 605 L340 725 Z " />
<glyph glyph-name="acircumflex" unicode="&#xe2;" horiz-adv-x="393" d="M405 11 L405 63 C402 62 391 61 386 61 C354 61 346 75 346 99 C346 234 346 332 346 446 C346 531 296 574 195 574 C85 574 35 527 35 441 C35 409 40 394 45 375 L138 380 C134 397 131 415 131 433 C131 480 132 506 188 506 C240 506 246 471 246 418 C246 362 218 344 164 329 C157 327 137 321 130 319 C65 301 17 251 17 157 C17 34 60 -11 144 -11 C194 -11 229 7 255 55 C262 15 284 -9 325 -9 C358 -9 386 1 405 11 L405 11 Z M245 292 C245 292 244 216 243 164 C242 99 215 64 180 62 C134 59 123 91 123 151 C123 215 144 237 194 259 C208 265 237 282 245 292 L245 292 Z M326 605 L254 725 L144 725 L72 605 L124 605 L199 660 L274 605 L326 605 Z " />
<glyph glyph-name="atilde" unicode="&#xe3;" horiz-adv-x="393" d="M405 11 L405 63 C402 62 391 61 386 61 C354 61 346 75 346 99 C346 234 346 332 346 446 C346 531 296 574 195 574 C85 574 35 527 35 441 C35 409 40 394 45 375 L138 380 C134 397 131 415 131 433 C131 480 132 506 188 506 C240 506 246 471 246 418 C246 362 218 344 164 329 C157 327 137 321 130 319 C65 301 17 251 17 157 C17 34 60 -11 144 -11 C194 -11 229 7 255 55 C262 15 284 -9 325 -9 C358 -9 386 1 405 11 L405 11 Z M245 292 C245 292 244 216 243 164 C242 99 215 64 180 62 C134 59 123 91 123 151 C123 215 144 237 194 259 C208 265 237 282 245 292 L245 292 Z M328 666 C328 683 322 697 318 704 L279 704 C281 700 281 696 281 690 C280 679 276 666 257 666 C245 666 237 671 228 676 C223 679 214 686 210 688 C189 703 172 712 143 712 C92 712 74 683 74 651 C74 634 80 621 84 615 L123 615 C122 618 121 623 121 628 C121 638 126 651 146 651 C157 651 166 646 176 640 C179 638 190 630 193 628 C210 616 228 605 254 605 C306 605 328 634 328 666 L328 666 Z " />
<glyph glyph-name="adieresis" unicode="&#xe4;" horiz-adv-x="393" d="M405 11 L405 63 C402 62 391 61 386 61 C354 61 346 75 346 99 C346 234 346 332 346 446 C346 531 296 574 195 574 C85 574 35 527 35 441 C35 409 40 394 45 375 L138 380 C134 397 131 415 131 433 C131 480 132 506 188 506 C240 506 246 471 246 418 C246 362 218 344 164 329 C157 327 137 321 130 319 C65 301 17 251 17 157 C17 34 60 -11 144 -11 C194 -11 229 7 255 55 C262 15 284 -9 325 -9 C358 -9 386 1 405 11 L405 11 Z M245 292 C245 292 244 216 243 164 C242 99 215 64 180 62 C134 59 123 91 123 151 C123 215 144 237 194 259 C208 265 237 282 245 292 L245 292 Z M360 605 L360 709 L249 709 L249 605 L360 605 Z M151 605 L151 709 L40 709 L40 605 L151 605 Z " />
<glyph glyph-name="aring" unicode="&#xe5;" horiz-adv-x="393" d="M405 11 L405 63 C402 62 391 61 386 61 C354 61 346 75 346 99 C346 234 346 332 346 446 C346 531 296 574 195 574 C85 574 35 527 35 441 C35 409 40 394 45 375 L138 380 C134 397 131 415 131 433 C131 480 132 506 188 506 C240 506 246 471 246 418 C246 362 218 344 164 329 C157 327 137 321 130 319 C65 301 17 251 17 157 C17 34 60 -11 144 -11 C194 -11 229 7 255 55 C262 15 284 -9 325 -9 C358 -9 386 1 405 11 L405 11 Z M245 292 C245 292 244 216 243 164 C242 99 215 64 180 62 C134 59 123 91 123 151 C123 215 144 237 194 259 C208 265 237 282 245 292 L245 292 Z M304 709 C304 766 258 811 200 811 C142 811 96 766 96 709 C96 651 142 605 200 605 C258 605 304 651 304 709 L304 709 Z M256 708 C256 675 231 649 200 649 C169 649 145 675 145 708 C145 741 169 767 200 767 C231 767 256 741 256 708 L256 708 Z " />
<glyph glyph-name="ae" unicode="&#xe6;" horiz-adv-x="628" d="M601 144 C602 161 601 189 599 200 L507 207 C508 200 508 183 508 177 C506 94 494 67 445 67 C395 67 374 100 367 203 C366 212 365 246 365 257 L599 257 C601 277 602 305 601 332 C595 494 548 574 442 574 C399 574 355 562 329 532 C299 563 254 574 200 574 C90 574 40 527 40 441 C40 409 45 394 50 375 L143 380 C139 397 136 415 136 433 C136 480 137 506 193 506 C245 506 261 471 261 418 C261 362 223 344 169 329 C162 327 142 321 135 319 C63 299 22 251 22 157 C22 34 65 -11 149 -11 C217 -11 262 18 283 79 C312 3 377 -11 447 -11 C556 -11 595 45 601 144 L601 144 Z M501 325 L365 325 C365 325 365 337 365 347 C370 465 394 498 441 498 C483 498 495 442 501 382 C503 365 502 338 501 325 L501 325 Z M260 297 C260 297 259 216 258 164 C257 99 232 64 190 62 C138 59 128 88 128 151 C128 208 152 239 193 257 C207 263 252 287 260 297 L260 297 Z " />
<glyph glyph-name="ccedilla" unicode="&#xe7;" horiz-adv-x="373" d="M353 160 C353 191 350 222 345 241 L254 245 C255 226 257 202 257 188 C257 94 245 67 198 67 C138 67 130 107 130 285 C130 451 141 497 196 497 C235 497 248 470 248 386 C248 370 247 358 245 345 L341 348 C343 360 345 384 345 403 C345 512 313 574 199 574 C84 574 22 516 22 274 C22 55 63 -11 196 -11 C315 -11 353 54 353 160 L353 160 Z M288 -106 C288 -58 253 -21 197 -21 C184 -21 167 -22 163 -23 L149 -80 C180 -69 211 -76 211 -109 C211 -127 205 -141 179 -141 C140 -141 118 -126 101 -112 L74 -160 C93 -178 136 -196 186 -196 C251 -196 288 -158 288 -106 L288 -106 Z " />
<glyph glyph-name="egrave" unicode="&#xe8;" horiz-adv-x="383" d="M356 144 C357 161 356 189 354 200 L262 207 C263 200 263 183 263 177 C261 102 253 67 200 67 C154 67 139 100 132 203 C131 212 130 246 130 257 L354 257 C356 277 357 305 356 332 C350 494 303 574 197 574 C81 574 22 495 22 264 C22 39 73 -11 202 -11 C311 -11 350 45 356 144 L356 144 Z M256 325 L130 325 C130 325 130 337 130 347 C135 465 149 498 196 498 C238 498 253 433 256 373 C257 356 257 339 256 325 L256 325 Z M268 605 L210 725 L61 725 L204 605 L268 605 Z " />
<glyph glyph-name="eacute" unicode="&#xe9;" horiz-adv-x="383" d="M356 144 C357 161 356 189 354 200 L262 207 C263 200 263 183 263 177 C261 102 253 67 200 67 C154 67 139 100 132 203 C131 212 130 246 130 257 L354 257 C356 277 357 305 356 332 C350 494 303 574 197 574 C81 574 22 495 22 264 C22 39 73 -11 202 -11 C311 -11 350 45 356 144 L356 144 Z M256 325 L130 325 C130 325 130 337 130 347 C135 465 149 498 196 498 C238 498 253 433 256 373 C257 356 257 339 256 325 L256 325 Z M315 725 L166 725 L108 605 L172 605 L315 725 Z " />
<glyph glyph-name="ecircumflex" unicode="&#xea;" horiz-adv-x="383" d="M356 144 C357 161 356 189 354 200 L262 207 C263 200 263 183 263 177 C261 102 253 67 200 67 C154 67 139 100 132 203 C131 212 130 246 130 257 L354 257 C356 277 357 305 356 332 C350 494 303 574 197 574 C81 574 22 495 22 264 C22 39 73 -11 202 -11 C311 -11 350 45 356 144 L356 144 Z M256 325 L130 325 C130 325 130 337 130 347 C135 465 149 498 196 498 C238 498 253 433 256 373 C257 356 257 339 256 325 L256 325 Z M323 605 L251 725 L141 725 L69 605 L121 605 L196 660 L271 605 L323 605 Z " />
<glyph glyph-name="edieresis" unicode="&#xeb;" horiz-adv-x="383" d="M356 144 C357 161 356 189 354 200 L262 207 C263 200 263 183 263 177 C261 102 253 67 200 67 C154 67 139 100 132 203 C131 212 130 246 130 257 L354 257 C356 277 357 305 356 332 C350 494 303 574 197 574 C81 574 22 495 22 264 C22 39 73 -11 202 -11 C311 -11 350 45 356 144 L356 144 Z M256 325 L130 325 C130 325 130 337 130 347 C135 465 149 498 196 498 C238 498 253 433 256 373 C257 356 257 339 256 325 L256 325 Z M353 605 L353 709 L242 709 L242 605 L353 605 Z M144 605 L144 709 L33 709 L33 605 L144 605 Z " />
<glyph glyph-name="igrave" unicode="&#xec;" horiz-adv-x="180" d="M143 0 L143 562 L37 562 L37 0 L143 0 Z M133 605 L75 725 L-74 725 L69 605 L133 605 Z " />
<glyph glyph-name="iacute" unicode="&#xed;" horiz-adv-x="180" d="M143 0 L143 562 L37 562 L37 0 L143 0 Z M254 725 L105 725 L47 605 L111 605 L254 725 Z " />
<glyph glyph-name="icircumflex" unicode="&#xee;" horiz-adv-x="180" d="M143 0 L143 562 L37 562 L37 0 L143 0 Z M217 605 L145 725 L35 725 L-37 605 L15 605 L90 660 L165 605 L217 605 Z " />
<glyph glyph-name="idieresis" unicode="&#xef;" horiz-adv-x="180" d="M143 0 L143 562 L37 562 L37 0 L143 0 Z M250 605 L250 709 L139 709 L139 605 L250 605 Z M41 605 L41 709 L-70 709 L-70 605 L41 605 Z " />
<glyph glyph-name="eth" unicode="&#xf0;" horiz-adv-x="403" d="M392 711 C392 741 364 761 364 761 L323 745 C345 731 346 699 304 700 C255 769 218 791 163 791 C101 791 59 774 35 757 L71 704 C92 720 116 730 149 730 C179 730 197 716 217 687 C196 688 160 684 146 675 C122 660 116 638 125 614 C131 598 149 586 149 586 L195 607 C176 620 184 655 234 649 C249 621 261 577 266 532 C246 550 214 556 195 556 C68 556 22 467 22 268 C22 62 72 -11 198 -11 C331 -11 375 69 375 273 C375 442 358 568 320 656 C371 659 392 684 392 711 L392 711 Z M267 268 C267 96 255 67 198 67 C142 67 130 97 130 268 C130 443 142 477 198 477 C254 477 267 444 267 268 L267 268 Z " />
<glyph glyph-name="ntilde" unicode="&#xf1;" horiz-adv-x="409" d="M372 0 L372 455 C372 533 338 570 262 570 C209 570 161 536 142 479 L142 562 L37 562 L37 0 L143 0 C143 0 143 238 143 371 C143 447 180 488 213 488 C256 488 267 470 267 414 C267 279 267 0 267 0 L372 0 Z M338 666 C338 683 332 697 328 704 L289 704 C291 700 291 696 291 690 C290 679 286 666 267 666 C255 666 247 671 238 676 C233 679 224 686 220 688 C199 703 182 712 153 712 C102 712 84 683 84 651 C84 634 90 621 94 615 L133 615 C132 618 131 623 131 628 C131 638 136 651 156 651 C167 651 176 646 186 640 C189 638 200 630 203 628 C220 616 238 605 264 605 C316 605 338 634 338 666 L338 666 Z " />
<glyph glyph-name="ograve" unicode="&#xf2;" horiz-adv-x="397" d="M375 272 C375 473 323 574 198 574 C73 574 22 473 22 272 C22 73 78 -11 198 -11 C318 -11 375 73 375 272 L375 272 Z M267 274 C267 108 254 67 198 67 C142 67 130 108 130 274 C130 443 142 497 198 497 C254 497 267 443 267 274 L267 274 Z M266 605 L208 725 L59 725 L202 605 L266 605 Z " />
<glyph glyph-name="oacute" unicode="&#xf3;" horiz-adv-x="397" d="M375 272 C375 473 323 574 198 574 C73 574 22 473 22 272 C22 73 78 -11 198 -11 C318 -11 375 73 375 272 L375 272 Z M267 274 C267 108 254 67 198 67 C142 67 130 108 130 274 C130 443 142 497 198 497 C254 497 267 443 267 274 L267 274 Z M335 725 L186 725 L128 605 L192 605 L335 725 Z " />
<glyph glyph-name="ocircumflex" unicode="&#xf4;" horiz-adv-x="397" d="M375 272 C375 473 323 574 198 574 C73 574 22 473 22 272 C22 73 78 -11 198 -11 C318 -11 375 73 375 272 L375 272 Z M267 274 C267 108 254 67 198 67 C142 67 130 108 130 274 C130 443 142 497 198 497 C254 497 267 443 267 274 L267 274 Z M323 605 L251 725 L141 725 L69 605 L121 605 L196 660 L271 605 L323 605 Z " />
<glyph glyph-name="otilde" unicode="&#xf5;" horiz-adv-x="397" d="M375 272 C375 473 323 574 198 574 C73 574 22 473 22 272 C22 73 78 -11 198 -11 C318 -11 375 73 375 272 L375 272 Z M267 274 C267 108 254 67 198 67 C142 67 130 108 130 274 C130 443 142 497 198 497 C254 497 267 443 267 274 L267 274 Z M328 666 C328 683 322 697 318 704 L279 704 C281 700 281 696 281 690 C280 679 276 666 257 666 C245 666 237 671 228 676 C223 679 214 686 210 688 C189 703 172 712 143 712 C92 712 74 683 74 651 C74 634 80 621 84 615 L123 615 C122 618 121 623 121 628 C121 638 126 651 146 651 C157 651 166 646 176 640 C179 638 190 630 193 628 C210 616 228 605 254 605 C306 605 328 634 328 666 L328 666 Z " />
<glyph glyph-name="odieresis" unicode="&#xf6;" horiz-adv-x="397" d="M375 272 C375 473 323 574 198 574 C73 574 22 473 22 272 C22 73 78 -11 198 -11 C318 -11 375 73 375 272 L375 272 Z M267 274 C267 108 254 67 198 67 C142 67 130 108 130 274 C130 443 142 497 198 497 C254 497 267 443 267 274 L267 274 Z M357 605 L357 709 L246 709 L246 605 L357 605 Z M148 605 L148 709 L37 709 L37 605 L148 605 Z " />
<glyph glyph-name="divide" unicode="&#xf7;" horiz-adv-x="468" d="M423 360 C423 520 338 651 235 651 C132 651 45 520 45 360 C45 202 130 70 235 70 C338 70 423 201 423 360 L423 360 Z M395 355 L304 281 L259 137 L216 262 L87 275 L169 400 L107 519 L217 466 L270 590 L303 431 L395 355 Z " />
<glyph glyph-name="oslash" unicode="&#xf8;" horiz-adv-x="397" d="M375 272 C375 381 360 459 327 508 L361 574 L308 574 L293 545 C267 564 236 574 198 574 C73 574 22 473 22 272 C22 180 34 115 56 72 L13 -14 L64 -14 L87 30 C114 0 153 -11 198 -11 C318 -11 375 73 375 272 L375 272 Z M250 458 L130 219 C129 240 130 247 130 274 C130 443 142 497 198 497 C222 497 239 488 250 458 L250 458 Z M267 274 C267 108 254 67 198 67 C166 67 146 82 137 131 L264 382 C266 351 267 324 267 274 L267 274 Z " />
<glyph glyph-name="ugrave" unicode="&#xf9;" horiz-adv-x="409" d="M372 0 L372 562 L267 562 C267 562 267 346 267 208 C267 127 235 74 195 74 C147 74 143 101 143 151 C143 311 143 562 143 562 L37 562 C37 562 37 288 37 114 C37 35 71 -11 147 -11 C212 -11 244 25 268 83 C267 67 267 0 267 0 L372 0 Z M287 605 L229 725 L80 725 L223 605 L287 605 Z " />
<glyph glyph-name="uacute" unicode="&#xfa;" horiz-adv-x="409" d="M372 0 L372 562 L267 562 C267 562 267 346 267 208 C267 127 235 74 195 74 C147 74 143 101 143 151 C143 311 143 562 143 562 L37 562 C37 562 37 288 37 114 C37 35 71 -11 147 -11 C212 -11 244 25 268 83 C267 67 267 0 267 0 L372 0 Z M330 725 L181 725 L123 605 L187 605 L330 725 Z " />
<glyph glyph-name="ucircumflex" unicode="&#xfb;" horiz-adv-x="409" d="M372 0 L372 562 L267 562 C267 562 267 346 267 208 C267 127 235 74 195 74 C147 74 143 101 143 151 C143 311 143 562 143 562 L37 562 C37 562 37 288 37 114 C37 35 71 -11 147 -11 C212 -11 244 25 268 83 C267 67 267 0 267 0 L372 0 Z M332 605 L260 725 L150 725 L78 605 L130 605 L205 660 L280 605 L332 605 Z " />
<glyph glyph-name="udieresis" unicode="&#xfc;" horiz-adv-x="409" d="M372 0 L372 562 L267 562 C267 562 267 346 267 208 C267 127 235 74 195 74 C147 74 143 101 143 151 C143 311 143 562 143 562 L37 562 C37 562 37 288 37 114 C37 35 71 -11 147 -11 C212 -11 244 25 268 83 C267 67 267 0 267 0 L372 0 Z M365 605 L365 709 L254 709 L254 605 L365 605 Z M156 605 L156 709 L45 709 L45 605 L156 605 Z " />
<glyph glyph-name="yacute" unicode="&#xfd;" horiz-adv-x="387" d="M387 562 L284 562 L204 148 L111 562 L0 562 L152 -17 C145 -80 135 -105 102 -105 C78 -105 67 -93 67 -61 C67 -54 67 -46 69 -35 L-18 -24 C-21 -31 -24 -53 -24 -67 C-24 -139 12 -178 100 -178 C184 -178 230 -131 260 -2 C293 141 348 401 387 562 L387 562 Z M346 725 L197 725 L139 605 L203 605 L346 725 Z " />
<glyph glyph-name="thorn" unicode="&#xfe;" horiz-adv-x="412" d="M390 280 C390 516 324 570 246 570 C192 570 159 540 141 487 C141 498 141 768 141 768 L37 768 L37 -170 L141 -170 L141 53 C161 21 183 -9 234 -9 C332 -9 390 51 390 280 L390 280 Z M282 279 C282 85 258 67 211 67 C163 67 139 115 139 279 C139 449 168 491 211 491 C259 491 282 461 282 279 L282 279 Z " />
<glyph glyph-name="ydieresis" unicode="&#xff;" horiz-adv-x="387" d="M387 562 L284 562 L204 148 L111 562 L0 562 L152 -17 C145 -80 135 -105 102 -105 C78 -105 67 -93 67 -61 C67 -54 67 -46 69 -35 L-18 -24 C-21 -31 -24 -53 -24 -67 C-24 -139 12 -178 100 -178 C184 -178 230 -131 260 -2 C293 141 348 401 387 562 L387 562 Z M356 605 L356 709 L245 709 L245 605 L356 605 Z M147 605 L147 709 L36 709 L36 605 L147 605 Z " />
<glyph glyph-name="dotlessi" unicode="&#x131;" horiz-adv-x="180" d="M143 0 L143 562 L37 562 L37 0 L143 0 Z " />
<glyph glyph-name="Lslash" unicode="&#x141;" horiz-adv-x="375" d="M373 0 L373 91 L172 91 L172 315 L343 421 L314 494 L172 406 L172 768 L57 768 L57 335 L-12 292 L17 219 L57 244 L57 0 L373 0 Z " />
<glyph glyph-name="lslash" unicode="&#x142;" horiz-adv-x="200" d="M231 400 L201 472 L153 437 L153 768 L47 768 L47 358 L-29 302 L-1 229 L47 264 L47 0 L153 0 L153 343 L231 400 Z " />
<glyph glyph-name="OE" unicode="&#x152;" horiz-adv-x="692" d="M683 0 L683 91 L458 91 L458 347 L642 347 L642 444 L458 444 L458 679 L663 679 L663 768 L343 768 L343 730 C328 758 293 780 242 780 C97 780 27 686 27 384 C27 75 90 -14 242 -14 C281 -14 321 3 343 39 L343 0 L683 0 Z M346 383 C346 129 313 75 242 75 C168 75 148 128 148 383 C148 618 169 694 242 694 C312 694 346 618 346 383 L346 383 Z " />
<glyph glyph-name="oe" unicode="&#x153;" horiz-adv-x="641" d="M614 144 C615 161 614 189 612 200 L520 207 C521 200 521 183 521 177 C519 94 509 67 458 67 C408 67 387 100 380 203 C379 212 378 246 378 257 L612 257 C614 277 615 305 614 332 C608 494 561 574 455 574 C402 574 357 557 328 514 C297 554 254 574 198 574 C73 574 22 473 22 272 C22 73 78 -11 198 -11 C251 -11 293 5 324 40 C351 6 388 -11 460 -11 C569 -11 608 45 614 144 L614 144 Z M514 325 L378 325 C378 325 378 337 378 347 C383 465 407 498 454 498 C496 498 507 446 514 382 C516 365 515 338 514 325 L514 325 Z M277 274 C277 108 254 67 198 67 C142 67 130 108 130 274 C130 443 142 497 198 497 C254 497 277 443 277 274 L277 274 Z " />
<glyph glyph-name="Scaron" unicode="&#x160;" horiz-adv-x="434" d="M412 214 C412 325 379 395 298 434 C269 448 249 457 223 469 C152 502 143 530 143 602 C143 666 157 698 206 698 C258 698 274 664 274 589 C274 566 271 538 268 521 L370 528 C375 549 380 575 380 602 C380 713 322 780 211 780 C84 780 31 701 31 573 C31 490 65 417 130 386 C154 374 172 368 197 356 C278 319 297 280 297 191 C297 97 271 74 218 74 C166 74 143 96 143 194 C143 223 146 255 151 279 L46 275 C38 249 32 212 32 181 C32 46 92 -14 217 -14 C358 -14 412 64 412 214 L412 214 Z M335 920 L283 920 L208 865 L133 920 L81 920 L153 800 L263 800 L335 920 Z " />
<glyph glyph-name="scaron" unicode="&#x161;" horiz-adv-x="375" d="M353 162 C353 242 322 298 242 329 C220 337 205 343 185 351 C135 371 125 392 125 432 C125 468 134 498 177 498 C219 498 233 475 233 430 C233 416 230 390 227 380 L323 385 C326 396 331 419 331 437 C331 523 279 574 176 574 C83 574 22 516 22 415 C22 332 46 295 108 270 C120 265 148 255 163 249 C237 219 244 192 244 144 C244 88 227 67 179 67 C127 67 117 98 117 148 C117 163 122 190 127 209 L32 205 C25 184 20 152 20 128 C20 43 71 -11 181 -11 C304 -11 353 54 353 162 L353 162 Z M304 725 L252 725 L177 670 L102 725 L50 725 L122 605 L232 605 L304 725 Z " />
<glyph glyph-name="Ydieresis" unicode="&#x178;" horiz-adv-x="422" d="M425 768 L319 768 L218 428 L116 768 L-3 768 L155 297 L155 0 L271 0 L271 299 L425 768 Z M372 800 L372 904 L261 904 L261 800 L372 800 Z M163 800 L163 904 L52 904 L52 800 L163 800 Z " />
<glyph glyph-name="Zcaron" unicode="&#x17d;" horiz-adv-x="410" d="M385 661 L385 768 L41 768 L41 679 L278 679 L19 107 L19 0 L383 0 L383 91 L126 91 L385 661 Z M334 920 L282 920 L207 865 L132 920 L80 920 L152 800 L262 800 L334 920 Z " />
<glyph glyph-name="zcaron" unicode="&#x17e;" horiz-adv-x="334" d="M318 466 L318 562 L31 562 L31 479 L216 479 L8 85 L8 0 L316 0 L316 86 L113 86 L318 466 Z M297 725 L245 725 L170 670 L95 725 L43 725 L115 605 L225 605 L297 725 Z " />
<glyph glyph-name="florin" unicode="&#x192;" horiz-adv-x="378" d="M373 679 C373 746 329 783 250 783 C172 783 128 737 128 659 C128 648 129 539 129 527 L59 527 L59 457 L129 457 C129 457 129 177 129 115 C129 100 132 28 132 20 C132 -11 121 -24 99 -24 C77 -24 67 -10 67 25 C67 33 67 41 69 50 L-14 60 C-18 49 -20 28 -20 14 C-20 -62 26 -97 106 -97 C189 -97 234 -57 234 31 C234 197 234 457 234 457 L321 457 L321 527 L230 527 C228 539 227 659 229 675 C232 700 244 712 261 712 C282 712 293 699 293 666 C293 652 291 642 288 630 L367 621 C370 634 373 655 373 679 L373 679 Z " />
<glyph glyph-name="circumflex" unicode="&#x2c6;" horiz-adv-x="360" d="M307 605 L235 725 L125 725 L53 605 L105 605 L180 660 L255 605 L307 605 Z " />
<glyph glyph-name="caron" unicode="&#x2c7;" horiz-adv-x="360" d="M307 725 L255 725 L180 670 L105 725 L53 725 L125 605 L235 605 L307 725 Z " />
<glyph glyph-name="breve" unicode="&#x2d8;" horiz-adv-x="360" d="M323 718 L249 718 C250 693 233 667 182 667 C131 667 114 693 115 718 L41 718 C41 649 80 605 182 605 C286 605 323 649 323 718 L323 718 Z " />
<glyph glyph-name="dotaccent" unicode="&#x2d9;" horiz-adv-x="360" d="M241 605 L241 714 L124 714 L124 605 L241 605 Z " />
<glyph glyph-name="ring" unicode="&#x2da;" horiz-adv-x="360" d="M284 709 C284 766 238 811 180 811 C122 811 76 766 76 709 C76 651 122 605 180 605 C238 605 284 651 284 709 L284 709 Z M236 708 C236 675 211 649 180 649 C149 649 125 675 125 708 C125 741 149 767 180 767 C211 767 236 741 236 708 L236 708 Z " />
<glyph glyph-name="ogonek" unicode="&#x2db;" horiz-adv-x="360" d="M269 -118 C269 -107 266 -97 265 -92 L203 -89 C205 -94 208 -102 208 -112 C208 -130 199 -138 183 -138 C168 -138 157 -128 157 -103 C157 -61 192 -25 239 0 L184 0 C118 -27 88 -64 88 -107 C88 -147 117 -177 178 -177 C238 -177 269 -154 269 -118 L269 -118 Z " />
<glyph glyph-name="tilde" unicode="&#x2dc;" horiz-adv-x="360" d="M307 666 C307 683 301 697 297 704 L258 704 C260 700 260 696 260 690 C259 679 255 666 236 666 C224 666 216 671 207 676 C202 679 193 686 189 688 C168 703 151 712 122 712 C71 712 53 683 53 651 C53 634 59 621 63 615 L102 615 C101 618 100 623 100 628 C100 638 105 651 125 651 C136 651 145 646 155 640 C158 638 169 630 172 628 C189 616 207 605 233 605 C285 605 307 634 307 666 L307 666 Z " />
<glyph glyph-name="hungarumlaut" unicode="&#x2dd;" horiz-adv-x="360" d="M341 706 L220 706 L166 605 L222 605 L341 706 Z M195 706 L74 706 L20 605 L76 605 L195 706 Z " />
<glyph glyph-name="pi" unicode="&#x3c0;" horiz-adv-x="681" d="M646 447 C646 620 509 761 341 761 C172 761 35 620 35 447 C35 275 173 133 341 133 C509 133 646 275 646 447 L646 447 Z M602 447 C602 297 487 172 341 172 C195 172 79 297 79 447 C79 596 195 721 341 721 C487 721 602 596 602 447 L602 447 Z M476 529 C476 622 425 650 354 650 C312 650 238 650 238 650 L238 245 L315 245 L315 406 C315 406 342 405 361 405 C427 405 476 437 476 529 L476 529 Z M396 533 C396 484 387 460 359 460 L315 460 L315 599 C327 599 338 599 346 598 C371 595 396 588 396 533 L396 533 Z " />
<glyph glyph-name="endash" unicode="&#x2013;" horiz-adv-x="565" d="M530 299 L530 397 L35 397 L35 299 L530 299 Z " />
<glyph glyph-name="emdash" unicode="&#x2014;" horiz-adv-x="777" d="M777 299 L777 397 L0 397 L0 299 L777 299 Z " />
<glyph glyph-name="quoteleft" unicode="&#x2018;" horiz-adv-x="229" d="M183 751 L170 791 C146 786 124 780 108 767 C69 736 50 701 50 634 C50 576 50 483 50 483 L179 483 L179 634 L113 634 C109 666 114 693 131 716 C145 733 168 746 183 751 L183 751 Z " />
<glyph glyph-name="quoteright" unicode="&#x2019;" horiz-adv-x="229" d="M179 617 C179 676 179 768 179 768 L50 768 L50 617 L115 617 C120 585 114 558 97 535 C84 519 60 505 45 500 L58 460 C82 465 104 472 121 484 C160 516 179 550 179 617 L179 617 Z " />
<glyph glyph-name="quotesinglbase" unicode="&#x201a;" horiz-adv-x="229" d="M179 0 C179 59 179 151 179 151 L50 151 L50 0 L115 0 C120 -32 114 -59 97 -82 C84 -98 60 -112 45 -117 L58 -157 C82 -152 104 -145 121 -133 C160 -101 179 -67 179 0 L179 0 Z " />
<glyph glyph-name="quotedblleft" unicode="&#x201c;" horiz-adv-x="424" d="M378 751 L365 791 C341 786 319 780 303 767 C264 736 245 701 245 634 C245 576 245 483 245 483 L374 483 L374 634 L308 634 C304 666 309 693 326 716 C340 733 363 746 378 751 L378 751 Z M183 751 L170 791 C146 786 124 780 108 767 C69 736 50 701 50 634 C50 576 50 483 50 483 L179 483 L179 634 L113 634 C109 666 114 693 131 716 C145 733 168 746 183 751 L183 751 Z " />
<glyph glyph-name="quotedblright" unicode="&#x201d;" horiz-adv-x="424" d="M374 617 C374 676 374 768 374 768 L245 768 L245 617 L311 617 C315 585 310 558 293 535 C279 518 256 505 241 500 L254 460 C278 465 300 471 316 484 C355 515 374 550 374 617 L374 617 Z M179 617 C179 676 179 768 179 768 L50 768 L50 617 L115 617 C120 585 114 558 97 535 C84 519 60 505 45 500 L58 460 C82 465 104 472 121 484 C160 516 179 550 179 617 L179 617 Z " />
<glyph glyph-name="quotedblbase" unicode="&#x201e;" horiz-adv-x="424" d="M374 0 C374 59 374 151 374 151 L245 151 L245 0 L310 0 C315 -32 309 -59 292 -82 C279 -98 255 -112 240 -117 L253 -157 C277 -152 305 -142 316 -133 C355 -101 374 -67 374 0 L374 0 Z M179 0 C179 59 179 151 179 151 L50 151 L50 0 L115 0 C120 -32 114 -59 97 -82 C84 -98 60 -112 45 -117 L58 -157 C82 -152 110 -142 121 -133 C160 -101 179 -67 179 0 L179 0 Z " />
<glyph glyph-name="dagger" unicode="&#x2020;" horiz-adv-x="436" d="M391 528 L391 615 L271 615 L271 768 L165 768 L165 615 L45 615 L45 528 L165 528 L165 -82 L271 -82 L271 528 L391 528 Z " />
<glyph glyph-name="daggerdbl" unicode="&#x2021;" horiz-adv-x="426" d="M391 142 L391 229 L271 229 L271 528 L391 528 L391 615 L271 615 L271 768 L165 768 L165 615 L45 615 L45 528 L165 528 L165 229 L45 229 L45 142 L165 142 L165 -82 L271 -82 L271 142 L391 142 Z " />
<glyph glyph-name="bullet" unicode="&#x2022;" horiz-adv-x="545" d="M515 367 C515 502 406 611 273 611 C140 611 30 502 30 367 C30 233 140 123 273 123 C406 123 515 233 515 367 L515 367 Z " />
<glyph glyph-name="ellipsis" unicode="&#x2026;" horiz-adv-x="708" d="M658 0 L658 155 L526 155 L526 0 L658 0 Z M420 0 L420 155 L288 155 L288 0 L420 0 Z M182 0 L182 155 L50 155 L50 0 L182 0 Z " />
<glyph glyph-name="perthousand" unicode="&#x2030;" horiz-adv-x="1160" d="M1125 202 C1125 387 1083 450 971 450 C872 450 817 380 817 201 C817 40 873 -12 971 -12 C1071 -12 1125 44 1125 202 L1125 202 Z M766 202 C766 387 724 450 612 450 C513 450 458 380 458 201 C458 40 514 -12 612 -12 C712 -12 766 44 766 202 L766 202 Z M626 770 L565 770 L178 -8 L239 -8 L626 770 Z M343 534 C343 719 297 781 189 781 C82 781 35 717 35 533 C35 371 91 320 189 320 C289 320 343 375 343 534 L343 534 Z M1024 216 C1024 93 1007 72 971 72 C935 72 919 93 919 216 C919 345 933 367 972 367 C1008 367 1024 348 1024 216 L1024 216 Z M665 216 C665 93 648 72 612 72 C576 72 560 93 560 216 C560 345 574 367 613 367 C649 367 665 348 665 216 L665 216 Z M242 547 C242 425 225 404 189 404 C153 404 137 424 137 547 C137 677 151 699 190 699 C226 699 242 679 242 547 L242 547 Z " />
<glyph glyph-name="guilsinglleft" unicode="&#x2039;" horiz-adv-x="303" d="M253 49 L253 169 L113 283 L253 397 L253 517 L40 348 L40 218 L253 49 Z " />
<glyph glyph-name="guilsinglright" unicode="&#x203a;" horiz-adv-x="303" d="M263 218 L263 348 L50 517 L50 397 L190 283 L50 169 L50 49 L263 218 Z " />
<glyph glyph-name="fraction" unicode="&#x2044;" horiz-adv-x="282" d="M459 780 L386 780 L-161 -14 L-90 -14 L459 780 Z " />
<glyph glyph-name="trademark" unicode="&#x2122;" horiz-adv-x="506" d="M456 537 L456 768 L376 768 L345 608 L309 768 L225 768 L225 537 L277 537 L277 714 L317 537 L367 537 L404 714 L404 537 L456 537 Z M199 722 L199 768 L30 768 L30 722 L87 722 L87 537 L141 537 L141 722 L199 722 Z " />
<glyph glyph-name="Omega" unicode="&#x2126;" horiz-adv-x="468" d="M423 360 C423 520 338 651 235 651 C132 651 45 520 45 360 C45 202 130 70 235 70 C338 70 423 201 423 360 L423 360 Z M395 355 L304 281 L259 137 L216 262 L87 275 L169 400 L107 519 L217 466 L270 590 L303 431 L395 355 Z " />
<glyph glyph-name="partialdiff" unicode="&#x2202;" horiz-adv-x="468" d="M423 360 C423 520 338 651 235 651 C132 651 45 520 45 360 C45 202 130 70 235 70 C338 70 423 201 423 360 L423 360 Z M395 355 L304 281 L259 137 L216 262 L87 275 L169 400 L107 519 L217 466 L270 590 L303 431 L395 355 Z " />
<glyph glyph-name="Delta" unicode="&#x2206;" horiz-adv-x="468" d="M423 360 C423 520 338 651 235 651 C132 651 45 520 45 360 C45 202 130 70 235 70 C338 70 423 201 423 360 L423 360 Z M395 355 L304 281 L259 137 L216 262 L87 275 L169 400 L107 519 L217 466 L270 590 L303 431 L395 355 Z " />
<glyph glyph-name="product" unicode="&#x220f;" horiz-adv-x="468" d="M423 360 C423 520 338 651 235 651 C132 651 45 520 45 360 C45 202 130 70 235 70 C338 70 423 201 423 360 L423 360 Z M395 355 L304 281 L259 137 L216 262 L87 275 L169 400 L107 519 L217 466 L270 590 L303 431 L395 355 Z " />
<glyph glyph-name="summation" unicode="&#x2211;" horiz-adv-x="468" d="M423 360 C423 520 338 651 235 651 C132 651 45 520 45 360 C45 202 130 70 235 70 C338 70 423 201 423 360 L423 360 Z M395 355 L304 281 L259 137 L216 262 L87 275 L169 400 L107 519 L217 466 L270 590 L303 431 L395 355 Z " />
<glyph glyph-name="minus" unicode="&#x2212;" horiz-adv-x="468" d="M423 360 C423 520 338 651 235 651 C132 651 45 520 45 360 C45 202 130 70 235 70 C338 70 423 201 423 360 L423 360 Z M395 355 L304 281 L259 137 L216 262 L87 275 L169 400 L107 519 L217 466 L270 590 L303 431 L395 355 Z " />
<glyph glyph-name="radical" unicode="&#x221a;" horiz-adv-x="684" d="M741 930 L597 870 C575 840 478 659 415 473 C329 218 296 93 277 -18 L139 319 L25 262 L236 -148 L326 -104 C350 46 428 292 495 460 C577 666 712 903 741 930 L741 930 Z " />
<glyph glyph-name="infinity" unicode="&#x221e;" horiz-adv-x="619" d="M592 0 L592 562 L376 562 C374 574 373 659 375 675 C378 700 389 712 406 712 C427 712 438 699 438 666 C438 652 436 642 433 630 L512 621 C515 634 518 655 518 679 C518 746 474 783 395 783 C355 783 325 773 301 746 C275 772 237 783 195 783 C107 783 61 743 61 659 C61 648 62 574 62 562 L2 562 L2 492 L62 492 L62 0 L168 0 L168 492 L274 492 L274 0 L380 0 L380 492 L486 492 L486 0 L592 0 Z M274 562 L164 562 C162 574 160 654 163 670 C169 703 183 712 212 712 C245 712 271 687 273 645 C274 614 274 573 274 562 L274 562 Z " />
<glyph glyph-name="integral" unicode="&#x222b;" horiz-adv-x="468" d="M423 360 C423 520 338 651 235 651 C132 651 45 520 45 360 C45 202 130 70 235 70 C338 70 423 201 423 360 L423 360 Z M395 355 L304 281 L259 137 L216 262 L87 275 L169 400 L107 519 L217 466 L270 590 L303 431 L395 355 Z " />
<glyph glyph-name="approxequal" unicode="&#x2248;" horiz-adv-x="468" d="M423 360 C423 520 338 651 235 651 C132 651 45 520 45 360 C45 202 130 70 235 70 C338 70 423 201 423 360 L423 360 Z M395 355 L304 281 L259 137 L216 262 L87 275 L169 400 L107 519 L217 466 L270 590 L303 431 L395 355 Z " />
<glyph glyph-name="notequal" unicode="&#x2260;" horiz-adv-x="458" d="M518 679 C518 746 474 783 395 783 C355 783 325 773 301 746 C275 772 237 783 195 783 C107 783 61 743 61 659 C61 648 62 574 62 562 L2 562 L2 492 L62 492 L62 0 L168 0 L168 492 L274 492 L274 0 L380 0 L380 492 L456 492 L456 562 L376 562 C374 574 373 659 375 675 C378 700 389 712 406 712 C427 712 438 699 438 666 C438 652 436 642 433 630 L512 621 C515 634 518 655 518 679 L518 679 Z M274 562 L164 562 C162 574 160 654 163 670 C169 703 183 712 212 712 C245 712 271 687 273 645 C274 614 274 573 274 562 L274 562 Z " />
<glyph glyph-name="lessequal" unicode="&#x2264;" horiz-adv-x="468" d="M423 360 C423 520 338 651 235 651 C132 651 45 520 45 360 C45 202 130 70 235 70 C338 70 423 201 423 360 L423 360 Z M395 355 L304 281 L259 137 L216 262 L87 275 L169 400 L107 519 L217 466 L270 590 L303 431 L395 355 Z " />
<glyph glyph-name="greaterequal" unicode="&#x2265;" horiz-adv-x="468" d="M423 360 C423 520 338 651 235 651 C132 651 45 520 45 360 C45 202 130 70 235 70 C338 70 423 201 423 360 L423 360 Z M395 355 L304 281 L259 137 L216 262 L87 275 L169 400 L107 519 L217 466 L270 590 L303 431 L395 355 Z " />
<glyph glyph-name="lozenge" unicode="&#x25ca;" horiz-adv-x="468" d="M423 360 C423 520 338 651 235 651 C132 651 45 520 45 360 C45 202 130 70 235 70 C338 70 423 201 423 360 L423 360 Z M395 355 L304 281 L259 137 L216 262 L87 275 L169 400 L107 519 L217 466 L270 590 L303 431 L395 355 Z " />
<glyph glyph-name="fi" unicode="&#xfb01;" horiz-adv-x="407" d="M380 0 L380 562 L164 562 C162 574 161 658 163 669 C168 696 179 714 211 714 C250 714 262 697 262 660 C262 652 260 642 257 630 L336 621 C339 634 342 655 342 679 C342 753 291 783 208 783 C115 783 61 751 61 659 C61 648 62 574 62 562 L2 562 L2 492 L62 492 L62 0 L168 0 L168 492 L274 492 L274 0 L380 0 Z " />
<glyph glyph-name="fl" unicode="&#xfb02;" horiz-adv-x="407" d="M380 0 L380 768 L270 768 C252 776 229 783 195 783 C104 783 61 739 61 659 C61 648 62 574 62 562 L2 562 L2 492 L62 492 L62 0 L168 0 L168 492 L233 492 L233 562 L164 562 C162 574 161 656 163 672 C166 697 182 712 211 712 C253 712 274 676 274 638 C274 390 274 0 274 0 L380 0 Z " />
</font>
</svg>
