<?xml version="1.0" encoding="UTF-8"?>
<svg xmlns="http://www.w3.org/2000/svg" xmlns:xlink="http://www.w3.org/1999/xlink" version="1.2" >
<font id="BureauGrotesque-ThreeSeven">
<font-face  font-family="BureauGrotesque" units-per-em="1000" ascent="750" descent="-250" font-style="normal" font-weight="400" font-stretch="normal" cap-height="750" x-height="500" underline-position="-121.5" underline-thickness="23" />
<missing-glyph  horiz-adv-x="500" d="" />
<glyph glyph-name="CR" unicode="&#xd;" horiz-adv-x="250" d="" />
<glyph glyph-name="space" unicode="&#x20;" horiz-adv-x="254" d="" />
<glyph glyph-name="exclam" unicode="&#x21;" horiz-adv-x="208" d="M177 508 L177 768 L31 768 L31 508 L66 248 L147 248 L177 508 Z M177 0 L177 168 L31 168 L31 0 L177 0 Z " />
<glyph glyph-name="quotedbl" unicode="&#x22;" horiz-adv-x="449" d="M413 768 L242 768 L272 421 L382 421 L413 768 Z M207 768 L36 768 L66 421 L176 421 L207 768 Z " />
<glyph glyph-name="numbersign" unicode="&#x23;" horiz-adv-x="582" d="M546 608 L458 608 L477 768 L388 768 L367 608 L271 608 L291 768 L201 768 L181 608 L92 608 L73 454 L162 454 L144 314 L54 314 L36 160 L124 160 L105 0 L194 0 L215 160 L311 160 L291 0 L381 0 L401 160 L490 160 L509 314 L420 314 L438 454 L528 454 L546 608 Z M348 454 L330 314 L234 314 L252 454 L348 454 Z " />
<glyph glyph-name="dollar" unicode="&#x24;" horiz-adv-x="535" d="M502 226 C502 370 446 428 366 461 L295 490 L295 672 C328 666 342 632 342 594 C342 570 339 550 336 535 L464 535 C470 553 473 574 473 593 C473 711 407 772 295 780 L295 822 L224 822 L224 780 C97 780 25 672 25 574 C25 459 63 406 134 371 L224 326 L224 106 C197 120 173 138 173 195 C173 217 177 254 184 275 L44 263 C33 238 28 188 28 159 C28 36 109 -16 224 -16 L224 -111 L295 -111 L295 -16 C458 -14 502 97 502 226 L502 226 Z M224 516 C182 533 173 566 173 598 C173 649 212 668 224 672 L224 516 Z M348 206 C348 136 333 121 295 109 L295 298 C336 277 348 245 348 206 L348 206 Z " />
<glyph glyph-name="percent" unicode="&#x25;" horiz-adv-x="883" d="M862 209 C862 406 822 475 680 475 C538 475 500 405 500 207 C500 44 548 -16 680 -16 C815 -16 862 51 862 209 L862 209 Z M645 780 L561 780 L239 -16 L323 -16 L645 780 Z M381 514 C381 712 341 780 199 780 C57 780 19 709 19 512 C19 347 67 289 199 289 C334 289 381 347 381 514 L381 514 Z M726 231 C726 110 724 92 680 92 C639 92 636 109 636 231 C636 354 639 384 682 384 C724 384 726 354 726 231 L726 231 Z M245 536 C245 415 243 397 199 397 C158 397 155 414 155 536 C155 659 158 689 201 689 C243 689 245 659 245 536 L245 536 Z " />
<glyph glyph-name="ampersand" unicode="&#x26;" horiz-adv-x="640" d="M624 141 C624 171 622 215 614 244 L529 244 C533 226 536 183 536 161 C536 144 533 115 511 115 C490 115 475 144 467 168 L456 199 C481 246 495 272 516 320 C540 376 559 441 573 500 L479 500 C472 470 457 421 446 392 C435 364 427 345 412 320 L351 474 C455 511 478 559 478 630 C478 715 413 780 324 780 C234 780 159 718 159 614 C159 551 171 515 184 485 L167 473 C67 402 17 322 17 206 C17 90 63 -16 200 -16 C251 -16 295 -6 348 49 C381 1 409 -16 479 -16 C558 -16 624 3 624 141 L624 141 Z M373 636 C373 591 342 567 324 559 C314 577 300 616 300 641 C300 678 314 686 336 686 C361 686 373 667 373 636 L373 636 Z M304 158 C292 143 272 130 251 130 C198 130 176 205 176 270 C176 311 188 348 214 380 L304 158 Z " />
<glyph glyph-name="quotesingle" unicode="&#x27;" horiz-adv-x="243" d="M207 768 L36 768 L66 421 L176 421 L207 768 Z " />
<glyph glyph-name="parenleft" unicode="&#x28;" horiz-adv-x="329" d="M312 780 L257 780 C115 697 25 534 25 339 C25 138 78 9 227 -114 L286 -114 C167 60 160 162 160 338 C160 469 202 643 312 780 L312 780 Z " />
<glyph glyph-name="parenright" unicode="&#x29;" horiz-adv-x="329" d="M304 339 C305 534 214 697 72 780 L17 780 C127 643 169 469 169 338 C169 162 162 60 43 -114 L102 -114 C239 10 303 138 304 339 L304 339 Z " />
<glyph glyph-name="asterisk" unicode="&#x2a;" horiz-adv-x="373" d="M339 574 L267 615 L339 655 L299 727 L227 686 L227 767 L146 767 L146 686 L74 727 L34 655 L106 615 L34 574 L74 502 L146 543 L146 462 L227 462 L227 543 L299 502 L339 574 Z " />
<glyph glyph-name="plus" unicode="&#x2b;" horiz-adv-x="428" d="M392 276 L392 394 L273 394 L273 512 L155 512 L155 394 L36 394 L36 276 L155 276 L155 157 L273 157 L273 276 L392 276 Z " />
<glyph glyph-name="comma" unicode="&#x2c;" horiz-adv-x="226" d="M190 0 L190 168 L36 168 L36 0 L109 0 C112 -34 110 -63 83 -86 C68 -99 49 -109 27 -116 L39 -171 C62 -168 79 -164 98 -156 C167 -127 190 -73 190 0 L190 0 Z " />
<glyph glyph-name="hyphen" unicode="&#x2d;" horiz-adv-x="428" d="M392 276 L392 394 L36 394 L36 276 L392 276 Z " />
<glyph glyph-name="period" unicode="&#x2e;" horiz-adv-x="226" d="M190 0 L190 168 L36 168 L36 0 L190 0 Z " />
<glyph glyph-name="slash" unicode="&#x2f;" horiz-adv-x="466" d="M465 768 L367 768 L1 0 L100 0 L465 768 Z " />
<glyph glyph-name="zero" unicode="0" horiz-adv-x="500" d="M473 349 C473 681 422 780 248 780 C74 780 26 681 26 347 C26 64 82 -12 248 -12 C415 -12 473 64 473 349 L473 349 Z M303 376 C303 137 301 105 248 105 C199 105 195 135 195 376 C195 620 199 682 250 682 C301 682 303 620 303 376 L303 376 Z " />
<glyph glyph-name="one" unicode="1" horiz-adv-x="375" d="M328 0 L328 768 L233 768 C215 726 197 700 163 674 C127 646 57 634 19 630 L19 541 C32 539 57 538 80 538 C128 538 155 540 175 547 L175 0 L328 0 Z " />
<glyph glyph-name="two" unicode="2" horiz-adv-x="475" d="M446 537 C446 723 372 780 230 780 C105 780 29 699 29 565 C29 527 31 486 37 448 L42 416 L182 416 L180 430 C175 465 171 507 171 541 C171 605 186 646 224 646 C268 646 281 610 281 540 C281 396 119 229 54 170 L24 143 L24 0 L428 0 L428 146 L188 146 L222 172 C331 256 446 400 446 537 L446 537 Z " />
<glyph glyph-name="three" unicode="3" horiz-adv-x="469" d="M448 253 C448 389 383 441 331 461 C318 466 302 470 282 470 L412 628 L412 768 L48 768 L48 626 L249 626 L100 445 L168 367 L177 373 C182 377 192 384 210 384 C250 384 276 345 276 254 C276 144 258 124 221 124 C191 124 178 159 178 216 C178 247 179 265 181 284 L38 276 C26 244 26 202 26 164 C26 46 103 -12 221 -12 C358 -12 448 51 448 253 L448 253 Z " />
<glyph glyph-name="four" unicode="4" horiz-adv-x="484" d="M464 114 L464 241 L388 241 L388 768 L235 768 L28 297 L28 114 L233 114 L233 0 L388 0 L388 114 L464 114 Z M233 241 L126 241 L233 493 L233 241 Z " />
<glyph glyph-name="five" unicode="5" horiz-adv-x="459" d="M434 249 C434 428 375 517 273 517 C214 517 188 502 165 475 L174 620 L382 620 L388 768 L56 768 L37 343 L172 334 C175 366 188 398 222 398 C263 398 268 341 268 250 C268 140 249 108 213 108 C170 108 158 151 158 182 C158 213 160 240 164 261 L32 262 C26 227 25 196 25 162 C25 44 93 -16 226 -16 C344 -16 434 47 434 249 L434 249 Z " />
<glyph glyph-name="six" unicode="6" horiz-adv-x="486" d="M461 246 C461 477 338 511 283 511 C234 511 200 485 190 464 C188 478 188 489 188 513 C188 636 212 663 250 663 C282 663 291 635 291 588 C291 574 288 558 283 544 L443 550 C448 568 449 586 449 609 C449 719 381 780 260 780 C113 780 26 719 26 385 C26 97 80 -12 249 -12 C309 -12 461 3 461 246 L461 246 Z M300 262 C300 131 289 112 244 112 C205 112 194 135 194 262 C194 343 206 382 244 382 C297 382 300 343 300 262 L300 262 Z " />
<glyph glyph-name="seven" unicode="7" horiz-adv-x="418" d="M412 638 L412 768 L16 768 L16 622 L272 622 L251 600 C188 535 88 304 88 78 C88 48 91 29 94 0 L267 0 C263 27 256 100 256 164 C256 306 298 480 394 613 L412 638 Z " />
<glyph glyph-name="eight" unicode="8" horiz-adv-x="457" d="M432 218 C432 314 403 377 365 397 L348 406 L366 415 C400 432 421 507 421 567 C421 701 349 780 228 780 C109 780 35 703 35 567 C35 483 64 429 99 413 L114 406 L99 397 C38 360 22 292 22 218 C22 97 85 -12 228 -12 C374 -12 432 97 432 218 L432 218 Z M273 570 C273 479 265 459 228 459 C192 459 185 482 185 570 C185 652 192 674 228 674 C263 674 273 651 273 570 L273 570 Z M280 228 C280 117 274 102 228 102 C185 102 178 117 178 228 C178 328 190 350 228 350 C267 350 280 331 280 228 L280 228 Z " />
<glyph glyph-name="nine" unicode="9" horiz-adv-x="487" d="M457 379 C457 667 405 780 236 780 C176 780 25 763 25 520 C25 289 147 253 201 253 C229 253 255 260 279 284 L293 298 C295 286 296 275 296 251 C296 128 272 101 235 101 C203 101 193 129 193 176 C193 190 196 206 201 220 L42 214 C36 196 35 178 35 155 C35 45 103 -16 224 -16 C372 -16 457 45 457 379 L457 379 Z M290 502 C290 421 279 382 240 382 C188 382 184 421 184 502 C184 631 191 656 240 656 C282 656 290 628 290 502 L290 502 Z " />
<glyph glyph-name="colon" unicode="&#x3a;" horiz-adv-x="230" d="M193 366 L193 534 L39 534 L39 366 L193 366 Z M193 0 L193 168 L39 168 L39 0 L193 0 Z " />
<glyph glyph-name="semicolon" unicode="&#x3b;" horiz-adv-x="230" d="M193 366 L193 534 L39 534 L39 366 L193 366 Z M193 0 L193 168 L39 168 L39 0 L112 0 C115 -34 113 -63 86 -86 C71 -99 52 -109 30 -116 L42 -171 C65 -168 82 -164 101 -156 C170 -127 193 -73 193 0 L193 0 Z " />
<glyph glyph-name="less" unicode="&#x3c;" horiz-adv-x="365" d="M329 118 L329 233 L152 322 L329 411 L329 526 L36 376 L36 268 L329 118 Z " />
<glyph glyph-name="equal" unicode="&#x3d;" horiz-adv-x="428" d="M392 370 L392 480 L36 480 L36 370 L392 370 Z M392 170 L392 280 L36 280 L36 170 L392 170 Z " />
<glyph glyph-name="greater" unicode="&#x3e;" horiz-adv-x="365" d="M329 268 L329 376 L36 526 L36 411 L213 322 L36 233 L36 118 L329 268 Z " />
<glyph glyph-name="question" unicode="&#x3f;" horiz-adv-x="404" d="M381 548 C381 676 355 780 200 780 C72 780 33 709 33 624 C33 595 36 571 43 549 L147 549 C143 566 142 582 142 610 C142 648 163 661 189 661 C216 661 231 640 231 543 C231 442 220 416 190 416 C162 416 151 441 151 489 L61 489 L61 215 L151 215 L151 332 C173 307 195 292 247 292 C323 292 381 331 381 548 L381 548 Z M179 0 L179 168 L33 168 L33 0 L179 0 Z " />
<glyph glyph-name="at" unicode="&#x40;" horiz-adv-x="873" d="M827 421 C827 657 661 780 454 780 C191 780 35 603 35 350 C35 94 184 -68 439 -68 C552 -68 635 -21 687 24 L656 69 C609 21 525 -14 443 -14 C236 -14 99 127 99 349 C99 566 238 735 445 735 C618 735 769 635 769 420 C769 263 689 212 640 212 C616 212 612 234 615 251 C632 341 643 378 647 456 C652 538 602 603 476 603 C325 603 267 549 267 455 C267 446 268 436 269 426 L421 447 C420 450 420 456 420 460 C420 488 431 510 454 510 C487 510 492 488 488 458 L483 423 C355 412 236 382 236 234 C236 157 291 125 355 125 C445 125 471 160 491 188 C496 155 529 130 608 130 C715 130 827 239 827 421 L827 421 Z M471 342 L463 285 C457 245 439 228 415 228 C391 228 383 238 383 263 C383 325 410 343 451 343 C457 343 467 342 471 342 L471 342 Z " />
<glyph glyph-name="A" unicode="A" horiz-adv-x="498" d="M487 0 L324 768 L154 768 L7 0 L151 0 L171 133 L284 133 L306 0 L487 0 Z M266 240 L186 240 L220 482 L266 240 Z " />
<glyph glyph-name="B" unicode="B" horiz-adv-x="504" d="M485 217 C485 328 444 385 384 403 C436 422 466 473 466 557 C466 676 409 768 281 768 L45 768 L45 0 L320 0 C424 0 485 58 485 217 L485 217 Z M298 543 C298 492 282 464 246 464 L205 464 L205 640 L244 640 C284 640 298 599 298 543 L298 543 Z M312 232 C312 151 285 131 247 131 L205 131 L205 337 L245 337 C294 337 312 285 312 232 L312 232 Z " />
<glyph glyph-name="C" unicode="C" horiz-adv-x="499" d="M475 216 C475 264 472 296 465 340 L321 342 C323 301 322 277 322 244 C322 162 307 122 261 122 C209 122 201 139 201 378 C201 584 211 645 262 645 C300 645 309 621 309 539 C309 514 307 478 305 460 L452 461 C458 490 467 554 467 581 C467 704 403 780 261 780 C72 780 22 657 22 342 C22 59 95 -17 251 -17 C413 -17 475 67 475 216 L475 216 Z " />
<glyph glyph-name="D" unicode="D" horiz-adv-x="523" d="M501 348 C501 601 433 768 292 768 L45 768 L45 0 L280 0 C450 0 501 146 501 348 L501 348 Z M331 366 C331 171 305 139 250 139 L211 139 L211 638 L248 638 C320 638 331 572 331 366 L331 366 Z " />
<glyph glyph-name="E" unicode="E" horiz-adv-x="466" d="M448 0 L448 147 L215 147 L215 322 L405 322 L405 463 L215 463 L215 623 L428 623 L428 768 L45 768 L45 0 L448 0 Z " />
<glyph glyph-name="F" unicode="F" horiz-adv-x="435" d="M418 615 L418 768 L45 768 L45 0 L215 0 L215 307 L395 307 L395 448 L215 448 L215 615 L418 615 Z " />
<glyph glyph-name="G" unicode="G" horiz-adv-x="518" d="M482 0 L482 394 L258 394 L258 286 L336 286 L336 240 C336 159 320 125 269 125 C212 125 197 150 197 363 C197 597 211 646 262 646 C307 646 324 609 324 561 C324 527 322 483 319 461 L466 465 C472 489 478 549 478 576 C478 719 397 780 262 780 C80 780 22 677 22 362 C22 68 93 -16 233 -16 C291 -16 321 -2 361 32 L383 51 L401 0 L482 0 Z " />
<glyph glyph-name="H" unicode="H" horiz-adv-x="531" d="M486 0 L486 768 L316 768 L316 483 L215 483 L215 768 L45 768 L45 0 L215 0 L215 354 L316 354 L316 0 L486 0 Z " />
<glyph glyph-name="I" unicode="I" horiz-adv-x="260" d="M215 0 L215 768 L45 768 L45 0 L215 0 Z " />
<glyph glyph-name="J" unicode="J" horiz-adv-x="481" d="M441 219 L441 768 L271 768 L271 236 C271 160 250 138 218 138 C184 138 170 166 170 242 C170 275 176 322 180 356 L34 351 C22 320 9 266 9 218 C9 80 84 -12 220 -12 C369 -12 441 88 441 219 L441 219 Z " />
<glyph glyph-name="K" unicode="K" horiz-adv-x="521" d="M526 0 L355 427 L503 768 L330 768 L215 486 L215 768 L45 768 L45 0 L215 0 L215 318 L334 0 L526 0 Z " />
<glyph glyph-name="L" unicode="L" horiz-adv-x="412" d="M405 0 L405 147 L215 147 L215 768 L45 768 L45 0 L405 0 Z " />
<glyph glyph-name="M" unicode="M" horiz-adv-x="690" d="M645 0 L645 768 L408 768 L344 402 L272 768 L45 768 L45 0 L192 0 L192 552 L280 0 L387 0 L489 552 L489 0 L645 0 Z " />
<glyph glyph-name="N" unicode="N" horiz-adv-x="519" d="M474 0 L474 768 L341 768 L341 403 L193 768 L45 768 L45 0 L184 0 L184 406 L348 0 L474 0 Z " />
<glyph glyph-name="O" unicode="O" horiz-adv-x="494" d="M472 385 C472 673 419 780 247 780 C70 780 22 652 22 385 C22 61 82 -12 247 -12 C434 -12 472 90 472 385 L472 385 Z M298 383 C298 160 295 128 247 128 C200 128 196 159 196 383 C196 594 196 649 247 649 C300 649 298 595 298 383 L298 383 Z " />
<glyph glyph-name="P" unicode="P" horiz-adv-x="496" d="M477 512 C477 711 388 768 253 768 L45 768 L45 0 L211 0 L211 274 L276 274 C404 274 477 323 477 512 L477 512 Z M309 520 C309 443 290 410 245 410 L211 410 L211 635 L244 635 C291 635 309 610 309 520 L309 520 Z " />
<glyph glyph-name="Q" unicode="Q" horiz-adv-x="494" d="M472 385 C472 652 419 780 247 780 C70 780 22 652 22 385 C22 57 74 -5 173 -15 L183 -16 C181 -26 180 -45 180 -64 C180 -147 233 -189 318 -189 C395 -189 466 -148 456 -64 L453 -38 L363 -38 C371 -64 363 -90 328 -90 C303 -90 288 -72 292 -29 L293 -17 L321 -14 C438 -1 472 104 472 385 L472 385 Z M298 383 C298 165 295 128 247 128 C200 128 196 161 196 383 C196 590 196 649 247 649 C300 649 298 591 298 383 L298 383 Z " />
<glyph glyph-name="R" unicode="R" horiz-adv-x="510" d="M482 531 C482 686 429 768 296 768 L45 768 L45 0 L215 0 L215 302 L240 302 C284 302 290 266 291 218 C292 180 292 111 292 88 C292 53 298 24 307 0 L481 0 C479 8 471 54 470 86 C470 105 469 136 468 166 C462 287 434 331 367 348 C437 363 482 405 482 531 L482 531 Z M312 530 C312 453 300 420 255 420 L215 420 L215 640 L253 640 C290 640 312 617 312 530 L312 530 Z " />
<glyph glyph-name="S" unicode="S" horiz-adv-x="509" d="M491 233 C491 334 447 398 365 438 L300 470 C251 494 199 524 199 576 C199 624 223 644 255 644 C291 644 312 626 312 575 C312 552 306 534 301 523 L446 527 C451 544 455 568 455 595 C455 705 401 780 264 780 C106 780 25 689 25 564 C25 478 73 410 137 372 L228 318 C284 285 316 258 316 205 C316 148 285 127 241 127 C195 127 168 158 168 206 C168 230 171 261 178 279 L31 274 C22 249 18 214 18 183 C18 65 84 -12 248 -12 C430 -12 491 90 491 233 L491 233 Z " />
<glyph glyph-name="T" unicode="T" horiz-adv-x="456" d="M449 627 L449 768 L7 768 L7 627 L143 627 L143 0 L313 0 L313 627 L449 627 Z " />
<glyph glyph-name="U" unicode="U" horiz-adv-x="535" d="M492 220 L492 768 L323 768 L323 200 C323 168 305 144 267 144 C230 144 212 166 212 200 L212 768 L43 768 L43 220 C43 86 95 -12 267 -12 C452 -12 492 92 492 220 L492 220 Z " />
<glyph glyph-name="V" unicode="V" horiz-adv-x="483" d="M483 768 L322 768 L257 300 L252 300 L176 768 L-3 768 L149 0 L330 0 L483 768 Z " />
<glyph glyph-name="W" unicode="W" horiz-adv-x="632" d="M632 768 L494 768 L437 420 L380 768 L266 768 L210 420 L153 768 L0 768 L128 0 L263 0 L315 396 L376 0 L506 0 L632 768 Z " />
<glyph glyph-name="X" unicode="X" horiz-adv-x="516" d="M507 0 L378 406 L503 768 L332 768 L276 566 L206 768 L30 768 L153 406 L0 0 L171 0 L249 264 L331 0 L507 0 Z " />
<glyph glyph-name="Y" unicode="Y" horiz-adv-x="499" d="M499 768 L353 768 L262 483 L170 768 L0 768 L167 300 L167 0 L337 0 L337 300 L499 768 Z " />
<glyph glyph-name="Z" unicode="Z" horiz-adv-x="452" d="M427 0 L427 147 L192 147 L427 590 L427 768 L59 768 L59 624 L267 624 L27 178 L27 0 L427 0 Z " />
<glyph glyph-name="bracketleft" unicode="&#x5b;" horiz-adv-x="324" d="M286 -102 L286 -14 L173 -14 L173 680 L286 680 L286 768 L45 768 L45 -102 L286 -102 Z " />
<glyph glyph-name="backslash" unicode="&#x5c;" horiz-adv-x="466" d="M465 0 L99 768 L1 768 L366 0 L465 0 Z " />
<glyph glyph-name="bracketright" unicode="&#x5d;" horiz-adv-x="324" d="M279 -102 L279 768 L38 768 L38 680 L151 680 L151 -14 L38 -14 L38 -102 L279 -102 Z " />
<glyph glyph-name="asciicircum" unicode="&#x5e;" horiz-adv-x="474" d="M420 579 L310 768 L164 768 L54 579 L130 579 L237 682 L344 579 L420 579 Z " />
<glyph glyph-name="underscore" unicode="&#x5f;" horiz-adv-x="510" d="M510 -200 L510 -99 L0 -99 L0 -200 L510 -200 Z " />
<glyph glyph-name="grave" unicode="&#x60;" horiz-adv-x="474" d="M344 620 L272 768 L100 768 L100 757 L279 620 L344 620 Z " />
<glyph glyph-name="a" unicode="a" horiz-adv-x="513" d="M503 18 L503 99 C498 97 494 96 489 96 C469 96 452 108 452 129 L452 463 C452 539 395 592 235 592 C124 592 33 551 33 448 C33 420 36 409 41 386 L173 389 C168 405 165 418 165 438 C165 473 195 497 233 497 C274 497 296 477 296 423 C296 375 284 360 223 347 L163 334 C64 313 20 257 20 161 C20 75 60 -12 171 -12 C235 -12 274 18 287 44 L296 62 C307 19 317 -12 397 -12 C437 -12 488 7 503 18 L503 18 Z M296 227 C296 114 265 100 228 100 C190 100 178 129 178 179 C178 230 191 250 248 266 C263 270 282 277 296 285 L296 227 Z " />
<glyph glyph-name="b" unicode="b" horiz-adv-x="486" d="M466 298 C466 517 393 585 301 585 C238 585 213 549 196 517 L196 768 L38 768 L38 0 L110 0 L144 82 C165 43 196 -10 273 -10 C413 -10 466 75 466 298 L466 298 Z M307 285 C307 140 287 112 250 112 C216 112 196 149 196 285 C196 408 215 456 255 456 C278 456 289 447 297 414 C304 383 307 345 307 285 L307 285 Z " />
<glyph glyph-name="c" unicode="c" horiz-adv-x="462" d="M443 175 C443 206 440 233 436 252 L299 259 C302 251 303 240 303 226 C303 177 297 112 246 112 C195 112 181 141 181 299 C181 434 193 471 244 471 C280 471 297 440 297 387 C297 372 296 362 294 353 L429 357 C431 370 432 386 432 405 C432 507 393 592 246 592 C114 592 20 515 20 266 C20 47 104 -12 251 -12 C401 -12 443 89 443 175 L443 175 Z " />
<glyph glyph-name="d" unicode="d" horiz-adv-x="487" d="M449 0 L449 768 L291 768 L291 510 L284 525 C268 560 235 585 187 585 C78 585 20 479 20 283 C20 53 77 -9 188 -9 C236 -9 267 17 285 49 L299 74 L299 0 L449 0 Z M289 286 C289 148 268 113 233 113 C205 113 178 132 178 287 C178 418 196 466 228 466 C252 466 264 452 273 428 C284 397 289 360 289 286 L289 286 Z " />
<glyph glyph-name="e" unicode="e" horiz-adv-x="462" d="M439 254 C438 289 436 324 432 364 C418 508 360 592 235 592 C96 592 20 500 20 279 C20 39 110 -12 248 -12 C389 -12 438 67 438 166 C438 183 437 198 435 209 L298 213 L300 190 C304 141 289 111 246 111 C200 111 178 129 179 256 L439 254 Z M285 337 L179 337 C182 429 193 477 235 477 C276 477 279 448 285 337 L285 337 Z " />
<glyph glyph-name="f" unicode="f" horiz-adv-x="359" d="M382 670 C382 741 346 780 242 780 C139 780 76 723 76 632 C76 609 76 601 76 574 L0 574 L0 466 L76 466 L76 0 L234 0 L234 466 L359 466 L359 574 L229 574 C228 589 227 605 227 622 C227 675 237 691 257 691 C279 691 284 674 284 654 C284 639 283 629 281 618 L373 614 C378 630 382 649 382 670 L382 670 Z " />
<glyph glyph-name="g" unicode="g" horiz-adv-x="450" d="M453 -10 C453 102 388 157 279 156 L184 155 C161 155 135 155 135 183 C135 204 153 210 169 220 C188 215 220 214 244 214 C355 214 423 285 423 394 C423 470 391 519 353 551 L441 683 L313 683 L298 579 C277 588 257 592 218 592 C91 592 25 518 25 394 C25 344 50 289 81 262 L98 247 L80 235 C46 212 11 179 11 127 C11 85 23 55 62 32 L81 21 L55 8 C20 -9 2 -28 2 -64 C2 -158 105 -188 215 -188 C384 -188 453 -132 453 -10 L453 -10 Z M274 407 C274 322 256 307 221 307 C186 307 169 322 169 407 C169 492 186 507 221 507 C256 507 274 492 274 407 L274 407 Z M312 -40 C312 -79 300 -99 217 -99 C164 -99 124 -77 124 -42 C124 -22 138 -2 152 10 L222 10 C288 10 312 -9 312 -40 L312 -40 Z " />
<glyph glyph-name="h" unicode="h" horiz-adv-x="487" d="M452 0 L452 450 C452 543 391 585 326 585 C259 585 213 546 195 481 L195 768 L38 768 L38 0 L196 0 L196 327 C196 401 220 448 257 448 C284 448 294 432 294 406 L294 0 L452 0 Z " />
<glyph glyph-name="i" unicode="i" horiz-adv-x="234" d="M196 624 L196 768 L38 768 L38 624 L196 624 Z M196 0 L196 574 L38 574 L38 0 L196 0 Z " />
<glyph glyph-name="j" unicode="j" horiz-adv-x="239" d="M201 624 L201 768 L43 768 L43 624 L201 624 Z M201 -27 L201 574 L43 574 C43 574 43 130 43 5 C43 -11 45 -24 47 -35 C49 -45 51 -53 51 -60 C51 -80 44 -95 21 -95 C1 -95 -10 -85 -10 -54 C-10 -45 -7 -31 -4 -20 L-90 -18 C-95 -30 -101 -54 -101 -69 C-101 -154 -35 -180 49 -180 C149 -180 201 -135 201 -27 L201 -27 Z " />
<glyph glyph-name="k" unicode="k" horiz-adv-x="485" d="M478 0 L349 352 L470 574 L309 574 L196 350 L196 768 L38 768 L38 0 L196 0 L196 126 L235 195 L297 0 L478 0 Z " />
<glyph glyph-name="l" unicode="l" horiz-adv-x="234" d="M196 0 L196 768 L38 768 L38 0 L196 0 Z " />
<glyph glyph-name="m" unicode="m" horiz-adv-x="743" d="M708 0 L708 450 C708 543 647 585 582 585 C515 585 469 545 451 480 C442 550 392 585 327 585 C260 585 213 545 195 480 L195 574 L38 574 L38 0 L196 0 C197 3 196 328 196 328 C196 408 221 449 258 449 C285 449 295 433 295 407 L295 0 L452 0 L452 328 C452 402 476 449 513 449 C540 449 550 433 550 407 L550 0 L708 0 Z " />
<glyph glyph-name="n" unicode="n" horiz-adv-x="487" d="M452 0 L452 450 C452 543 391 585 326 585 C259 585 213 546 195 481 L195 574 L38 574 L38 0 L196 0 L196 327 C196 401 220 448 257 448 C284 448 294 432 294 406 L294 0 L452 0 Z " />
<glyph glyph-name="o" unicode="o" horiz-adv-x="463" d="M443 291 C443 489 395 592 229 592 C90 592 20 493 20 278 C20 76 77 -9 237 -9 C404 -9 443 96 443 291 L443 291 Z M280 282 C280 136 267 120 231 120 C197 120 183 135 183 282 C183 436 189 473 231 473 C272 473 280 437 280 282 L280 282 Z " />
<glyph glyph-name="p" unicode="p" horiz-adv-x="488" d="M468 271 C468 531 391 587 300 587 C258 587 228 560 209 531 L195 510 L195 574 L38 574 L38 -144 L196 -144 L196 74 L214 43 C228 19 264 -10 307 -10 C426 -10 468 76 468 271 L468 271 Z M308 287 C308 177 287 123 255 123 C213 123 196 152 196 288 C196 433 219 461 254 461 C282 461 308 421 308 287 L308 287 Z " />
<glyph glyph-name="q" unicode="q" horiz-adv-x="486" d="M448 -144 L448 574 L376 574 L335 498 C313 548 269 585 213 585 C80 585 20 485 20 276 C20 57 93 -9 185 -9 C248 -9 273 25 290 57 L290 -144 L448 -144 Z M289 289 C289 129 261 113 234 113 C192 113 178 139 178 289 C178 434 197 466 228 466 C257 466 289 451 289 289 L289 289 Z " />
<glyph glyph-name="r" unicode="r" horiz-adv-x="440" d="M429 437 C429 538 391 585 310 585 C256 585 219 539 202 490 L195 470 C195 505 193 574 193 574 L38 574 L38 0 L196 0 L196 288 C196 367 207 438 249 438 C276 438 291 420 291 367 C291 337 289 313 286 293 L421 318 C425 345 429 385 429 437 L429 437 Z " />
<glyph glyph-name="s" unicode="s" horiz-adv-x="448" d="M437 173 C437 273 387 312 322 340 L245 373 C206 390 182 405 182 438 C182 468 198 489 232 489 C265 489 286 472 286 440 C286 421 285 412 281 400 L400 398 C406 414 409 429 409 450 C409 548 327 592 222 592 C113 592 20 532 20 423 C20 317 94 274 144 251 L206 222 C249 202 265 185 265 155 C265 133 255 95 207 95 C165 95 147 119 147 161 C147 173 148 184 151 198 L30 206 C23 185 18 160 18 135 C18 41 77 -10 218 -10 C380 -10 437 52 437 173 L437 173 Z " />
<glyph glyph-name="t" unicode="t" horiz-adv-x="390" d="M370 25 L370 138 C354 131 337 126 312 126 C281 126 241 131 241 176 L241 466 L361 466 L361 574 L241 574 L241 732 L91 732 L87 574 L0 574 L0 466 L85 466 L83 112 C82 22 136 -8 218 -8 C279 -8 350 11 370 25 L370 25 Z " />
<glyph glyph-name="u" unicode="u" horiz-adv-x="487" d="M449 0 L449 574 L291 574 L291 247 C291 166 267 126 230 126 C203 126 193 142 193 168 L193 574 L35 574 L35 124 C35 31 96 -11 161 -11 C228 -11 274 28 292 93 L292 0 L449 0 Z " />
<glyph glyph-name="v" unicode="v" horiz-adv-x="460" d="M460 574 L307 574 L244 230 L167 574 L0 574 L156 0 L309 0 L460 574 Z " />
<glyph glyph-name="w" unicode="w" horiz-adv-x="664" d="M664 574 L508 574 L460 313 L407 574 L263 574 L217 313 L162 574 L0 574 L150 0 L280 0 L329 328 L386 0 L517 0 L664 574 Z " />
<glyph glyph-name="x" unicode="x" horiz-adv-x="474" d="M474 0 L328 309 L463 574 L311 574 L249 436 L193 574 L14 574 L162 305 L0 0 L153 0 L234 160 L298 0 L474 0 Z " />
<glyph glyph-name="y" unicode="y" horiz-adv-x="472" d="M472 574 L321 574 L256 237 L176 574 L0 574 L175 44 C182 23 188 1 188 -15 C188 -60 177 -90 142 -90 C114 -90 103 -77 103 -57 C103 -44 105 -30 107 -18 L8 -18 C6 -33 4 -44 4 -58 C4 -131 32 -180 143 -180 C274 -180 296 -99 321 -5 L472 574 Z " />
<glyph glyph-name="z" unicode="z" horiz-adv-x="430" d="M402 0 L402 120 L175 120 L402 437 L402 574 L39 574 L39 454 L230 454 L26 160 L26 0 L402 0 Z " />
<glyph glyph-name="braceleft" unicode="&#x7b;" horiz-adv-x="317" d="M292 -102 L292 -2 L234 -2 C208 -2 201 11 201 40 C201 120 201 178 201 270 C201 325 172 359 134 359 C178 359 201 387 201 442 C201 494 201 563 201 625 C201 649 210 667 234 667 L292 667 L292 768 L198 768 C110 768 76 732 76 649 C76 614 76 514 76 483 C76 435 72 424 34 424 L9 424 L9 288 L34 288 C68 288 76 276 76 236 C76 167 76 94 76 23 C76 -80 110 -102 198 -102 L292 -102 Z " />
<glyph glyph-name="bar" unicode="&#x7c;" horiz-adv-x="197" d="M161 -200 L161 800 L36 800 L36 -200 L161 -200 Z " />
<glyph glyph-name="braceright" unicode="&#x7d;" horiz-adv-x="317" d="M308 288 L308 424 L283 424 C245 424 241 435 241 483 C241 514 241 614 241 649 C241 732 207 768 119 768 L25 768 L25 667 L83 667 C107 667 116 649 116 625 C116 563 116 494 116 442 C116 387 139 359 183 359 C145 359 116 325 116 270 C116 178 116 120 116 40 C116 11 109 -2 83 -2 L25 -2 L25 -102 L119 -102 C207 -102 241 -80 241 23 C241 94 241 167 241 236 C241 276 249 288 283 288 L308 288 Z " />
<glyph glyph-name="asciitilde" unicode="&#x7e;" horiz-adv-x="443" d="M392 699 C392 734 387 750 381 764 L332 764 C332 753 337 707 302 707 C283 707 276 715 262 726 L236 747 C212 767 189 780 146 780 C74 780 57 723 57 674 C57 646 61 627 68 613 L118 613 C118 627 111 666 150 666 C168 666 178 656 193 643 L218 621 C232 608 255 593 290 593 C366 593 392 648 392 699 L392 699 Z " />
<glyph glyph-name="nbspace" unicode="&#xa0;" horiz-adv-x="127" d="" />
<glyph glyph-name="exclamdown" unicode="&#xa1;" horiz-adv-x="208" d="M177 600 L177 768 L31 768 L31 600 L177 600 Z M177 0 L177 260 L142 520 L61 520 L31 260 L31 0 L177 0 Z " />
<glyph glyph-name="cent" unicode="&#xa2;" horiz-adv-x="462" d="M443 302 C443 333 440 360 436 379 L299 386 C301 377 303 367 303 353 C303 304 297 239 246 239 C195 239 181 268 181 426 C181 561 193 598 244 598 C280 598 297 567 297 514 C297 499 296 489 294 480 L429 484 C431 497 432 513 432 532 C432 623 401 701 288 716 L288 776 L203 776 L203 716 C94 699 20 614 20 393 C20 199 86 131 203 118 L203 58 L288 58 L288 117 C408 133 443 224 443 302 L443 302 Z " />
<glyph glyph-name="sterling" unicode="&#xa3;" horiz-adv-x="583" d="M577 192 C577 202 574 228 572 244 L432 230 C437 165 419 106 344 106 C313 106 294 111 294 111 C313 138 326 159 339 186 C352 214 355 262 351 297 L446 297 L446 401 L327 401 C303 453 286 503 286 556 C286 644 294 672 331 672 C369 672 381 649 381 557 C381 535 377 517 372 493 L524 505 C529 521 534 547 534 573 C534 738 454 780 332 780 C198 780 115 719 115 561 C115 505 134 435 148 401 L52 401 L52 297 L188 297 C194 283 197 241 197 225 C197 190 188 157 167 135 C157 135 121 143 93 143 C60 143 -6 140 -6 56 C-6 6 30 -13 67 -13 C119 -13 181 15 194 23 C235 1 319 -16 381 -16 C512 -16 577 86 577 192 L577 192 Z M107 60 C97 49 85 42 72 42 C58 42 48 47 48 59 C48 69 58 73 75 73 C90 73 98 67 107 60 L107 60 Z " />
<glyph glyph-name="currency" unicode="&#xa4;" horiz-adv-x="654" d="M629 314 C629 483 492 620 323 620 C154 620 17 483 17 314 C17 145 154 8 323 8 C492 8 629 145 629 314 L629 314 Z M520 224 L370 215 L295 74 L221 204 L81 223 L190 338 L199 540 L341 413 L477 509 L461 286 L520 224 Z " />
<glyph glyph-name="yen" unicode="&#xa5;" horiz-adv-x="509" d="M499 300 L499 395 L370 395 L392 459 L499 459 L499 554 L425 554 L499 768 L363 768 L267 471 L170 768 L10 768 L86 554 L10 554 L10 459 L120 459 L143 395 L10 395 L10 300 L177 300 L177 0 L337 0 L337 300 L499 300 Z " />
<glyph glyph-name="brokenbar" unicode="&#xa6;" horiz-adv-x="654" d="M629 314 C629 483 492 620 323 620 C154 620 17 483 17 314 C17 145 154 8 323 8 C492 8 629 145 629 314 L629 314 Z M520 224 L370 215 L295 74 L221 204 L81 223 L190 338 L199 540 L341 413 L477 509 L461 286 L520 224 Z " />
<glyph glyph-name="section" unicode="&#xa7;" horiz-adv-x="488" d="M454 80 C454 149 435 193 381 225 C438 256 454 300 454 366 C454 443 404 501 336 529 L256 562 C211 580 190 593 190 626 C190 656 207 680 246 680 C283 680 305 659 305 627 C305 613 303 597 300 587 L417 586 C421 597 426 617 426 638 C426 720 363 780 236 780 C121 780 33 720 33 611 C33 549 46 500 97 469 C41 435 18 389 20 323 C22 247 68 194 142 164 L222 131 C266 113 285 98 285 65 C285 35 274 14 233 14 C198 14 179 32 179 64 C179 78 181 94 184 104 L59 105 C55 94 50 74 50 53 C50 -29 116 -89 243 -89 C358 -89 454 -29 454 80 L454 80 Z M318 326 C318 296 313 289 294 272 C273 280 239 296 220 306 C175 329 156 348 156 374 C156 403 162 414 177 426 C195 419 238 398 260 388 C290 374 318 351 318 326 L318 326 Z " />
<glyph glyph-name="dieresis" unicode="&#xa8;" horiz-adv-x="474" d="M386 626 L386 756 L259 756 L259 626 L386 626 Z M209 626 L209 756 L82 756 L82 626 L209 626 Z " />
<glyph glyph-name="copyright" unicode="&#xa9;" horiz-adv-x="656" d="M636 435 C636 626 518 738 328 738 C137 738 20 626 20 435 C20 252 135 136 328 136 C517 136 636 251 636 435 L636 435 Z M582 435 C582 281 484 182 328 182 C176 182 73 276 73 435 C73 589 165 690 328 690 C482 690 582 595 582 435 L582 435 Z M439 351 C439 392 434 414 434 414 L353 415 C353 415 357 392 357 367 C357 345 359 313 335 313 C311 313 307 359 307 428 C307 498 306 552 329 552 C347 552 348 530 348 513 C348 490 345 466 345 466 L427 471 C427 471 430 495 430 516 C430 582 403 611 332 611 C238 611 206 554 206 412 C206 285 248 250 331 250 C412 250 439 293 439 351 L439 351 Z " />
<glyph glyph-name="ordfeminine" unicode="&#xaa;" horiz-adv-x="388" d="M345 439 L345 489 C342 489 340 489 337 489 C323 489 323 498 323 507 L323 660 C323 748 250 765 182 765 C119 765 47 739 47 678 C47 662 53 648 57 643 L170 651 C168 656 166 665 166 673 C166 684 175 696 188 696 C200 696 207 687 207 670 C207 643 187 635 164 630 L135 624 C79 613 38 571 38 516 C38 468 79 424 130 423 C163 423 191 438 202 459 L209 472 C217 442 235 423 284 423 C309 423 336 433 345 439 L345 439 Z M364 334 L364 394 L30 394 L30 334 L364 334 Z M212 526 C212 513 205 499 192 499 C175 499 167 511 167 535 C167 564 191 592 212 594 L212 526 Z " />
<glyph glyph-name="guillemotleft" unicode="&#xab;" horiz-adv-x="536" d="M500 36 L500 171 L359 276 L500 380 L500 515 L269 344 L269 209 L500 36 Z M266 36 L266 171 L126 276 L266 380 L266 515 L36 344 L36 209 L266 36 Z " />
<glyph glyph-name="logicalnot" unicode="&#xac;" horiz-adv-x="654" d="M629 314 C629 483 492 620 323 620 C154 620 17 483 17 314 C17 145 154 8 323 8 C492 8 629 145 629 314 L629 314 Z M520 224 L370 215 L295 74 L221 204 L81 223 L190 338 L199 540 L341 413 L477 509 L461 286 L520 224 Z " />
<glyph glyph-name="registered" unicode="&#xae;" horiz-adv-x="656" d="M636 435 C636 626 518 738 328 738 C137 738 20 626 20 435 C20 252 135 136 328 136 C517 136 636 251 636 435 L636 435 Z M582 435 C582 281 484 182 328 182 C176 182 73 276 73 435 C73 589 165 690 328 690 C482 690 582 595 582 435 L582 435 Z M450 496 C450 582 401 604 342 604 L217 604 L217 258 L315 258 L315 396 L325 396 C345 396 350 379 350 358 C350 340 350 343 350 300 C350 279 354 262 356 258 L447 258 C444 264 441 282 441 297 C439 369 438 406 387 415 L375 417 L387 417 C426 417 450 442 450 496 L450 496 Z M349 495 C349 460 346 442 326 442 L315 442 L315 549 L325 549 C342 549 349 540 349 495 L349 495 Z " />
<glyph glyph-name="macron" unicode="&#xaf;" horiz-adv-x="474" d="M388 633 L388 729 L92 729 L92 633 L388 633 Z " />
<glyph glyph-name="degree" unicode="&#xb0;" horiz-adv-x="362" d="M300 640 C300 706 246 758 178 758 C112 758 58 706 58 640 C58 575 112 521 178 521 C246 521 300 575 300 640 L300 640 Z M237 640 C237 609 210 584 178 584 C148 584 121 609 121 640 C121 671 148 697 178 697 C210 697 237 671 237 640 L237 640 Z " />
<glyph glyph-name="plusminus" unicode="&#xb1;" horiz-adv-x="795" d="M748 0 L748 768 L599 768 C571 778 531 780 499 780 C438 780 400 759 383 745 C348 773 305 780 242 780 C139 780 76 723 76 632 C76 609 76 601 76 574 L0 574 L0 466 L76 466 L76 0 L234 0 L234 466 L333 466 L333 0 L491 0 L491 466 L561 466 L561 574 L486 574 C485 598 483 617 483 649 C483 673 498 691 534 691 C565 691 576 674 590 659 L590 0 L748 0 Z M333 574 L229 574 C228 598 226 626 226 653 C226 679 251 691 278 691 C301 691 316 681 333 658 C333 658 333 594 333 574 L333 574 Z " />
<glyph glyph-name="twosuperior" unicode="&#xb2;" horiz-adv-x="654" d="M629 314 C629 483 492 620 323 620 C154 620 17 483 17 314 C17 145 154 8 323 8 C492 8 629 145 629 314 L629 314 Z M520 224 L370 215 L295 74 L221 204 L81 223 L190 338 L199 540 L341 413 L477 509 L461 286 L520 224 Z " />
<glyph glyph-name="threesuperior" unicode="&#xb3;" horiz-adv-x="654" d="M629 314 C629 483 492 620 323 620 C154 620 17 483 17 314 C17 145 154 8 323 8 C492 8 629 145 629 314 L629 314 Z M520 224 L370 215 L295 74 L221 204 L81 223 L190 338 L199 540 L341 413 L477 509 L461 286 L520 224 Z " />
<glyph glyph-name="acute" unicode="&#xb4;" horiz-adv-x="474" d="M392 757 L392 768 L220 768 L148 620 L213 620 L392 757 Z " />
<glyph glyph-name="mu" unicode="&#xb5;" horiz-adv-x="654" d="M629 314 C629 483 492 620 323 620 C154 620 17 483 17 314 C17 145 154 8 323 8 C492 8 629 145 629 314 L629 314 Z M520 224 L370 215 L295 74 L221 204 L81 223 L190 338 L199 540 L341 413 L477 509 L461 286 L520 224 Z " />
<glyph glyph-name="paragraph" unicode="&#xb6;" horiz-adv-x="585" d="M540 0 L540 768 L236 768 C123 768 20 711 20 512 C20 323 100 269 206 269 L294 269 L294 0 L388 0 L388 691 L446 691 L446 0 L540 0 Z M294 340 L279 340 C228 340 218 356 218 515 C218 656 232 691 281 691 L294 691 L294 340 Z " />
<glyph glyph-name="periodcentered" unicode="&#xb7;" horiz-adv-x="248" d="M213 385 C213 434 173 474 124 474 C75 474 35 434 35 385 C35 336 75 296 124 296 C173 296 213 336 213 385 L213 385 Z " />
<glyph glyph-name="cedilla" unicode="&#xb8;" horiz-adv-x="474" d="M342 -108 C342 -57 302 -20 239 -20 C225 -20 201 -20 201 -20 L183 -88 C220 -71 255 -78 255 -111 C255 -124 253 -142 222 -142 C173 -142 151 -127 130 -110 L98 -164 C119 -183 168 -200 226 -200 C299 -200 342 -164 342 -108 L342 -108 Z " />
<glyph glyph-name="onesuperior" unicode="&#xb9;" horiz-adv-x="654" d="M629 314 C629 483 492 620 323 620 C154 620 17 483 17 314 C17 145 154 8 323 8 C492 8 629 145 629 314 L629 314 Z M520 224 L370 215 L295 74 L221 204 L81 223 L190 338 L199 540 L341 413 L477 509 L461 286 L520 224 Z " />
<glyph glyph-name="ordmasculine" unicode="&#xba;" horiz-adv-x="361" d="M334 585 C334 731 273 767 180 767 C96 767 27 731 27 585 C27 453 93 425 180 425 C276 425 334 453 334 585 L334 585 Z M336 336 L336 396 L30 396 L30 336 L336 336 Z M207 594 C207 533 202 507 180 507 C156 507 153 533 153 594 C153 635 153 693 180 693 C206 693 207 635 207 594 L207 594 Z " />
<glyph glyph-name="guillemotright" unicode="&#xbb;" horiz-adv-x="536" d="M500 211 L500 346 L270 517 L270 382 L410 278 L270 173 L270 38 L500 211 Z M267 211 L267 346 L36 517 L36 382 L177 278 L36 173 L36 38 L267 211 Z " />
<glyph glyph-name="onequarter" unicode="&#xbc;" horiz-adv-x="654" d="M629 314 C629 483 492 620 323 620 C154 620 17 483 17 314 C17 145 154 8 323 8 C492 8 629 145 629 314 L629 314 Z M520 224 L370 215 L295 74 L221 204 L81 223 L190 338 L199 540 L341 413 L477 509 L461 286 L520 224 Z " />
<glyph glyph-name="onehalf" unicode="&#xbd;" horiz-adv-x="654" d="M629 314 C629 483 492 620 323 620 C154 620 17 483 17 314 C17 145 154 8 323 8 C492 8 629 145 629 314 L629 314 Z M520 224 L370 215 L295 74 L221 204 L81 223 L190 338 L199 540 L341 413 L477 509 L461 286 L520 224 Z " />
<glyph glyph-name="threequarters" unicode="&#xbe;" horiz-adv-x="654" d="M629 314 C629 483 492 620 323 620 C154 620 17 483 17 314 C17 145 154 8 323 8 C492 8 629 145 629 314 L629 314 Z M520 224 L370 215 L295 74 L221 204 L81 223 L190 338 L199 540 L341 413 L477 509 L461 286 L520 224 Z " />
<glyph glyph-name="questiondown" unicode="&#xbf;" horiz-adv-x="404" d="M373 600 L373 768 L227 768 L227 600 L373 600 Z M373 144 C373 173 370 197 363 219 L259 219 C263 202 264 186 264 158 C264 120 243 107 217 107 C190 107 175 128 175 225 C175 326 186 352 216 352 C244 352 255 327 255 279 L345 279 L345 553 L255 553 L255 436 C238 457 210 476 159 476 C83 476 25 437 25 220 C25 92 51 -12 206 -12 C334 -12 373 59 373 144 L373 144 Z " />
<glyph glyph-name="Agrave" unicode="&#xc0;" horiz-adv-x="498" d="M291 790 L226 923 L47 923 L47 913 L226 790 L291 790 Z M487 0 L324 768 L154 768 L7 0 L151 0 L171 133 L284 133 L306 0 L487 0 Z M266 240 L186 240 L220 482 L266 240 Z " />
<glyph glyph-name="Aacute" unicode="&#xc1;" horiz-adv-x="498" d="M431 913 L431 923 L252 923 L187 790 L252 790 L431 913 Z M487 0 L324 768 L154 768 L7 0 L151 0 L171 133 L284 133 L306 0 L487 0 Z M266 240 L186 240 L220 482 L266 240 Z " />
<glyph glyph-name="Acircumflex" unicode="&#xc2;" horiz-adv-x="498" d="M384 790 L311 932 L163 932 L80 790 L132 790 L232 859 L332 790 L384 790 Z M487 0 L324 768 L154 768 L7 0 L151 0 L171 133 L284 133 L306 0 L487 0 Z M266 240 L186 240 L220 482 L266 240 Z " />
<glyph glyph-name="Atilde" unicode="&#xc3;" horiz-adv-x="498" d="M487 0 L324 768 L154 768 L7 0 L151 0 L171 133 L284 133 L306 0 L487 0 Z M266 240 L186 240 L220 482 L266 240 Z M389 882 C389 905 384 920 378 932 L329 932 C334 912 331 886 298 886 C279 886 266 894 252 906 C220 931 202 938 163 938 C94 938 78 896 78 850 C78 827 83 813 89 800 L138 800 C133 820 136 846 169 846 C188 846 199 836 212 825 C241 803 260 794 304 794 C373 794 389 836 389 882 L389 882 Z " />
<glyph glyph-name="Adieresis" unicode="&#xc4;" horiz-adv-x="498" d="M389 790 L389 910 L269 910 L269 790 L389 790 Z M205 790 L205 910 L85 910 L85 790 L205 790 Z M487 0 L324 768 L154 768 L7 0 L151 0 L171 133 L284 133 L306 0 L487 0 Z M266 240 L186 240 L220 482 L266 240 Z " />
<glyph glyph-name="Aring" unicode="&#xc5;" horiz-adv-x="498" d="M487 0 L328 748 C349 772 358 799 358 826 C358 892 304 944 236 944 C170 944 116 892 116 826 C116 787 134 761 149 745 L7 0 L151 0 L171 133 L284 133 L306 0 L487 0 Z M294 824 C294 794 270 768 235 768 C201 768 178 794 178 824 C178 854 203 881 235 881 C269 881 294 854 294 824 L294 824 Z M266 240 L186 240 L220 482 L266 240 Z " />
<glyph glyph-name="AE" unicode="&#xc6;" horiz-adv-x="678" d="M660 0 L660 153 L467 153 L467 322 L617 322 L617 463 L467 463 L467 623 L640 623 L640 768 L230 768 L7 0 L144 0 L191 183 L302 183 L302 0 L660 0 Z M302 290 L220 290 L293 568 C297 582 299 592 299 602 L302 602 L302 290 Z " />
<glyph glyph-name="Ccedilla" unicode="&#xc7;" horiz-adv-x="499" d="M475 216 C475 264 472 296 465 340 L321 342 C323 301 322 277 322 244 C322 162 307 122 261 122 C209 122 201 139 201 378 C201 584 211 645 262 645 C300 645 309 621 309 539 C309 514 307 478 305 460 L452 461 C458 490 467 554 467 581 C467 704 403 780 261 780 C72 780 22 657 22 342 C22 59 95 -17 251 -17 C413 -17 475 67 475 216 L475 216 Z M368 -108 C368 -57 328 -20 265 -20 C251 -20 227 -20 227 -20 L209 -88 C246 -71 281 -78 281 -111 C281 -124 279 -142 248 -142 C199 -142 177 -127 156 -110 L124 -164 C145 -183 194 -200 252 -200 C325 -200 368 -164 368 -108 L368 -108 Z " />
<glyph glyph-name="Egrave" unicode="&#xc8;" horiz-adv-x="466" d="M327 790 L262 923 L83 923 L83 913 L262 790 L327 790 Z M448 0 L448 147 L215 147 L215 322 L405 322 L405 463 L215 463 L215 623 L428 623 L428 768 L45 768 L45 0 L448 0 Z " />
<glyph glyph-name="Eacute" unicode="&#xc9;" horiz-adv-x="466" d="M411 913 L411 923 L232 923 L167 790 L232 790 L411 913 Z M448 0 L448 147 L215 147 L215 322 L405 322 L405 463 L215 463 L215 623 L428 623 L428 768 L45 768 L45 0 L448 0 Z " />
<glyph glyph-name="Ecircumflex" unicode="&#xca;" horiz-adv-x="466" d="M384 790 L311 932 L163 932 L80 790 L132 790 L232 859 L332 790 L384 790 Z M448 0 L448 147 L215 147 L215 322 L405 322 L405 463 L215 463 L215 623 L428 623 L428 768 L45 768 L45 0 L448 0 Z " />
<glyph glyph-name="Edieresis" unicode="&#xcb;" horiz-adv-x="466" d="M389 790 L389 910 L269 910 L269 790 L389 790 Z M205 790 L205 910 L85 910 L85 790 L205 790 Z M448 0 L448 147 L215 147 L215 322 L405 322 L405 463 L215 463 L215 623 L428 623 L428 768 L45 768 L45 0 L448 0 Z " />
<glyph glyph-name="Igrave" unicode="&#xcc;" horiz-adv-x="260" d="M177 790 L112 923 L-67 923 L-67 913 L112 790 L177 790 Z M215 0 L215 768 L45 768 L45 0 L215 0 Z " />
<glyph glyph-name="Iacute" unicode="&#xcd;" horiz-adv-x="260" d="M316 913 L316 923 L137 923 L72 790 L137 790 L316 913 Z M215 0 L215 768 L45 768 L45 0 L215 0 Z " />
<glyph glyph-name="Icircumflex" unicode="&#xce;" horiz-adv-x="260" d="M282 790 L209 932 L61 932 L-22 790 L30 790 L130 859 L230 790 L282 790 Z M215 0 L215 768 L45 768 L45 0 L215 0 Z " />
<glyph glyph-name="Idieresis" unicode="&#xcf;" horiz-adv-x="260" d="M282 790 L282 910 L162 910 L162 790 L282 790 Z M98 790 L98 910 L-22 910 L-22 790 L98 790 Z M215 0 L215 768 L45 768 L45 0 L215 0 Z " />
<glyph glyph-name="Eth" unicode="&#xd0;" horiz-adv-x="523" d="M501 348 C501 601 433 768 292 768 L45 768 L45 439 L0 439 L0 327 L45 327 L45 0 L280 0 C450 0 501 146 501 348 L501 348 Z M331 366 C331 171 305 139 250 139 L211 139 L211 327 L289 327 L289 439 L211 439 L211 638 L248 638 C320 638 331 572 331 366 L331 366 Z " />
<glyph glyph-name="Ntilde" unicode="&#xd1;" horiz-adv-x="519" d="M474 0 L474 768 L341 768 L341 403 L193 768 L45 768 L45 0 L184 0 L184 406 L348 0 L474 0 Z M404 882 C404 905 399 920 393 932 L344 932 C349 912 346 886 313 886 C294 886 281 894 267 906 C235 931 217 938 178 938 C109 938 93 896 93 850 C93 827 98 813 104 800 L153 800 C148 820 151 846 184 846 C203 846 214 836 227 825 C256 803 275 794 319 794 C388 794 404 836 404 882 L404 882 Z " />
<glyph glyph-name="Ograve" unicode="&#xd2;" horiz-adv-x="494" d="M327 800 L262 933 L83 933 L83 923 L262 800 L327 800 Z M472 385 C472 673 419 780 247 780 C70 780 22 652 22 385 C22 61 82 -12 247 -12 C434 -12 472 90 472 385 L472 385 Z M298 383 C298 160 295 128 247 128 C200 128 196 159 196 383 C196 594 196 649 247 649 C300 649 298 595 298 383 L298 383 Z " />
<glyph glyph-name="Oacute" unicode="&#xd3;" horiz-adv-x="494" d="M428 923 L428 933 L249 933 L184 800 L249 800 L428 923 Z M472 385 C472 673 419 780 247 780 C70 780 22 652 22 385 C22 61 82 -12 247 -12 C434 -12 472 90 472 385 L472 385 Z M298 383 C298 160 295 128 247 128 C200 128 196 159 196 383 C196 594 196 649 247 649 C300 649 298 595 298 383 L298 383 Z " />
<glyph glyph-name="Ocircumflex" unicode="&#xd4;" horiz-adv-x="494" d="M399 800 L326 942 L178 942 L95 800 L147 800 L247 869 L347 800 L399 800 Z M472 385 C472 673 419 780 247 780 C70 780 22 652 22 385 C22 61 82 -12 247 -12 C434 -12 472 90 472 385 L472 385 Z M298 383 C298 160 295 128 247 128 C200 128 196 159 196 383 C196 594 196 649 247 649 C300 649 298 595 298 383 L298 383 Z " />
<glyph glyph-name="Otilde" unicode="&#xd5;" horiz-adv-x="494" d="M472 385 C472 673 419 780 247 780 C70 780 22 652 22 385 C22 61 82 -12 247 -12 C434 -12 472 90 472 385 L472 385 Z M298 383 C298 160 295 128 247 128 C200 128 196 159 196 383 C196 594 196 649 247 649 C300 649 298 595 298 383 L298 383 Z M404 888 C404 911 399 926 393 938 L344 938 C349 918 346 892 313 892 C294 892 281 900 267 912 C235 937 217 944 178 944 C109 944 93 902 93 856 C93 833 98 819 104 806 L153 806 C148 826 151 852 184 852 C203 852 214 842 227 831 C256 809 275 800 319 800 C388 800 404 842 404 888 L404 888 Z " />
<glyph glyph-name="Odieresis" unicode="&#xd6;" horiz-adv-x="494" d="M399 800 L399 920 L279 920 L279 800 L399 800 Z M215 800 L215 920 L95 920 L95 800 L215 800 Z M472 385 C472 673 419 780 247 780 C70 780 22 652 22 385 C22 61 82 -12 247 -12 C434 -12 472 90 472 385 L472 385 Z M298 383 C298 160 295 128 247 128 C200 128 196 159 196 383 C196 594 196 649 247 649 C300 649 298 595 298 383 L298 383 Z " />
<glyph glyph-name="multiply" unicode="&#xd7;" horiz-adv-x="654" d="M629 314 C629 483 492 620 323 620 C154 620 17 483 17 314 C17 145 154 8 323 8 C492 8 629 145 629 314 L629 314 Z M520 224 L370 215 L295 74 L221 204 L81 223 L190 338 L199 540 L341 413 L477 509 L461 286 L520 224 Z " />
<glyph glyph-name="Oslash" unicode="&#xd8;" horiz-adv-x="494" d="M475 780 L422 780 L396 729 C361 764 313 780 247 780 C70 780 22 652 22 385 C22 235 34 139 64 79 L18 -12 L71 -12 L95 36 C131 0 180 -12 247 -12 C434 -12 472 90 472 385 C472 525 459 623 427 685 L475 780 Z M300 541 L192 330 C192 346 192 364 192 383 C192 594 196 653 247 653 C283 653 296 626 300 541 L300 541 Z M302 383 C302 160 295 124 247 124 C214 124 199 141 194 231 L302 441 C302 423 302 404 302 383 L302 383 Z " />
<glyph glyph-name="Ugrave" unicode="&#xd9;" horiz-adv-x="535" d="M330 790 L265 923 L86 923 L86 913 L265 790 L330 790 Z M492 220 L492 768 L323 768 L323 200 C323 168 305 144 267 144 C230 144 212 166 212 200 L212 768 L43 768 L43 220 C43 86 95 -12 267 -12 C452 -12 492 92 492 220 L492 220 Z " />
<glyph glyph-name="Uacute" unicode="&#xda;" horiz-adv-x="535" d="M459 913 L459 923 L280 923 L215 790 L280 790 L459 913 Z M492 220 L492 768 L323 768 L323 200 C323 168 305 144 267 144 C230 144 212 166 212 200 L212 768 L43 768 L43 220 C43 86 95 -12 267 -12 C452 -12 492 92 492 220 L492 220 Z " />
<glyph glyph-name="Ucircumflex" unicode="&#xdb;" horiz-adv-x="535" d="M424 790 L351 932 L203 932 L120 790 L172 790 L272 859 L372 790 L424 790 Z M492 220 L492 768 L323 768 L323 200 C323 168 305 144 267 144 C230 144 212 166 212 200 L212 768 L43 768 L43 220 C43 86 95 -12 267 -12 C452 -12 492 92 492 220 L492 220 Z " />
<glyph glyph-name="Udieresis" unicode="&#xdc;" horiz-adv-x="535" d="M419 790 L419 910 L299 910 L299 790 L419 790 Z M235 790 L235 910 L115 910 L115 790 L235 790 Z M492 220 L492 768 L323 768 L323 200 C323 168 305 144 267 144 C230 144 212 166 212 200 L212 768 L43 768 L43 220 C43 86 95 -12 267 -12 C452 -12 492 92 492 220 L492 220 Z " />
<glyph glyph-name="Yacute" unicode="&#xdd;" horiz-adv-x="499" d="M499 768 L353 768 L262 483 L170 768 L0 768 L167 300 L167 0 L337 0 L337 300 L499 768 Z M428 927 L428 938 L256 938 L184 790 L249 790 L428 927 Z " />
<glyph glyph-name="Thorn" unicode="&#xde;" horiz-adv-x="496" d="M477 366 C477 565 388 622 253 622 L211 622 L211 768 L45 768 L45 0 L211 0 L211 128 L276 128 C404 128 477 177 477 366 L477 366 Z M309 374 C309 297 290 264 244 264 L211 264 L211 489 L244 489 C291 489 309 464 309 374 L309 374 Z " />
<glyph glyph-name="germandbls" unicode="&#xdf;" horiz-adv-x="498" d="M476 217 C476 341 416 403 333 411 L333 416 C416 420 450 492 450 580 C450 690 393 780 238 780 C95 780 45 714 45 587 L45 0 L203 0 L203 615 C203 644 216 671 251 671 C292 671 304 649 304 578 C304 492 295 466 247 466 L241 466 L241 342 L245 342 C294 342 319 317 319 236 C319 142 301 118 247 118 L241 118 L241 0 L265 0 C420 0 476 67 476 217 L476 217 Z " />
<glyph glyph-name="agrave" unicode="&#xe0;" horiz-adv-x="513" d="M503 18 L503 99 C498 97 494 96 489 96 C469 96 452 108 452 129 L452 463 C452 539 395 592 235 592 C124 592 33 551 33 448 C33 420 36 409 41 386 L173 389 C168 405 165 418 165 438 C165 473 195 497 233 497 C274 497 296 477 296 423 C296 375 284 360 223 347 L163 334 C64 313 20 257 20 161 C20 75 60 -12 171 -12 C235 -12 274 18 287 44 L296 62 C307 19 317 -12 397 -12 C437 -12 488 7 503 18 L503 18 Z M296 227 C296 114 265 100 228 100 C190 100 178 129 178 179 C178 230 191 250 248 266 C263 270 282 277 296 285 L296 227 Z M335 621 L263 769 L91 769 L91 758 L270 621 L335 621 Z " />
<glyph glyph-name="aacute" unicode="&#xe1;" horiz-adv-x="513" d="M503 18 L503 99 C498 97 494 96 489 96 C469 96 452 108 452 129 L452 463 C452 539 395 592 235 592 C124 592 33 551 33 448 C33 420 36 409 41 386 L173 389 C168 405 165 418 165 438 C165 473 195 497 233 497 C274 497 296 477 296 423 C296 375 284 360 223 347 L163 334 C64 313 20 257 20 161 C20 75 60 -12 171 -12 C235 -12 274 18 287 44 L296 62 C307 19 317 -12 397 -12 C437 -12 488 7 503 18 L503 18 Z M296 227 C296 114 265 100 228 100 C190 100 178 129 178 179 C178 230 191 250 248 266 C263 270 282 277 296 285 L296 227 Z M418 758 L418 769 L246 769 L174 621 L239 621 L418 758 Z " />
<glyph glyph-name="acircumflex" unicode="&#xe2;" horiz-adv-x="513" d="M503 18 L503 99 C498 97 494 96 489 96 C469 96 452 108 452 129 L452 463 C452 539 395 592 235 592 C124 592 33 551 33 448 C33 420 36 409 41 386 L173 389 C168 405 165 418 165 438 C165 473 195 497 233 497 C274 497 296 477 296 423 C296 375 284 360 223 347 L163 334 C64 313 20 257 20 161 C20 75 60 -12 171 -12 C235 -12 274 18 287 44 L296 62 C307 19 317 -12 397 -12 C437 -12 488 7 503 18 L503 18 Z M296 227 C296 114 265 100 228 100 C190 100 178 129 178 179 C178 230 191 250 248 266 C263 270 282 277 296 285 L296 227 Z M396 621 L323 779 L175 779 L92 621 L144 621 L244 698 L344 621 L396 621 Z " />
<glyph glyph-name="atilde" unicode="&#xe3;" horiz-adv-x="513" d="M503 18 L503 99 C498 97 494 96 489 96 C469 96 452 108 452 129 L452 463 C452 539 395 592 235 592 C124 592 33 551 33 448 C33 420 36 409 41 386 L173 389 C168 405 165 418 165 438 C165 473 195 497 233 497 C274 497 296 477 296 423 C296 375 284 360 223 347 L163 334 C64 313 20 257 20 161 C20 75 60 -12 171 -12 C235 -12 274 18 287 44 L296 62 C307 19 317 -12 397 -12 C437 -12 488 7 503 18 L503 18 Z M296 227 C296 114 265 100 228 100 C190 100 178 129 178 179 C178 230 191 250 248 266 C263 270 282 277 296 285 L296 227 Z M401 703 C401 726 396 741 390 753 L341 753 C346 733 343 707 310 707 C291 707 278 715 264 727 C232 752 214 759 175 759 C106 759 90 717 90 671 C90 648 95 634 101 621 L150 621 C145 641 148 667 181 667 C200 667 211 657 224 646 C253 624 272 615 316 615 C385 615 401 657 401 703 L401 703 Z " />
<glyph glyph-name="adieresis" unicode="&#xe4;" horiz-adv-x="513" d="M503 18 L503 99 C498 97 494 96 489 96 C469 96 452 108 452 129 L452 463 C452 539 395 592 235 592 C124 592 33 551 33 448 C33 420 36 409 41 386 L173 389 C168 405 165 418 165 438 C165 473 195 497 233 497 C274 497 296 477 296 423 C296 375 284 360 223 347 L163 334 C64 313 20 257 20 161 C20 75 60 -12 171 -12 C235 -12 274 18 287 44 L296 62 C307 19 317 -12 397 -12 C437 -12 488 7 503 18 L503 18 Z M296 227 C296 114 265 100 228 100 C190 100 178 129 178 179 C178 230 191 250 248 266 C263 270 282 277 296 285 L296 227 Z M391 621 L391 751 L264 751 L264 621 L391 621 Z M214 621 L214 751 L87 751 L87 621 L214 621 Z " />
<glyph glyph-name="aring" unicode="&#xe5;" horiz-adv-x="513" d="M503 18 L503 99 C498 97 494 96 489 96 C469 96 452 108 452 129 L452 463 C452 539 395 592 235 592 C124 592 33 551 33 448 C33 420 36 409 41 386 L173 389 C168 405 165 418 165 438 C165 473 195 497 233 497 C274 497 296 477 296 423 C296 375 284 360 223 347 L163 334 C64 313 20 257 20 161 C20 75 60 -12 171 -12 C235 -12 274 18 287 44 L296 62 C307 19 317 -12 397 -12 C437 -12 488 7 503 18 L503 18 Z M296 227 C296 114 265 100 228 100 C190 100 178 129 178 179 C178 230 191 250 248 266 C263 270 282 277 296 285 L296 227 Z M365 725 C365 791 311 843 243 843 C177 843 123 791 123 725 C123 660 177 606 243 606 C311 606 365 660 365 725 L365 725 Z M302 724 C302 694 274 668 243 668 C214 668 186 694 186 724 C186 754 214 781 243 781 C274 781 302 754 302 724 L302 724 Z " />
<glyph glyph-name="ae" unicode="&#xe6;" horiz-adv-x="718" d="M695 254 C694 289 692 324 688 364 C674 508 616 592 491 592 C437 592 399 578 368 557 C330 582 276 592 235 592 C124 592 33 551 33 448 C33 420 36 409 41 386 L173 389 C169 406 165 418 165 438 C165 473 195 497 233 497 C274 497 296 477 296 423 C296 375 290 362 223 347 L163 334 C64 313 20 257 20 161 C20 75 60 -12 171 -12 C232 -12 280 18 304 38 L327 58 C367 2 444 -10 504 -10 C645 -10 694 67 694 166 C694 183 693 198 691 209 L554 213 L556 190 C560 141 545 113 502 113 C456 113 434 129 435 256 L695 254 Z M541 337 L435 337 C438 429 449 477 491 477 C532 477 535 448 541 337 L541 337 Z M296 227 C296 114 265 100 228 100 C190 100 178 129 178 179 C178 230 191 250 248 266 C263 270 282 277 296 285 L296 227 Z " />
<glyph glyph-name="ccedilla" unicode="&#xe7;" horiz-adv-x="462" d="M443 175 C443 206 440 233 436 252 L299 259 C302 251 303 240 303 226 C303 177 297 112 246 112 C195 112 181 141 181 299 C181 434 193 471 244 471 C280 471 297 440 297 387 C297 372 296 362 294 353 L429 357 C431 370 432 386 432 405 C432 507 393 592 246 592 C114 592 20 515 20 266 C20 47 104 -12 251 -12 C401 -12 443 89 443 175 L443 175 Z M362 -108 C362 -57 322 -20 259 -20 C245 -20 221 -20 221 -20 L203 -88 C240 -71 275 -78 275 -111 C275 -124 273 -142 242 -142 C193 -142 171 -127 150 -110 L118 -164 C139 -183 188 -200 246 -200 C319 -200 362 -164 362 -108 L362 -108 Z " />
<glyph glyph-name="egrave" unicode="&#xe8;" horiz-adv-x="462" d="M439 254 C438 289 436 324 432 364 C418 508 360 592 235 592 C96 592 20 500 20 279 C20 39 110 -12 248 -12 C389 -12 438 67 438 166 C438 183 437 198 435 209 L298 213 L300 190 C304 141 289 111 246 111 C200 111 178 129 179 256 L439 254 Z M285 337 L179 337 C182 429 193 477 235 477 C276 477 279 448 285 337 L285 337 Z M299 621 L227 769 L55 769 L55 758 L234 621 L299 621 Z " />
<glyph glyph-name="eacute" unicode="&#xe9;" horiz-adv-x="462" d="M439 254 C438 289 436 324 432 364 C418 508 360 592 235 592 C96 592 20 500 20 279 C20 39 110 -12 248 -12 C389 -12 438 67 438 166 C438 183 437 198 435 209 L298 213 L300 190 C304 141 289 111 246 111 C200 111 178 129 179 256 L439 254 Z M285 337 L179 337 C182 429 193 477 235 477 C276 477 279 448 285 337 L285 337 Z M413 758 L413 769 L241 769 L169 621 L234 621 L413 758 Z " />
<glyph glyph-name="ecircumflex" unicode="&#xea;" horiz-adv-x="462" d="M439 254 C438 289 436 324 432 364 C418 508 360 592 235 592 C96 592 20 500 20 279 C20 39 110 -12 248 -12 C389 -12 438 67 438 166 C438 183 437 198 435 209 L298 213 L300 190 C304 141 289 111 246 111 C200 111 178 129 179 256 L439 254 Z M285 337 L179 337 C182 429 193 477 235 477 C276 477 279 448 285 337 L285 337 Z M382 606 L309 764 L161 764 L78 606 L130 606 L230 683 L330 606 L382 606 Z " />
<glyph glyph-name="edieresis" unicode="&#xeb;" horiz-adv-x="462" d="M439 254 C438 289 436 324 432 364 C418 508 360 592 235 592 C96 592 20 500 20 279 C20 39 110 -12 248 -12 C389 -12 438 67 438 166 C438 183 437 198 435 209 L298 213 L300 190 C304 141 289 111 246 111 C200 111 178 129 179 256 L439 254 Z M285 337 L179 337 C182 429 193 477 235 477 C276 477 279 448 285 337 L285 337 Z M381 621 L381 751 L254 751 L254 621 L381 621 Z M204 621 L204 751 L77 751 L77 621 L204 621 Z " />
<glyph glyph-name="igrave" unicode="&#xec;" horiz-adv-x="234" d="M196 0 L196 574 L38 574 L38 0 L196 0 Z M175 606 L103 754 L-69 754 L-69 743 L110 606 L175 606 Z " />
<glyph glyph-name="iacute" unicode="&#xed;" horiz-adv-x="234" d="M196 0 L196 574 L38 574 L38 0 L196 0 Z M305 743 L305 754 L133 754 L61 606 L126 606 L305 743 Z " />
<glyph glyph-name="icircumflex" unicode="&#xee;" horiz-adv-x="234" d="M196 0 L196 574 L38 574 L38 0 L196 0 Z M269 606 L196 764 L48 764 L-35 606 L17 606 L117 683 L217 606 L269 606 Z " />
<glyph glyph-name="idieresis" unicode="&#xef;" horiz-adv-x="234" d="M196 0 L196 574 L38 574 L38 0 L196 0 Z M270 606 L270 736 L143 736 L143 606 L270 606 Z M93 606 L93 736 L-34 736 L-34 606 L93 606 Z " />
<glyph glyph-name="eth" unicode="&#xf0;" horiz-adv-x="468" d="M454 706 C454 732 440 758 424 769 L378 753 C382 747 385 741 385 733 C385 723 380 714 363 708 C322 772 269 800 210 800 C173 800 115 785 91 765 L135 698 C150 713 171 723 195 723 C207 723 219 716 229 703 C175 686 159 661 159 634 C159 604 174 582 188 571 L235 588 C231 593 227 600 227 607 C227 619 235 629 261 636 C269 607 275 572 278 533 C266 546 249 561 222 561 C90 561 20 468 20 278 C20 76 77 -9 237 -9 C404 -9 443 90 443 311 C443 456 425 564 396 641 C439 657 454 682 454 706 L454 706 Z M280 282 C280 136 267 120 231 120 C197 120 183 135 183 282 C183 428 189 453 231 453 C272 453 280 423 280 282 L280 282 Z " />
<glyph glyph-name="ntilde" unicode="&#xf1;" horiz-adv-x="487" d="M452 0 L452 450 C452 543 391 585 326 585 C259 585 213 546 195 481 L195 574 L38 574 L38 0 L196 0 L196 327 C196 401 220 448 257 448 C284 448 294 432 294 406 L294 0 L452 0 Z M402 703 C402 726 397 741 391 753 L342 753 C347 733 344 707 311 707 C292 707 279 715 265 727 C233 752 215 759 176 759 C107 759 91 717 91 671 C91 648 96 634 102 621 L151 621 C146 641 149 667 182 667 C201 667 212 657 225 646 C254 624 273 615 317 615 C386 615 402 657 402 703 L402 703 Z " />
<glyph glyph-name="ograve" unicode="&#xf2;" horiz-adv-x="463" d="M443 291 C443 489 395 592 229 592 C90 592 20 493 20 278 C20 76 77 -9 237 -9 C404 -9 443 96 443 291 L443 291 Z M280 282 C280 136 267 120 231 120 C197 120 183 135 183 282 C183 436 189 473 231 473 C272 473 280 437 280 282 L280 282 Z M314 621 L242 769 L70 769 L70 758 L249 621 L314 621 Z " />
<glyph glyph-name="oacute" unicode="&#xf3;" horiz-adv-x="463" d="M443 291 C443 489 395 592 229 592 C90 592 20 493 20 278 C20 76 77 -9 237 -9 C404 -9 443 96 443 291 L443 291 Z M280 282 C280 136 267 120 231 120 C197 120 183 135 183 282 C183 436 189 473 231 473 C272 473 280 437 280 282 L280 282 Z M397 758 L397 769 L225 769 L153 621 L218 621 L397 758 Z " />
<glyph glyph-name="ocircumflex" unicode="&#xf4;" horiz-adv-x="463" d="M443 291 C443 489 395 592 229 592 C90 592 20 493 20 278 C20 76 77 -9 237 -9 C404 -9 443 96 443 291 L443 291 Z M280 282 C280 136 267 120 231 120 C197 120 183 135 183 282 C183 436 189 473 231 473 C272 473 280 437 280 282 L280 282 Z M382 621 L309 779 L161 779 L78 621 L130 621 L230 698 L330 621 L382 621 Z " />
<glyph glyph-name="otilde" unicode="&#xf5;" horiz-adv-x="463" d="M443 291 C443 489 395 592 229 592 C90 592 20 493 20 278 C20 76 77 -9 237 -9 C404 -9 443 96 443 291 L443 291 Z M280 282 C280 136 267 120 231 120 C197 120 183 135 183 282 C183 436 189 473 231 473 C272 473 280 437 280 282 L280 282 Z M386 703 C386 726 381 741 375 753 L326 753 C331 733 328 707 295 707 C276 707 263 715 249 727 C217 752 199 759 160 759 C91 759 75 717 75 671 C75 648 80 634 86 621 L135 621 C130 641 133 667 166 667 C185 667 196 657 209 646 C238 624 257 615 301 615 C370 615 386 657 386 703 L386 703 Z " />
<glyph glyph-name="odieresis" unicode="&#xf6;" horiz-adv-x="463" d="M443 291 C443 489 395 592 229 592 C90 592 20 493 20 278 C20 76 77 -9 237 -9 C404 -9 443 96 443 291 L443 291 Z M280 282 C280 136 267 120 231 120 C197 120 183 135 183 282 C183 436 189 473 231 473 C272 473 280 437 280 282 L280 282 Z M382 621 L382 751 L255 751 L255 621 L382 621 Z M205 621 L205 751 L78 751 L78 621 L205 621 Z " />
<glyph glyph-name="divide" unicode="&#xf7;" horiz-adv-x="654" d="M629 314 C629 483 492 620 323 620 C154 620 17 483 17 314 C17 145 154 8 323 8 C492 8 629 145 629 314 L629 314 Z M520 224 L370 215 L295 74 L221 204 L81 223 L190 338 L199 540 L341 413 L477 509 L461 286 L520 224 Z " />
<glyph glyph-name="oslash" unicode="&#xf8;" horiz-adv-x="463" d="M454 592 L404 592 L376 548 C343 577 297 592 234 592 C95 592 25 493 25 278 C25 183 38 114 67 67 L19 -7 L69 -7 L96 34 C130 5 178 -9 242 -9 C409 -9 448 96 448 291 C448 389 436 464 404 514 L454 592 Z M281 401 L188 256 C188 264 188 273 188 282 C188 436 194 473 236 473 C264 473 277 457 281 401 L281 401 Z M285 282 C285 136 272 120 236 120 C212 120 197 128 191 184 L285 328 C285 314 285 299 285 282 L285 282 Z " />
<glyph glyph-name="ugrave" unicode="&#xf9;" horiz-adv-x="487" d="M449 0 L449 574 L291 574 L291 247 C291 166 267 126 230 126 C203 126 193 142 193 168 L193 574 L35 574 L35 124 C35 31 96 -11 161 -11 C228 -11 274 28 292 93 L292 0 L449 0 Z M325 606 L253 754 L81 754 L81 743 L260 606 L325 606 Z " />
<glyph glyph-name="uacute" unicode="&#xfa;" horiz-adv-x="487" d="M449 0 L449 574 L291 574 L291 247 C291 166 267 126 230 126 C203 126 193 142 193 168 L193 574 L35 574 L35 124 C35 31 96 -11 161 -11 C228 -11 274 28 292 93 L292 0 L449 0 Z M413 743 L413 754 L241 754 L169 606 L234 606 L413 743 Z " />
<glyph glyph-name="ucircumflex" unicode="&#xfb;" horiz-adv-x="487" d="M449 0 L449 574 L291 574 L291 247 C291 166 267 126 230 126 C203 126 193 142 193 168 L193 574 L35 574 L35 124 C35 31 96 -11 161 -11 C228 -11 274 28 292 93 L292 0 L449 0 Z M394 606 L321 764 L173 764 L90 606 L142 606 L242 683 L342 606 L394 606 Z " />
<glyph glyph-name="udieresis" unicode="&#xfc;" horiz-adv-x="487" d="M449 0 L449 574 L291 574 L291 247 C291 166 267 126 230 126 C203 126 193 142 193 168 L193 574 L35 574 L35 124 C35 31 96 -11 161 -11 C228 -11 274 28 292 93 L292 0 L449 0 Z M394 606 L394 736 L267 736 L267 606 L394 606 Z M217 606 L217 736 L90 736 L90 606 L217 606 Z " />
<glyph glyph-name="yacute" unicode="&#xfd;" horiz-adv-x="472" d="M472 574 L321 574 L256 237 L176 574 L0 574 L175 44 C182 23 188 1 188 -15 C188 -60 177 -90 142 -90 C114 -90 103 -77 103 -57 C103 -44 105 -30 107 -18 L8 -18 C6 -33 4 -44 4 -58 C4 -131 32 -180 143 -180 C274 -180 296 -99 321 -5 L472 574 Z M400 743 L400 754 L228 754 L156 606 L221 606 L400 743 Z " />
<glyph glyph-name="thorn" unicode="&#xfe;" horiz-adv-x="488" d="M468 271 C468 531 391 587 300 587 C258 587 227 559 209 531 L190 502 L190 768 L38 768 L38 -144 L190 -144 L190 83 L214 43 C229 18 264 -10 307 -10 C426 -10 468 76 468 271 L468 271 Z M308 287 C308 177 287 123 255 123 C213 123 196 152 196 288 C196 433 219 461 254 461 C282 461 308 421 308 287 L308 287 Z " />
<glyph glyph-name="ydieresis" unicode="&#xff;" horiz-adv-x="472" d="M428 606 L428 736 L301 736 L301 606 L428 606 Z M193 606 L193 736 L66 736 L66 606 L193 606 Z M472 574 L321 574 L256 237 L176 574 L0 574 L175 44 C182 23 188 1 188 -15 C188 -60 177 -90 142 -90 C114 -90 103 -77 103 -57 C103 -44 105 -30 107 -18 L8 -18 C6 -33 4 -44 4 -58 C4 -131 32 -180 143 -180 C274 -180 296 -99 321 -5 L472 574 Z " />
<glyph glyph-name="dotlessi" unicode="&#x131;" horiz-adv-x="234" d="M196 0 L196 574 L38 574 L38 0 L196 0 Z " />
<glyph glyph-name="Lslash" unicode="&#x141;" horiz-adv-x="412" d="M405 0 L405 147 L215 147 L215 329 L399 486 L323 577 L215 485 L215 768 L45 768 L45 339 L-53 256 L23 165 L45 184 L45 0 L405 0 Z " />
<glyph glyph-name="lslash" unicode="&#x142;" horiz-adv-x="318" d="M346 411 L270 502 L238 476 L238 768 L80 768 L80 349 L-24 266 L52 175 L80 197 L80 0 L238 0 L238 324 L346 411 Z " />
<glyph glyph-name="OE" unicode="&#x152;" horiz-adv-x="675" d="M657 0 L657 153 L464 153 L464 322 L614 322 L614 463 L464 463 L464 623 L637 623 L637 768 L331 768 C303 777 276 780 247 780 C70 780 22 652 22 385 C22 71 85 -12 247 -12 C275 -12 305 -9 332 0 L657 0 Z M298 273 C298 152 282 128 247 128 C200 128 196 161 196 383 C196 590 196 649 247 649 C282 649 298 614 298 493 L298 273 Z " />
<glyph glyph-name="oe" unicode="&#x153;" horiz-adv-x="724" d="M701 254 C700 289 698 324 694 364 C680 508 622 592 497 592 C431 592 395 573 369 551 C343 572 305 592 231 592 C92 592 22 493 22 278 C22 76 79 -9 239 -9 C291 -9 327 -1 366 25 C413 -6 461 -10 510 -10 C651 -10 700 67 700 166 C700 183 699 198 697 209 L560 213 L562 190 C566 141 551 113 508 113 C462 113 440 129 441 256 L701 254 Z M547 337 L441 337 C444 429 455 477 497 477 C538 477 541 448 547 337 L547 337 Z M282 282 C282 136 269 120 233 120 C199 120 185 135 185 282 C185 436 191 473 233 473 C274 473 282 437 282 282 L282 282 Z " />
<glyph glyph-name="Scaron" unicode="&#x160;" horiz-adv-x="509" d="M491 233 C491 334 447 398 365 438 L300 470 C251 494 199 524 199 576 C199 624 223 644 255 644 C291 644 312 626 312 575 C312 552 306 534 301 523 L446 527 C451 544 455 568 455 595 C455 705 401 780 264 780 C106 780 25 689 25 564 C25 478 73 410 137 372 L228 318 C284 285 316 258 316 205 C316 148 285 127 241 127 C195 127 168 158 168 206 C168 230 171 261 178 279 L31 274 C22 249 18 214 18 183 C18 65 84 -12 248 -12 C430 -12 491 90 491 233 L491 233 Z M402 958 L350 958 L250 881 L150 958 L98 958 L181 800 L329 800 L402 958 Z " />
<glyph glyph-name="scaron" unicode="&#x161;" horiz-adv-x="448" d="M437 173 C437 273 387 312 322 340 L245 373 C206 390 182 405 182 438 C182 468 198 489 232 489 C265 489 286 472 286 440 C286 421 285 412 281 400 L400 398 C406 414 409 429 409 450 C409 548 327 592 222 592 C113 592 20 532 20 423 C20 317 94 274 144 251 L206 222 C249 202 265 185 265 155 C265 133 255 95 207 95 C165 95 147 119 147 161 C147 173 148 184 151 198 L30 206 C23 185 18 160 18 135 C18 41 77 -10 218 -10 C380 -10 437 52 437 173 L437 173 Z M374 779 L322 779 L222 702 L122 779 L70 779 L153 621 L301 621 L374 779 Z " />
<glyph glyph-name="Ydieresis" unicode="&#x178;" horiz-adv-x="499" d="M419 790 L419 910 L299 910 L299 790 L419 790 Z M215 790 L215 910 L95 910 L95 790 L215 790 Z M499 768 L353 768 L262 483 L170 768 L0 768 L167 300 L167 0 L337 0 L337 300 L499 768 Z " />
<glyph glyph-name="Zcaron" unicode="&#x17d;" horiz-adv-x="452" d="M427 0 L427 147 L192 147 L427 590 L427 768 L59 768 L59 624 L267 624 L27 178 L27 0 L427 0 Z M381 958 L329 958 L229 881 L129 958 L77 958 L160 800 L308 800 L381 958 Z " />
<glyph glyph-name="zcaron" unicode="&#x17e;" horiz-adv-x="430" d="M402 0 L402 120 L175 120 L402 437 L402 574 L39 574 L39 454 L230 454 L26 160 L26 0 L402 0 Z M376 764 L324 764 L224 687 L124 764 L72 764 L155 606 L303 606 L376 764 Z " />
<glyph glyph-name="florin" unicode="&#x192;" horiz-adv-x="386" d="M387 670 C387 739 353 780 247 780 C144 780 81 723 81 632 C81 609 81 484 81 457 L5 457 L5 349 L81 349 C81 349 81 131 81 6 C81 -12 84 -25 86 -36 C88 -45 89 -53 89 -59 C89 -79 82 -94 59 -94 C39 -94 28 -84 28 -53 C28 -42 32 -29 34 -19 L-52 -17 C-57 -29 -63 -53 -63 -68 C-63 -153 3 -179 87 -179 C187 -179 239 -134 239 -26 L239 349 L337 349 L337 457 L234 457 C233 472 232 532 232 583 C232 664 234 691 262 691 C284 691 289 674 289 654 C289 639 288 630 286 618 L378 614 C383 630 387 649 387 670 L387 670 Z " />
<glyph glyph-name="circumflex" unicode="&#x2c6;" horiz-adv-x="474" d="M399 611 L326 769 L178 769 L95 611 L147 611 L247 688 L347 611 L399 611 Z " />
<glyph glyph-name="caron" unicode="&#x2c7;" horiz-adv-x="474" d="M399 769 L347 769 L247 692 L147 769 L95 769 L178 611 L326 611 L399 769 Z " />
<glyph glyph-name="breve" unicode="&#x2d8;" horiz-adv-x="474" d="M396 742 L295 742 C296 713 280 688 234 688 C186 688 173 713 174 742 L72 742 C72 637 122 613 234 613 C346 613 396 639 396 742 L396 742 Z " />
<glyph glyph-name="dotaccent" unicode="&#x2d9;" horiz-adv-x="474" d="M295 621 L295 746 L171 746 L171 621 L295 621 Z " />
<glyph glyph-name="ring" unicode="&#x2da;" horiz-adv-x="474" d="M357 723 C357 789 303 841 235 841 C169 841 115 789 115 723 C115 658 169 604 235 604 C303 604 357 658 357 723 L357 723 Z M294 722 C294 692 266 666 235 666 C206 666 178 692 178 722 C178 752 206 779 235 779 C266 779 294 752 294 722 L294 722 Z " />
<glyph glyph-name="ogonek" unicode="&#x2db;" horiz-adv-x="474" d="M317 -133 C317 -120 316 -106 313 -89 L240 -89 C243 -99 247 -116 247 -129 C247 -145 240 -160 219 -160 C205 -160 199 -146 199 -125 C199 -76 262 -20 283 -7 L294 0 L231 0 L223 -5 C177 -34 124 -75 124 -125 C124 -173 155 -203 216 -203 C274 -203 317 -177 317 -133 L317 -133 Z " />
<glyph glyph-name="tilde" unicode="&#x2dc;" horiz-adv-x="474" d="M400 707 C400 730 395 745 389 757 L340 757 C345 737 342 711 309 711 C290 711 277 719 263 731 C231 756 213 763 174 763 C105 763 89 721 89 675 C89 652 94 638 100 625 L149 625 C144 645 147 671 180 671 C199 671 210 661 223 650 C252 628 271 619 315 619 C384 619 400 661 400 707 L400 707 Z " />
<glyph glyph-name="hungarumlaut" unicode="&#x2dd;" horiz-adv-x="474" d="M446 735 L446 746 L313 746 L243 616 L295 616 L446 735 Z M263 735 L263 746 L142 746 L72 616 L124 616 L263 735 Z " />
<glyph glyph-name="pi" unicode="&#x3c0;" horiz-adv-x="656" d="M636 435 C636 626 518 738 328 738 C137 738 20 626 20 435 C20 252 135 136 328 136 C517 136 636 251 636 435 L636 435 Z M582 435 C582 281 484 182 328 182 C176 182 73 276 73 435 C73 589 165 690 328 690 C482 690 582 595 582 435 L582 435 Z M462 491 C462 577 419 604 354 604 L229 604 L229 258 L327 258 L327 386 L354 386 C412 386 462 409 462 491 L462 491 Z M361 490 C361 449 358 432 338 432 L327 432 L327 549 L337 549 C354 549 361 539 361 490 L361 490 Z " />
<glyph glyph-name="endash" unicode="&#x2013;" horiz-adv-x="500" d="M500 287 L500 384 L-1 384 L-1 287 L500 287 Z " />
<glyph glyph-name="emdash" unicode="&#x2014;" horiz-adv-x="800" d="M800 287 L800 384 L0 384 L0 287 L800 287 Z " />
<glyph glyph-name="quoteleft" unicode="&#x2018;" horiz-adv-x="212" d="M197 745 L185 800 C162 797 145 793 126 785 C57 756 34 702 34 629 L34 461 L174 461 L174 629 L115 629 C112 663 114 692 141 715 C156 728 175 738 197 745 L197 745 Z " />
<glyph glyph-name="quoteright" unicode="&#x2019;" horiz-adv-x="212" d="M178 600 L178 768 L38 768 L38 600 L97 600 C100 566 98 537 71 514 C56 501 37 491 15 484 L27 429 C50 432 67 436 86 444 C155 473 178 527 178 600 L178 600 Z " />
<glyph glyph-name="quotesinglbase" unicode="&#x201a;" horiz-adv-x="212" d="M178 0 L178 168 L38 168 L38 0 L97 0 C100 -34 98 -63 71 -86 C56 -99 37 -109 15 -116 L27 -171 C50 -168 67 -164 86 -156 C155 -127 178 -73 178 0 L178 0 Z " />
<glyph glyph-name="quotedblleft" unicode="&#x201c;" horiz-adv-x="422" d="M409 745 L397 800 C374 797 357 793 338 785 C269 756 246 702 246 629 L246 461 L386 461 L386 629 L327 629 C324 663 326 692 353 715 C368 728 387 738 409 745 L409 745 Z M197 745 L185 800 C162 797 145 793 126 785 C57 756 34 702 34 629 L34 461 L174 461 L174 629 L115 629 C112 663 114 692 141 715 C156 728 175 738 197 745 L197 745 Z " />
<glyph glyph-name="quotedblright" unicode="&#x201d;" horiz-adv-x="422" d="M390 600 L390 768 L250 768 L250 600 L309 600 C312 566 310 537 283 514 C268 501 249 491 227 484 L239 429 C262 432 279 436 298 444 C367 473 390 527 390 600 L390 600 Z M178 600 L178 768 L38 768 L38 600 L97 600 C100 566 98 537 71 514 C56 501 37 491 15 484 L27 429 C50 432 67 436 86 444 C155 473 178 527 178 600 L178 600 Z " />
<glyph glyph-name="quotedblbase" unicode="&#x201e;" horiz-adv-x="422" d="M390 0 L390 168 L250 168 L250 0 L309 0 C312 -34 310 -63 283 -86 C268 -99 249 -109 227 -116 L239 -171 C262 -168 279 -164 298 -156 C367 -127 390 -73 390 0 L390 0 Z M178 0 L178 168 L38 168 L38 0 L97 0 C100 -34 98 -63 71 -86 C56 -99 37 -109 15 -116 L27 -171 C50 -168 67 -164 86 -156 C155 -127 178 -73 178 0 L178 0 Z " />
<glyph glyph-name="dagger" unicode="&#x2020;" horiz-adv-x="446" d="M424 485 L424 614 L305 614 L305 768 L141 768 L141 614 L22 614 L22 485 L141 485 L141 -90 L305 -90 L305 485 L424 485 Z " />
<glyph glyph-name="daggerdbl" unicode="&#x2021;" horiz-adv-x="446" d="M424 83 L424 212 L305 212 L305 485 L424 485 L424 614 L305 614 L305 768 L141 768 L141 614 L22 614 L22 485 L141 485 L141 212 L22 212 L22 83 L141 83 L141 -90 L305 -90 L305 83 L424 83 Z " />
<glyph glyph-name="bullet" unicode="&#x2022;" horiz-adv-x="502" d="M476 334 C476 456 375 555 251 555 C126 555 25 456 25 334 C25 212 126 113 251 113 C375 113 476 212 476 334 L476 334 Z " />
<glyph glyph-name="ellipsis" unicode="&#x2026;" horiz-adv-x="678" d="M642 0 L642 168 L488 168 L488 0 L642 0 Z M416 0 L416 168 L262 168 L262 0 L416 0 Z M190 0 L190 168 L36 168 L36 0 L190 0 Z " />
<glyph glyph-name="perthousand" unicode="&#x2030;" horiz-adv-x="1279" d="M1258 209 C1258 406 1218 475 1076 475 C934 475 896 405 896 207 C896 44 944 -16 1076 -16 C1211 -16 1258 51 1258 209 L1258 209 Z M862 209 C862 406 822 475 680 475 C538 475 500 405 500 207 C500 44 548 -16 680 -16 C815 -16 862 51 862 209 L862 209 Z M645 780 L561 780 L239 -16 L323 -16 L645 780 Z M381 514 C381 712 341 780 199 780 C57 780 19 709 19 512 C19 347 67 289 199 289 C334 289 381 347 381 514 L381 514 Z M1122 231 C1122 110 1120 92 1076 92 C1035 92 1032 109 1032 231 C1032 354 1035 384 1078 384 C1120 384 1122 354 1122 231 L1122 231 Z M726 231 C726 110 724 92 680 92 C639 92 636 109 636 231 C636 354 639 384 682 384 C724 384 726 354 726 231 L726 231 Z M245 536 C245 415 243 397 199 397 C158 397 155 414 155 536 C155 659 158 689 201 689 C243 689 245 659 245 536 L245 536 Z " />
<glyph glyph-name="guilsinglleft" unicode="&#x2039;" horiz-adv-x="302" d="M266 36 L266 171 L126 276 L266 380 L266 515 L36 344 L36 209 L266 36 Z " />
<glyph glyph-name="guilsinglright" unicode="&#x203a;" horiz-adv-x="302" d="M266 209 L266 344 L36 515 L36 380 L176 276 L36 171 L36 36 L266 209 Z " />
<glyph glyph-name="fraction" unicode="&#x2044;" horiz-adv-x="255" d="M449 780 L363 780 L-174 -14 L-88 -14 L449 780 Z " />
<glyph glyph-name="trademark" unicode="&#x2122;" horiz-adv-x="528" d="M468 537 L468 768 L374 768 L358 680 L358 670 L354 670 L354 680 L339 768 L241 768 L241 537 L305 537 L305 683 L333 537 L381 537 L405 683 L405 537 L468 537 Z M213 722 L213 768 L46 768 L46 722 L93 722 L93 537 L165 537 L165 722 L213 722 Z " />
<glyph glyph-name="Omega" unicode="&#x2126;" horiz-adv-x="654" d="M629 314 C629 483 492 620 323 620 C154 620 17 483 17 314 C17 145 154 8 323 8 C492 8 629 145 629 314 L629 314 Z M520 224 L370 215 L295 74 L221 204 L81 223 L190 338 L199 540 L341 413 L477 509 L461 286 L520 224 Z " />
<glyph glyph-name="partialdiff" unicode="&#x2202;" horiz-adv-x="654" d="M629 314 C629 483 492 620 323 620 C154 620 17 483 17 314 C17 145 154 8 323 8 C492 8 629 145 629 314 L629 314 Z M520 224 L370 215 L295 74 L221 204 L81 223 L190 338 L199 540 L341 413 L477 509 L461 286 L520 224 Z " />
<glyph glyph-name="Delta" unicode="&#x2206;" horiz-adv-x="654" d="M629 314 C629 483 492 620 323 620 C154 620 17 483 17 314 C17 145 154 8 323 8 C492 8 629 145 629 314 L629 314 Z M520 224 L370 215 L295 74 L221 204 L81 223 L190 338 L199 540 L341 413 L477 509 L461 286 L520 224 Z " />
<glyph glyph-name="product" unicode="&#x220f;" horiz-adv-x="654" d="M629 314 C629 483 492 620 323 620 C154 620 17 483 17 314 C17 145 154 8 323 8 C492 8 629 145 629 314 L629 314 Z M520 224 L370 215 L295 74 L221 204 L81 223 L190 338 L199 540 L341 413 L477 509 L461 286 L520 224 Z " />
<glyph glyph-name="summation" unicode="&#x2211;" horiz-adv-x="654" d="M629 314 C629 483 492 620 323 620 C154 620 17 483 17 314 C17 145 154 8 323 8 C492 8 629 145 629 314 L629 314 Z M520 224 L370 215 L295 74 L221 204 L81 223 L190 338 L199 540 L341 413 L477 509 L461 286 L520 224 Z " />
<glyph glyph-name="minus" unicode="&#x2212;" horiz-adv-x="654" d="M629 314 C629 483 492 620 323 620 C154 620 17 483 17 314 C17 145 154 8 323 8 C492 8 629 145 629 314 L629 314 Z M520 224 L370 215 L295 74 L221 204 L81 223 L190 338 L199 540 L341 413 L477 509 L461 286 L520 224 Z " />
<glyph glyph-name="radical" unicode="&#x221a;" horiz-adv-x="775" d="M775 931 L633 868 C543 731 481 605 424 467 C369 333 312 156 277 -2 L148 330 L0 264 L237 -144 L337 -100 C370 66 427 238 510 445 C571 597 687 828 775 931 L775 931 Z " />
<glyph glyph-name="infinity" unicode="&#x221e;" horiz-adv-x="794" d="M747 0 L747 574 L589 574 L589 0 L747 0 Z M639 670 C639 730 615 780 499 780 C447 780 413 767 383 745 C348 773 305 780 242 780 C139 780 76 723 76 632 C76 609 76 601 76 574 L0 574 L0 466 L76 466 L76 0 L234 0 L234 466 L333 466 L333 0 L491 0 L491 466 L562 466 L562 574 L486 574 C485 589 484 605 484 623 C484 666 490 691 514 691 C536 691 541 674 541 654 C541 639 540 630 538 618 L630 614 C635 630 639 649 639 670 L639 670 Z M333 574 L229 574 C228 598 226 626 226 653 C226 679 251 691 278 691 C301 691 316 681 333 658 L333 574 Z " />
<glyph glyph-name="integral" unicode="&#x222b;" horiz-adv-x="654" d="M629 314 C629 483 492 620 323 620 C154 620 17 483 17 314 C17 145 154 8 323 8 C492 8 629 145 629 314 L629 314 Z M520 224 L370 215 L295 74 L221 204 L81 223 L190 338 L199 540 L341 413 L477 509 L461 286 L520 224 Z " />
<glyph glyph-name="approxequal" unicode="&#x2248;" horiz-adv-x="654" d="M629 314 C629 483 492 620 323 620 C154 620 17 483 17 314 C17 145 154 8 323 8 C492 8 629 145 629 314 L629 314 Z M520 224 L370 215 L295 74 L221 204 L81 223 L190 338 L199 540 L341 413 L477 509 L461 286 L520 224 Z " />
<glyph glyph-name="notequal" unicode="&#x2260;" horiz-adv-x="618" d="M639 670 C639 735 610 780 499 780 C447 780 416 767 383 745 C348 773 305 780 242 780 C139 780 76 723 76 632 C76 609 76 601 76 574 L0 574 L0 466 L76 466 L76 0 L234 0 L234 466 L333 466 L333 0 L491 0 L491 466 L616 466 L616 574 L486 574 C485 589 484 608 484 622 C484 671 492 691 514 691 C536 691 541 674 541 654 C541 639 540 628 538 618 L630 614 C635 630 639 652 639 670 L639 670 Z M333 574 L229 574 C228 598 226 626 226 653 C226 679 251 691 278 691 C301 691 316 681 333 658 L333 574 Z " />
<glyph glyph-name="lessequal" unicode="&#x2264;" horiz-adv-x="654" d="M629 314 C629 483 492 620 323 620 C154 620 17 483 17 314 C17 145 154 8 323 8 C492 8 629 145 629 314 L629 314 Z M520 224 L370 215 L295 74 L221 204 L81 223 L190 338 L199 540 L341 413 L477 509 L461 286 L520 224 Z " />
<glyph glyph-name="greaterequal" unicode="&#x2265;" horiz-adv-x="654" d="M629 314 C629 483 492 620 323 620 C154 620 17 483 17 314 C17 145 154 8 323 8 C492 8 629 145 629 314 L629 314 Z M520 224 L370 215 L295 74 L221 204 L81 223 L190 338 L199 540 L341 413 L477 509 L461 286 L520 224 Z " />
<glyph glyph-name="lozenge" unicode="&#x25ca;" horiz-adv-x="654" d="M629 314 C629 483 492 620 323 620 C154 620 17 483 17 314 C17 145 154 8 323 8 C492 8 629 145 629 314 L629 314 Z M520 224 L370 215 L295 74 L221 204 L81 223 L190 338 L199 540 L341 413 L477 509 L461 286 L520 224 Z " />
<glyph glyph-name="fi" unicode="&#xfb01;" horiz-adv-x="537" d="M490 0 L490 574 L332 574 L332 0 L490 0 Z M382 670 C382 735 353 780 242 780 C139 780 76 723 76 632 C76 609 76 601 76 574 L0 574 L0 466 L76 466 L76 0 L234 0 L234 466 L305 466 L305 574 L229 574 C228 589 227 605 227 622 C227 667 233 691 257 691 C279 691 284 674 284 654 C284 639 283 630 281 618 L373 614 C378 630 382 649 382 670 L382 670 Z " />
<glyph glyph-name="fl" unicode="&#xfb02;" horiz-adv-x="538" d="M491 0 L491 768 L342 768 C314 778 274 780 242 780 C152 780 76 735 76 632 C76 609 76 601 76 574 L0 574 L0 466 L76 466 L76 0 L234 0 L234 466 L304 466 L304 574 L229 574 C228 598 226 617 226 649 C226 673 241 691 277 691 C297 691 314 684 333 659 L333 0 L491 0 Z " />
</font>
</svg>
