<?xml version="1.0" encoding="UTF-8"?>
<svg xmlns="http://www.w3.org/2000/svg" xmlns:xlink="http://www.w3.org/1999/xlink" version="1.2" >
<font id="BureauGrotesque-ThreeOne">
<font-face  font-family="BureauGrotesque" units-per-em="1000" ascent="750" descent="-250" font-style="normal" font-weight="400" font-stretch="normal" cap-height="750" x-height="500" underline-position="-123" underline-thickness="20" />
<missing-glyph  horiz-adv-x="500" d="" />
<glyph glyph-name="CR" unicode="&#xd;" horiz-adv-x="250" d="" />
<glyph glyph-name="space" unicode="&#x20;" horiz-adv-x="216" d="" />
<glyph glyph-name="exclam" unicode="&#x21;" horiz-adv-x="170" d="M120 484 L120 768 L50 768 L50 484 L69 253 L101 253 L120 484 Z M121 0 L121 135 L49 135 L49 0 L121 0 Z " />
<glyph glyph-name="quotedbl" unicode="&#x22;" horiz-adv-x="240" d="M200 768 L140 768 L147 593 L194 593 L200 768 Z M100 768 L40 768 L47 593 L94 593 L100 768 Z " />
<glyph glyph-name="numbersign" unicode="&#x23;" horiz-adv-x="489" d="M478 551 L377 551 L407 768 L365 768 L335 551 L200 551 L230 768 L188 768 L158 551 L52 551 L42 473 L148 473 L125 304 L25 304 L14 226 L114 226 L83 0 L125 0 L155 226 L291 226 L260 0 L302 0 L332 226 L439 226 L450 304 L343 304 L366 473 L468 473 L478 551 Z M325 473 L301 304 L166 304 L189 473 L325 473 Z " />
<glyph glyph-name="dollar" unicode="&#x24;" horiz-adv-x="411" d="M374 232 C374 334 348 382 205 452 L205 689 C262 677 279 639 279 562 C279 546 277 524 276 519 L340 527 C344 545 348 568 348 587 C348 689 294 735 210 742 L210 779 L168 779 L168 742 C95 728 32 684 32 563 C32 464 84 421 175 374 L175 91 C123 109 108 153 108 225 C108 247 110 278 112 287 L50 278 C48 264 42 233 42 204 C42 86 106 48 169 33 L169 -15 L210 -15 L210 32 C321 37 374 97 374 232 L374 232 Z M175 465 C122 494 98 529 98 584 C98 633 124 676 175 688 L175 465 Z M307 199 C307 143 278 89 205 86 L205 362 C282 321 307 277 307 199 L307 199 Z " />
<glyph glyph-name="percent" unicode="&#x25;" horiz-adv-x="617" d="M263 553 C263 723 224 774 139 774 C55 774 16 723 16 553 C16 403 55 352 139 352 C224 352 263 403 263 553 L263 553 Z M577 760 L527 760 L36 0 L86 0 L577 760 Z M601 192 C601 362 562 413 477 413 C393 413 354 362 354 192 C354 42 393 -9 477 -9 C562 -9 601 42 601 192 L601 192 Z M203 562 C203 428 177 405 139 405 C101 405 76 428 76 562 C76 698 101 721 139 721 C177 721 203 698 203 562 L203 562 Z M541 201 C541 67 515 44 477 44 C439 44 414 67 414 201 C414 337 439 360 477 360 C515 360 541 337 541 201 L541 201 Z " />
<glyph glyph-name="ampersand" unicode="&#x26;" horiz-adv-x="534" d="M523 84 C523 108 519 138 510 173 L450 165 C471 88 465 59 426 56 C411 55 392 73 377 109 C446 247 458 388 460 518 L400 518 C400 402 374 238 338 178 L242 447 C341 537 388 580 388 653 C388 731 344 779 268 779 C191 779 134 717 134 623 C134 567 148 519 164 472 C76 400 17 317 17 197 C17 55 101 -9 188 -9 C241 -9 295 15 326 55 C350 17 379 -12 420 -12 C487 -12 523 16 523 84 L523 84 Z M331 653 C331 614 300 570 221 509 C210 545 198 593 198 627 C198 680 228 724 268 724 C307 724 331 694 331 653 L331 653 Z M296 116 C272 77 238 59 199 59 C134 59 87 104 87 199 C87 303 122 345 186 411 L296 116 Z " />
<glyph glyph-name="quotesingle" unicode="&#x27;" horiz-adv-x="140" d="M100 768 L40 768 L47 593 L94 593 L100 768 Z " />
<glyph glyph-name="parenleft" unicode="&#x28;" horiz-adv-x="272" d="M255 -116 C178 15 134 112 134 325 C134 537 181 638 255 766 L230 790 C135 696 60 560 60 325 C60 92 135 -46 230 -140 L255 -116 Z " />
<glyph glyph-name="parenright" unicode="&#x29;" horiz-adv-x="272" d="M212 325 C212 560 137 696 42 790 L17 766 C91 638 138 537 138 325 C138 112 94 15 17 -116 L42 -140 C137 -46 212 92 212 325 L212 325 Z " />
<glyph glyph-name="asterisk" unicode="&#x2a;" horiz-adv-x="330" d="M274 620 L214 658 L274 693 L247 735 L189 701 L189 768 L141 768 L141 701 L83 735 L56 693 L116 658 L56 620 L83 579 L141 614 L141 547 L189 547 L189 614 L247 579 L274 620 Z " />
<glyph glyph-name="plus" unicode="&#x2b;" horiz-adv-x="426" d="M373 315 L373 373 L244 373 L244 504 L182 504 L182 373 L53 373 L53 315 L182 315 L182 183 L244 183 L244 315 L373 315 Z " />
<glyph glyph-name="comma" unicode="&#x2c;" horiz-adv-x="176" d="M123 -4 C123 46 123 132 123 132 L53 132 L53 0 L80 0 C80 -34 77 -43 62 -68 L84 -102 C108 -78 123 -44 123 -4 L123 -4 Z " />
<glyph glyph-name="hyphen" unicode="&#x2d;" horiz-adv-x="269" d="M246 315 L246 373 L23 373 L23 315 L246 315 Z " />
<glyph glyph-name="period" unicode="&#x2e;" horiz-adv-x="176" d="M123 0 L123 132 L53 132 L53 0 L123 0 Z " />
<glyph glyph-name="slash" unicode="&#x2f;" horiz-adv-x="315" d="M314 768 L268 768 L1 0 L47 0 L314 768 Z " />
<glyph glyph-name="zero" unicode="0" horiz-adv-x="361" d="M335 384 C335 675 309 776 179 776 C49 776 26 676 26 384 C26 90 49 -8 179 -8 C309 -8 335 92 335 384 L335 384 Z M264 384 C264 114 239 43 179 43 C119 43 97 108 97 384 C97 654 119 725 179 725 C239 725 264 654 264 384 L264 384 Z " />
<glyph glyph-name="one" unicode="1" horiz-adv-x="278" d="M215 0 L215 774 L179 774 C149 705 101 675 16 659 L16 617 C61 617 118 628 147 641 C147 630 147 0 147 0 L215 0 Z " />
<glyph glyph-name="two" unicode="2" horiz-adv-x="367" d="M337 563 C337 709 289 776 179 776 C78 776 21 713 21 583 C21 547 27 479 32 453 L97 455 C92 494 87 546 87 577 C87 669 117 715 175 715 C234 715 267 669 267 563 C267 480 226 376 179 285 C148 225 84 116 30 55 L30 0 L334 0 L334 68 L107 68 C228 215 337 402 337 563 L337 563 Z " />
<glyph glyph-name="three" unicode="3" horiz-adv-x="363" d="M352 214 C352 341 315 418 255 419 C314 427 335 477 335 565 C335 717 284 774 175 774 C75 774 23 703 23 605 C23 567 29 548 32 535 L91 531 C89 546 86 582 86 608 C86 676 126 721 177 721 C243 721 269 672 269 575 C269 493 252 447 204 447 L126 447 L126 382 L204 382 C256 382 279 310 279 229 C279 82 255 43 181 43 C116 43 87 86 87 195 C87 227 92 263 95 280 L31 276 C24 246 21 216 21 166 C21 56 73 -10 174 -10 C284 -10 352 39 352 214 L352 214 Z " />
<glyph glyph-name="four" unicode="4" horiz-adv-x="376" d="M368 176 L368 238 L303 238 L303 768 L203 768 L10 264 L10 176 L237 176 L237 0 L303 0 L303 176 L368 176 Z M237 238 L64 238 L237 688 L237 238 Z " />
<glyph glyph-name="five" unicode="5" horiz-adv-x="373" d="M347 301 C347 485 300 557 209 557 C162 557 137 546 111 514 L133 701 L319 701 C322 721 324 747 326 768 L79 768 L38 383 L98 376 C113 456 138 493 185 493 C246 493 277 443 277 302 C277 91 233 53 174 53 C109 53 89 89 89 170 C89 198 92 228 96 250 L31 241 C26 218 22 186 22 155 C22 45 73 -9 172 -9 C278 -9 347 55 347 301 L347 301 Z " />
<glyph glyph-name="six" unicode="6" horiz-adv-x="372" d="M350 250 C350 418 300 485 208 485 C166 485 128 468 96 417 C96 614 127 720 193 720 C252 720 262 695 262 635 C262 607 257 585 254 573 L319 575 C325 597 329 623 329 642 C329 738 284 776 195 776 C97 776 26 715 26 387 C26 85 67 -9 189 -9 C291 -9 350 49 350 250 L350 250 Z M279 241 C279 86 239 50 190 50 C140 50 98 97 98 241 C98 356 141 428 189 428 C241 428 279 389 279 241 L279 241 Z " />
<glyph glyph-name="seven" unicode="7" horiz-adv-x="337" d="M331 719 L331 768 L1 768 C1 751 1 721 1 701 L270 701 C184 540 96 332 96 103 C96 60 100 18 104 0 L180 0 C173 39 167 95 167 152 C167 363 247 554 331 719 L331 719 Z " />
<glyph glyph-name="eight" unicode="8" horiz-adv-x="374" d="M351 213 C351 346 324 403 265 423 C311 444 337 486 337 578 C337 717 279 776 187 776 C95 776 38 710 38 579 C38 486 65 440 108 423 C57 402 23 346 23 213 C23 50 69 -9 187 -9 C305 -9 351 48 351 213 L351 213 Z M268 583 C267 489 229 449 187 449 C147 449 107 484 107 583 C107 682 139 722 187 722 C238 722 269 685 268 583 L268 583 Z M283 222 C283 74 238 46 187 46 C136 46 91 73 91 222 C91 358 136 397 187 397 C238 397 283 353 283 222 L283 222 Z " />
<glyph glyph-name="nine" unicode="9" horiz-adv-x="372" d="M346 380 C346 678 309 776 183 776 C79 776 22 711 22 517 C22 347 71 282 164 282 C205 282 261 303 277 333 C277 103 235 47 182 47 C120 47 105 68 105 131 C105 159 110 181 113 193 L53 192 C48 169 43 148 43 125 C43 33 79 -9 177 -9 C278 -9 346 45 346 380 L346 380 Z M274 526 C274 382 235 339 185 339 C123 339 94 376 94 526 C94 680 134 717 182 717 C237 717 274 650 274 526 L274 526 Z " />
<glyph glyph-name="colon" unicode="&#x3a;" horiz-adv-x="176" d="M123 419 L123 551 L53 551 L53 419 L123 419 Z M123 0 L123 132 L53 132 L53 0 L123 0 Z " />
<glyph glyph-name="semicolon" unicode="&#x3b;" horiz-adv-x="176" d="M123 419 L123 551 L53 551 L53 419 L123 419 Z M123 -4 C123 46 123 132 123 132 L53 132 L53 0 L80 0 C80 -34 77 -43 62 -68 L84 -102 C108 -78 123 -44 123 -4 L123 -4 Z " />
<glyph glyph-name="less" unicode="&#x3c;" horiz-adv-x="286" d="M248 123 L248 206 L87 341 L248 476 L248 559 L23 371 L23 310 L248 123 Z " />
<glyph glyph-name="equal" unicode="&#x3d;" horiz-adv-x="426" d="M368 386 L368 448 L58 448 L58 386 L368 386 Z M368 235 L368 297 L58 297 L58 235 L368 235 Z " />
<glyph glyph-name="greater" unicode="&#x3e;" horiz-adv-x="286" d="M261 310 L261 371 L36 559 L36 476 L197 341 L36 206 L36 123 L261 310 Z " />
<glyph glyph-name="question" unicode="&#x3f;" horiz-adv-x="338" d="M322 536 C322 736 259 779 166 779 C65 779 23 726 23 647 C23 616 27 591 32 577 L95 574 C93 589 88 616 88 636 C88 700 120 719 162 719 C219 719 251 690 251 573 C251 449 237 395 181 395 C129 395 112 423 106 491 L58 491 L58 243 L111 243 L108 374 C127 347 164 330 205 330 C278 330 322 378 322 536 L322 536 Z M127 0 L127 132 L51 132 L51 0 L127 0 Z " />
<glyph glyph-name="at" unicode="&#x40;" horiz-adv-x="764" d="M701 391 C701 577 573 729 387 729 C200 729 63 567 63 381 C63 192 200 33 387 33 C435 33 480 43 521 61 L508 95 C471 78 430 69 387 69 C220 69 99 213 99 381 C99 547 220 693 387 693 C553 693 665 557 665 391 C665 311 630 199 540 199 C508 199 502 209 503 224 C508 326 514 419 519 511 C521 557 499 600 407 600 C319 600 268 568 268 505 C268 476 273 470 279 459 L333 462 C330 477 328 487 328 499 C328 553 356 566 394 566 C438 566 461 557 457 490 C455 453 442 443 357 419 C275 395 241 347 241 292 C241 192 296 170 350 170 C379 170 423 180 442 206 C451 181 468 165 526 165 C666 165 701 298 701 391 L701 391 Z M453 407 C453 407 449 330 447 287 C444 239 423 219 376 219 C324 219 308 235 308 298 C308 356 347 386 453 407 L453 407 Z " />
<glyph glyph-name="A" unicode="A" horiz-adv-x="358" d="M344 0 L217 774 L141 774 L14 0 L80 0 L102 138 L252 138 L275 0 L344 0 Z M242 199 L112 199 L177 622 L242 199 Z " />
<glyph glyph-name="B" unicode="B" horiz-adv-x="405" d="M378 216 C378 331 325 404 260 410 C324 422 357 481 357 565 C357 692 324 768 192 768 C136 768 48 768 48 768 L48 0 C48 0 144 0 203 0 C321 0 378 63 378 216 L378 216 Z M291 565 C291 478 260 439 209 439 C186 439 117 439 117 439 L117 712 C117 712 174 712 192 712 C261 712 291 665 291 565 L291 565 Z M307 225 C307 88 267 58 206 58 C183 58 117 58 117 58 L117 383 C117 383 184 383 208 383 C266 383 307 309 307 225 L307 225 Z " />
<glyph glyph-name="C" unicode="C" horiz-adv-x="361" d="M331 323 L266 323 C290 129 260 47 196 47 C113 47 102 154 102 376 C102 649 140 721 194 721 C267 721 279 648 262 482 L326 484 C343 656 338 779 192 779 C65 779 29 678 29 358 C29 78 61 -12 191 -12 C334 -12 357 128 331 323 L331 323 Z " />
<glyph glyph-name="D" unicode="D" horiz-adv-x="407" d="M378 345 C378 718 304 768 188 768 C135 768 48 768 48 768 L48 0 C48 0 138 0 196 0 C338 0 378 64 378 345 L378 345 Z M305 327 C305 83 264 60 187 60 C172 60 118 60 118 60 L118 708 C118 708 171 708 184 708 C262 708 305 640 305 327 L305 327 Z " />
<glyph glyph-name="E" unicode="E" horiz-adv-x="321" d="M315 0 L315 59 L118 59 L118 362 L276 362 L276 421 L118 421 L118 709 L294 709 L294 768 L48 768 L48 0 L315 0 Z " />
<glyph glyph-name="F" unicode="F" horiz-adv-x="299" d="M292 709 L292 768 L48 768 L48 0 L118 0 L118 356 L265 356 L265 418 L118 418 L118 709 L292 709 Z " />
<glyph glyph-name="G" unicode="G" horiz-adv-x="387" d="M354 -6 L354 390 L187 390 L187 335 L288 335 C288 335 288 207 288 146 C288 79 248 44 203 44 C146 44 101 74 101 362 C101 683 142 723 200 723 C249 723 277 683 277 582 C277 557 276 531 273 499 L337 503 C339 534 341 562 341 588 C341 718 305 779 200 779 C71 779 29 698 29 351 C29 37 75 -12 195 -12 C254 -12 290 15 306 43 L322 -6 L354 -6 Z " />
<glyph glyph-name="H" unicode="H" horiz-adv-x="413" d="M365 0 L365 768 L295 768 L295 429 L118 429 L118 768 L48 768 L48 0 L118 0 L118 367 L295 367 L295 0 L365 0 Z " />
<glyph glyph-name="I" unicode="I" horiz-adv-x="166" d="M118 0 L118 768 L48 768 L48 0 L118 0 Z " />
<glyph glyph-name="J" unicode="J" horiz-adv-x="369" d="M324 155 C324 208 324 768 324 768 L254 768 C254 768 254 285 254 172 C254 70 217 47 169 47 C114 47 83 80 83 149 C83 194 91 242 100 277 L34 276 C25 246 17 200 17 160 C17 34 68 -12 172 -12 C278 -12 324 39 324 155 L324 155 Z " />
<glyph glyph-name="K" unicode="K" horiz-adv-x="394" d="M397 0 L178 413 L382 768 L307 768 L118 433 L118 768 L48 768 L48 0 L118 0 L118 379 L321 0 L397 0 Z " />
<glyph glyph-name="L" unicode="L" horiz-adv-x="306" d="M304 0 L304 62 L118 62 L118 768 L48 768 L48 0 L304 0 Z " />
<glyph glyph-name="M" unicode="M" horiz-adv-x="497" d="M448 0 L448 768 L369 768 L248 184 L127 768 L48 768 L48 0 L111 0 L111 542 L225 0 L271 0 L385 542 L385 0 L448 0 Z " />
<glyph glyph-name="N" unicode="N" horiz-adv-x="396" d="M348 0 L348 768 L285 768 L285 200 L112 768 L48 768 L48 0 L111 0 L111 568 L284 0 L348 0 Z " />
<glyph glyph-name="O" unicode="O" horiz-adv-x="381" d="M352 378 C352 682 325 779 190 779 C55 779 29 682 29 378 C29 74 55 -12 190 -12 C325 -12 352 74 352 378 L352 378 Z M279 380 C279 107 261 44 190 44 C115 44 102 107 102 380 C102 650 115 723 188 723 C261 723 279 650 279 380 L279 380 Z " />
<glyph glyph-name="P" unicode="P" horiz-adv-x="378" d="M361 547 C361 710 307 768 211 768 C143 768 48 768 48 768 L48 0 L118 0 L118 341 C118 341 174 341 200 341 C302 341 361 368 361 547 L361 547 Z M292 543 C292 437 271 399 208 399 C188 399 118 399 118 399 L118 709 C118 709 180 709 195 709 C260 709 292 675 292 543 L292 543 Z " />
<glyph glyph-name="Q" unicode="Q" horiz-adv-x="382" d="M352 378 C352 682 325 779 190 779 C52 779 29 682 29 378 C29 83 57 7 155 -10 C151 -27 146 -47 146 -70 C146 -135 189 -156 241 -156 C305 -156 330 -121 330 -86 C330 -73 328 -60 321 -48 L290 -48 C291 -55 292 -67 292 -73 C292 -98 276 -112 247 -112 C205 -112 194 -95 194 -58 C194 -45 198 -30 203 -12 C322 -7 352 77 352 378 L352 378 Z M279 380 C279 107 261 44 190 44 C115 44 102 107 102 380 C102 650 115 723 188 723 C261 723 279 650 279 380 L279 380 Z " />
<glyph glyph-name="R" unicode="R" horiz-adv-x="404" d="M392 0 C354 42 349 117 348 217 C346 329 334 383 262 394 C335 405 367 454 367 573 C367 700 323 768 206 768 C148 768 48 768 48 768 L48 0 L118 0 L118 371 C118 371 191 371 210 371 C259 371 279 334 279 262 C279 219 279 171 279 141 C279 85 294 26 312 0 L392 0 Z M296 550 C296 457 269 425 215 425 C190 425 118 425 118 425 L118 716 C118 716 187 716 206 716 C265 716 296 683 296 550 L296 550 Z " />
<glyph glyph-name="S" unicode="S" horiz-adv-x="368" d="M352 200 C352 324 310 377 208 443 C133 492 88 514 88 614 C88 692 133 726 173 726 C214 726 258 695 258 615 C258 595 257 558 253 538 L315 546 C320 567 324 603 324 621 C324 717 279 779 173 779 C75 779 18 714 18 585 C18 490 62 438 150 384 C240 328 282 276 282 173 C282 62 226 45 188 45 C135 45 98 63 98 159 C98 196 102 246 107 276 L43 270 C36 243 30 193 30 164 C30 27 91 -12 186 -12 C303 -12 352 63 352 200 L352 200 Z " />
<glyph glyph-name="T" unicode="T" horiz-adv-x="352" d="M344 706 L344 768 L8 768 L8 706 L141 706 L141 0 L211 0 L211 706 L344 706 Z " />
<glyph glyph-name="U" unicode="U" horiz-adv-x="417" d="M371 124 C371 321 371 768 371 768 L301 768 C301 768 301 319 301 124 C301 78 284 48 209 48 C138 48 116 74 116 124 C116 319 116 768 116 768 L46 768 C46 768 46 319 46 124 C46 35 92 -12 209 -12 C326 -12 371 36 371 124 L371 124 Z " />
<glyph glyph-name="V" unicode="V" horiz-adv-x="354" d="M351 768 L285 768 L181 128 L72 768 L3 768 L134 -5 L221 -5 L351 768 Z " />
<glyph glyph-name="W" unicode="W" horiz-adv-x="502" d="M494 768 L431 768 L355 200 L282 768 L220 768 L147 200 L77 768 L8 768 L109 -1 L175 -1 L251 562 L322 -1 L388 -1 L494 768 Z " />
<glyph glyph-name="X" unicode="X" horiz-adv-x="348" d="M341 0 L212 388 L336 768 L273 768 L177 481 L84 768 L15 768 L139 394 L9 0 L72 0 L173 297 L273 0 L341 0 Z " />
<glyph glyph-name="Y" unicode="Y" horiz-adv-x="367" d="M365 768 L298 768 L186 402 L67 768 L-4 768 L148 301 L148 0 L218 0 L218 302 L365 768 Z " />
<glyph glyph-name="Z" unicode="Z" horiz-adv-x="334" d="M321 702 L321 768 L34 768 L34 706 L250 706 L9 64 L9 0 L317 0 L317 63 L79 63 L321 702 Z " />
<glyph glyph-name="bracketleft" unicode="&#x5b;" horiz-adv-x="252" d="M227 -166 L227 -107 L123 -107 L123 709 L227 709 L227 768 L53 768 L53 -166 L227 -166 Z " />
<glyph glyph-name="backslash" unicode="&#x5c;" horiz-adv-x="329" d="M328 0 L46 768 L0 768 L282 0 L328 0 Z " />
<glyph glyph-name="bracketright" unicode="&#x5d;" horiz-adv-x="252" d="M199 -166 L199 768 L26 768 L26 709 L129 709 L129 -107 L26 -107 L26 -166 L199 -166 Z " />
<glyph glyph-name="asciicircum" unicode="&#x5e;" horiz-adv-x="308" d="M265 644 L190 768 L122 768 L47 644 L98 644 L156 730 L214 644 L265 644 Z " />
<glyph glyph-name="underscore" unicode="&#x5f;" horiz-adv-x="384" d="M384 -190 L384 -140 L0 -140 L0 -190 L384 -190 Z " />
<glyph glyph-name="grave" unicode="&#x60;" horiz-adv-x="409" d="M253 662 L211 768 L139 768 L215 662 L253 662 Z " />
<glyph glyph-name="a" unicode="a" horiz-adv-x="324" d="M322 6 L322 43 C316 39 308 36 298 36 C281 36 276 48 276 77 C276 97 276 330 276 453 C276 514 247 556 162 556 C81 556 36 523 36 442 C36 417 42 397 45 386 L100 388 C96 403 92 428 92 445 C92 496 125 516 156 516 C187 516 218 496 218 437 C218 393 215 374 213 359 C194 350 179 342 158 332 C74 292 22 263 22 159 C22 17 74 -8 135 -8 C177 -8 208 10 228 38 C230 15 237 -8 264 -8 C287 -8 309 -1 322 6 L322 6 Z M216 101 C210 70 188 37 152 37 C116 37 84 57 84 147 C84 253 129 283 216 312 L216 101 Z " />
<glyph glyph-name="b" unicode="b" horiz-adv-x="330" d="M304 275 C304 509 263 557 187 557 C132 557 112 533 91 503 C91 515 91 768 91 768 L30 768 L30 0 L53 0 L74 41 C95 9 130 -8 173 -8 C264 -8 304 49 304 275 L304 275 Z M240 276 C240 77 214 39 164 39 C127 39 99 61 94 93 C88 128 89 185 89 275 C89 464 124 511 165 511 C215 511 240 476 240 276 L240 276 Z " />
<glyph glyph-name="c" unicode="c" horiz-adv-x="309" d="M288 152 C288 177 282 212 278 226 L224 228 C225 213 229 174 229 158 C229 59 210 34 168 34 C121 34 91 63 91 270 C91 479 120 513 161 513 C207 513 220 476 220 408 C220 389 218 366 216 353 L275 354 C277 366 280 394 280 411 C280 517 247 557 161 557 C69 557 26 512 26 281 C26 43 58 -9 164 -9 C264 -9 288 38 288 152 L288 152 Z " />
<glyph glyph-name="d" unicode="d" horiz-adv-x="332" d="M302 0 L302 768 L239 768 C239 768 239 524 239 512 C220 544 186 557 150 557 C77 557 26 504 26 269 C26 48 64 -7 147 -7 C207 -7 225 17 243 57 L243 0 L302 0 Z M241 275 C241 89 208 40 165 40 C122 40 90 81 90 276 C90 470 121 510 165 510 C210 510 241 444 241 275 L241 275 Z " />
<glyph glyph-name="e" unicode="e" horiz-adv-x="315" d="M290 126 C290 149 288 183 285 195 L230 197 C231 184 234 165 234 152 C234 56 216 34 169 34 C93 34 89 100 89 264 L285 264 C286 275 289 308 289 337 C289 491 258 557 163 557 C70 557 26 504 26 249 C26 30 68 -9 169 -9 C254 -9 290 36 290 126 L290 126 Z M229 382 C229 354 229 330 226 306 L88 306 C88 454 113 514 161 514 C200 514 229 485 229 382 L229 382 Z " />
<glyph glyph-name="f" unicode="f" horiz-adv-x="209" d="M268 677 C268 743 231 776 164 776 C97 776 56 743 56 662 C56 641 56 551 56 551 L3 551 L3 505 L56 505 L56 0 L118 0 L118 505 L194 505 L194 551 L118 551 C118 551 118 659 118 673 C118 717 147 728 166 728 C197 728 215 707 215 670 C215 658 213 640 211 626 L264 631 C266 646 268 660 268 677 L268 677 Z " />
<glyph glyph-name="g" unicode="g" horiz-adv-x="364" d="M371 593 L314 593 L279 522 C254 546 233 557 185 557 C98 557 38 488 38 367 C38 279 65 229 96 211 C60 197 19 174 19 133 C19 98 47 77 82 69 C34 45 0 -6 0 -54 C0 -154 77 -200 188 -200 C292 -200 364 -151 364 -29 C364 68 307 123 221 123 C212 123 160 123 156 123 C102 123 81 133 81 153 C81 172 104 185 133 196 C147 191 175 189 190 189 C280 189 330 242 330 367 C330 423 322 463 307 487 L371 593 Z M267 370 C267 269 241 236 181 236 C131 236 101 273 101 370 C101 470 140 507 186 507 C230 507 267 478 267 370 L267 370 Z M305 -49 C305 -116 247 -155 187 -155 C109 -155 57 -122 57 -44 C57 1 81 33 131 64 C140 64 183 64 191 64 C256 64 305 26 305 -49 L305 -49 Z " />
<glyph glyph-name="h" unicode="h" horiz-adv-x="321" d="M294 0 C294 0 294 395 294 473 C294 527 258 557 196 557 C146 557 121 542 92 502 C92 506 92 768 92 768 L30 768 L30 0 L92 0 C92 0 92 349 92 410 C92 464 131 508 179 508 C215 508 231 494 231 460 C231 419 231 0 231 0 L294 0 Z " />
<glyph glyph-name="i" unicode="i" horiz-adv-x="122" d="M95 641 L95 724 L27 724 L27 641 L95 641 Z M92 0 L92 551 L30 551 L30 0 L92 0 Z " />
<glyph glyph-name="j" unicode="j" horiz-adv-x="161" d="M129 641 L129 724 L63 724 L63 641 L129 641 Z M127 -71 C127 -32 127 551 127 551 L65 551 C65 551 65 -15 65 -58 C65 -109 50 -131 15 -131 C-29 -131 -39 -110 -39 -83 C-39 -68 -36 -56 -32 -39 L-91 -41 C-94 -55 -98 -72 -98 -86 C-98 -146 -53 -181 12 -181 C83 -181 127 -141 127 -71 L127 -71 Z " />
<glyph glyph-name="k" unicode="k" horiz-adv-x="320" d="M329 0 L177 309 L322 551 L259 551 L92 290 L92 768 L30 768 L30 0 L92 0 L92 191 L131 255 L262 0 L329 0 Z " />
<glyph glyph-name="l" unicode="l" horiz-adv-x="122" d="M92 0 L92 768 L30 768 L30 0 L92 0 Z " />
<glyph glyph-name="m" unicode="m" horiz-adv-x="500" d="M472 0 C472 0 472 420 472 476 C472 530 434 557 376 557 C337 557 302 543 280 509 C267 535 250 557 196 557 C151 557 120 543 93 502 C93 520 93 551 93 551 L30 551 L30 0 L93 0 C93 0 93 253 93 421 C93 464 137 509 172 509 C202 509 221 492 221 464 C221 402 221 0 221 0 L283 0 C283 0 283 419 283 441 C283 486 320 509 348 509 C396 509 409 492 409 445 C409 384 409 0 409 0 L472 0 Z " />
<glyph glyph-name="n" unicode="n" horiz-adv-x="322" d="M294 0 C294 0 294 408 294 469 C294 530 256 557 196 557 C140 557 114 535 91 499 C91 516 91 551 91 551 L30 551 L30 0 L92 0 C92 0 92 367 92 409 C92 457 127 508 178 508 C220 508 231 493 231 450 C231 390 231 0 231 0 L294 0 Z " />
<glyph glyph-name="o" unicode="o" horiz-adv-x="329" d="M303 274 C303 509 259 557 164 557 C69 557 26 509 26 274 C26 39 69 -9 164 -9 C259 -9 303 39 303 274 L303 274 Z M239 275 C239 77 210 36 164 36 C118 36 90 77 90 273 C90 471 118 512 164 512 C210 512 239 471 239 275 L239 275 Z " />
<glyph glyph-name="p" unicode="p" horiz-adv-x="333" d="M304 271 C304 503 261 557 191 557 C142 557 116 538 91 500 C91 511 91 551 91 551 L30 551 L30 -175 L91 -175 L91 43 C103 17 140 -9 177 -9 C264 -9 304 34 304 271 L304 271 Z M240 272 C240 67 213 39 165 39 C124 39 89 89 89 271 C89 478 125 509 168 509 C207 509 240 467 240 272 L240 272 Z " />
<glyph glyph-name="q" unicode="q" horiz-adv-x="332" d="M302 -176 L302 551 L277 551 L260 505 C239 534 210 557 160 557 C74 557 26 499 26 269 C26 51 63 -7 147 -7 C189 -7 229 16 241 46 L241 -176 L302 -176 Z M241 275 C241 93 211 41 165 41 C121 41 90 78 90 276 C90 479 124 513 165 513 C207 513 241 473 241 275 L241 275 Z " />
<glyph glyph-name="r" unicode="r" horiz-adv-x="270" d="M261 442 C261 524 235 557 182 557 C145 557 114 536 91 497 L91 551 L30 551 L30 0 L92 0 C92 0 92 328 92 389 C92 465 131 501 164 501 C192 501 205 485 206 437 C206 411 201 375 193 328 L251 332 C256 362 261 403 261 442 L261 442 Z " />
<glyph glyph-name="s" unicode="s" horiz-adv-x="311" d="M291 151 C291 227 261 258 174 318 C98 370 82 385 82 438 C82 486 120 509 149 509 C199 509 214 475 214 434 C214 416 211 398 207 380 L263 382 C265 392 269 421 269 438 C269 521 222 557 151 557 C78 557 22 513 22 413 C22 340 56 312 113 274 C190 222 227 188 227 129 C227 65 201 41 147 41 C100 41 79 67 79 124 C79 145 84 168 89 194 L32 186 C29 164 25 130 25 111 C25 31 68 -9 148 -9 C242 -9 291 45 291 151 L291 151 Z " />
<glyph glyph-name="t" unicode="t" horiz-adv-x="227" d="M223 13 L223 63 C199 53 179 46 159 46 C118 46 111 56 111 95 C111 137 111 505 111 505 L197 505 L197 551 L111 551 L111 704 L48 704 L48 551 L-4 551 L-4 505 L49 505 C49 505 49 118 49 73 C49 20 77 -9 138 -9 C175 -9 209 3 223 13 L223 13 Z " />
<glyph glyph-name="u" unicode="u" horiz-adv-x="324" d="M294 0 L294 551 L231 551 C231 551 231 165 231 128 C231 78 192 44 154 44 C103 44 92 61 92 93 C92 140 92 551 92 551 L30 551 C30 551 30 139 30 77 C30 21 63 -7 124 -7 C168 -7 212 11 232 41 C232 29 232 0 232 0 L294 0 Z " />
<glyph glyph-name="v" unicode="v" horiz-adv-x="285" d="M277 551 L216 551 L143 118 L66 551 L3 551 L99 0 L181 0 L277 551 Z " />
<glyph glyph-name="w" unicode="w" horiz-adv-x="426" d="M420 551 L361 551 L292 181 L239 551 L183 551 L134 178 L64 551 L3 551 L103 0 L159 0 L211 371 L264 0 L320 0 L420 551 Z " />
<glyph glyph-name="x" unicode="x" horiz-adv-x="312" d="M307 0 L190 302 L286 551 L221 551 L155 384 L90 551 L23 551 L120 306 L4 0 L69 0 L155 222 L240 0 L307 0 Z " />
<glyph glyph-name="y" unicode="y" horiz-adv-x="312" d="M299 551 L232 551 L163 106 L64 551 L-1 551 L134 -20 C123 -95 108 -126 66 -126 C36 -126 16 -104 16 -81 C16 -68 18 -55 19 -45 L-38 -53 C-39 -69 -38 -82 -37 -96 C-33 -159 23 -176 70 -176 C155 -176 180 -109 200 1 C280 440 294 522 299 551 L299 551 Z " />
<glyph glyph-name="z" unicode="z" horiz-adv-x="247" d="M238 500 L238 551 L34 551 L34 501 L171 501 L4 43 L4 0 L237 0 L237 53 L71 53 L238 500 Z " />
<glyph glyph-name="braceleft" unicode="&#x7b;" horiz-adv-x="250" d="M239 711 L239 768 C239 768 205 768 183 768 C125 768 95 744 95 688 C95 652 95 419 95 385 C95 343 79 328 42 328 C40 328 35 328 34 328 L34 276 C35 276 40 276 42 276 C79 276 95 257 95 222 C95 187 95 -64 95 -99 C95 -157 127 -176 182 -176 C204 -176 238 -176 238 -176 L238 -118 C238 -118 199 -118 187 -118 C168 -118 157 -114 157 -92 C157 -52 157 203 157 249 C157 284 141 302 109 302 C141 302 157 318 157 358 C157 405 157 640 157 680 C157 702 168 711 189 711 C200 711 239 711 239 711 L239 711 Z " />
<glyph glyph-name="bar" unicode="&#x7c;" horiz-adv-x="153" d="M103 -190 L103 788 L50 788 L50 -190 L103 -190 Z " />
<glyph glyph-name="braceright" unicode="&#x7d;" horiz-adv-x="250" d="M217 276 L217 328 C216 328 211 328 209 328 C172 328 156 343 156 385 C156 419 156 652 156 688 C156 744 126 768 68 768 C45 768 12 768 12 768 L12 711 C12 711 51 711 63 711 C84 711 94 702 94 680 C94 640 94 405 94 358 C94 318 111 302 142 302 C111 302 94 284 94 249 C94 203 94 -52 94 -92 C94 -114 84 -118 64 -118 C53 -118 13 -118 13 -118 L13 -176 C13 -176 47 -176 69 -176 C123 -176 156 -157 156 -99 C156 -64 156 187 156 222 C156 257 172 276 209 276 C211 276 216 276 217 276 L217 276 Z " />
<glyph glyph-name="asciitilde" unicode="&#x7e;" horiz-adv-x="285" d="M257 724 C257 742 250 764 248 768 L217 768 C228 732 220 722 207 722 C198 722 188 726 179 732 C150 751 141 757 122 769 C112 775 96 779 80 779 C44 779 32 748 32 720 C32 699 42 681 46 676 L66 685 C61 701 68 722 82 722 C86 722 93 721 97 718 C130 697 133 695 157 679 C171 670 188 665 204 665 C241 665 257 695 257 724 L257 724 Z " />
<glyph glyph-name="nbspace" unicode="&#xa0;" horiz-adv-x="108" d="" />
<glyph glyph-name="exclamdown" unicode="&#xa1;" horiz-adv-x="170" d="M120 633 L120 768 L48 768 L48 633 L120 633 Z M119 0 L119 284 L100 515 L68 515 L49 284 L49 0 L119 0 Z " />
<glyph glyph-name="cent" unicode="&#xa2;" horiz-adv-x="315" d="M285 423 C285 444 282 466 279 480 L222 481 C223 457 225 440 225 430 C225 355 188 352 164 352 C124 352 95 361 95 497 C95 634 125 643 164 643 C192 643 219 635 219 575 C219 563 217 543 216 538 L276 539 C278 552 279 567 279 580 C279 646 253 680 185 683 L185 727 L140 727 L140 683 C71 681 29 644 29 504 C29 367 54 319 140 315 L140 268 L185 268 L185 315 C265 325 285 359 285 423 L285 423 Z " />
<glyph glyph-name="sterling" unicode="&#xa3;" horiz-adv-x="447" d="M416 138 C416 178 408 202 399 236 L340 242 C346 213 352 177 352 156 C352 96 334 67 305 67 C283 67 255 84 223 115 C233 156 236 176 236 228 C236 258 230 302 226 324 L355 324 L355 384 L213 384 C196 448 193 504 193 574 C193 665 220 723 257 723 C287 723 322 679 322 577 C322 543 318 510 313 481 L378 488 C385 509 386 538 386 571 C386 690 335 774 257 774 C162 774 126 688 126 555 C126 495 138 442 149 384 L52 384 L52 324 L161 324 C172 276 175 239 175 220 C175 185 175 170 169 146 C147 161 129 169 105 169 C61 169 12 140 12 80 C12 23 55 -12 109 -12 C156 -12 185 27 198 59 C234 11 275 -12 312 -12 C370 -12 416 41 416 138 L416 138 Z M154 92 C147 61 127 44 110 44 C88 44 68 62 68 77 C68 99 79 112 109 112 C125 112 138 107 154 92 L154 92 Z " />
<glyph glyph-name="currency" unicode="&#xa4;" horiz-adv-x="393" d="M334 388 C334 562 272 705 195 705 C118 705 58 562 58 388 C58 214 118 73 195 73 C272 73 334 214 334 388 L334 388 Z M317 356 L248 333 L233 116 L195 238 L95 253 L153 366 L103 520 L162 496 L196 648 L234 486 L317 356 Z " />
<glyph glyph-name="yen" unicode="&#xa5;" horiz-adv-x="367" d="M365 768 L302 768 L186 403 L68 768 L-4 768 L114 409 L13 409 L13 378 L124 378 L139 332 L13 332 L13 301 L148 301 L148 0 L218 0 L218 301 L352 301 L352 332 L227 332 L242 378 L352 378 L352 409 L252 409 L365 768 Z " />
<glyph glyph-name="brokenbar" unicode="&#xa6;" horiz-adv-x="393" d="M334 388 C334 562 272 705 195 705 C118 705 58 562 58 388 C58 214 118 73 195 73 C272 73 334 214 334 388 L334 388 Z M317 356 L248 333 L233 116 L195 238 L95 253 L153 366 L103 520 L162 496 L196 648 L234 486 L317 356 Z " />
<glyph glyph-name="section" unicode="&#xa7;" horiz-adv-x="344" d="M318 97 C318 155 302 189 242 245 C289 278 318 313 318 370 C318 432 283 469 198 527 C135 570 98 608 98 648 C98 701 124 726 162 726 C196 726 227 708 227 649 C227 628 223 597 216 561 L263 560 C270 592 279 630 279 664 C279 748 222 779 172 779 C96 779 38 741 38 638 C38 577 67 542 113 502 C65 458 42 420 42 382 C42 335 76 288 140 231 C217 162 253 131 253 85 C253 15 213 -5 174 -5 C137 -5 105 21 105 79 C105 107 107 142 118 189 L68 183 C57 149 51 114 51 81 C51 5 86 -57 174 -57 C266 -57 318 -5 318 97 L318 97 Z M257 353 C257 322 240 299 205 275 C133 329 106 365 106 397 C106 423 123 446 148 472 C234 409 257 387 257 353 L257 353 Z " />
<glyph glyph-name="dieresis" unicode="&#xa8;" horiz-adv-x="409" d="M341 709 L341 768 L243 768 L243 709 L341 709 Z M166 709 L166 768 L68 768 L68 709 L166 709 Z " />
<glyph glyph-name="copyright" unicode="&#xa9;" horiz-adv-x="555" d="M502 543 C502 667 401 768 278 768 C154 768 53 667 53 543 C53 420 154 320 278 320 C401 320 502 420 502 543 L502 543 Z M477 543 C477 433 388 343 278 343 C167 343 78 433 78 543 C78 654 167 745 278 745 C388 745 477 654 477 543 L477 543 Z M377 478 C377 493 373 512 370 520 L326 521 C326 514 330 490 330 482 C330 427 316 422 282 422 C244 422 222 433 222 544 C222 661 244 674 275 674 C312 674 324 660 324 621 C324 613 322 598 320 593 L368 591 C370 598 371 614 371 625 C371 683 345 708 275 708 C204 708 169 680 169 552 C169 418 197 387 279 387 C357 387 377 414 377 478 L377 478 Z " />
<glyph glyph-name="ordfeminine" unicode="&#xaa;" horiz-adv-x="357" d="M320 384 L320 415 C316 411 306 408 300 408 C287 408 282 418 282 431 C282 527 282 615 282 701 C282 745 260 779 172 779 C90 779 46 749 46 690 C46 666 50 656 59 646 L109 649 C105 662 103 672 103 684 C103 734 127 747 163 747 C203 747 226 738 226 675 C226 640 213 630 135 608 C59 586 32 540 32 489 C32 387 89 373 139 373 C168 373 209 381 224 406 C228 386 242 373 268 373 C290 373 308 377 320 384 L320 384 Z M325 296 L325 338 L32 338 L32 296 L325 296 Z M223 484 C223 438 200 420 160 420 C105 420 90 432 90 494 C90 549 123 576 223 596 C223 596 223 525 223 484 L223 484 Z " />
<glyph glyph-name="guillemotleft" unicode="&#xab;" horiz-adv-x="319" d="M287 175 L287 262 L198 344 L287 424 L287 512 L164 391 L164 297 L287 175 Z M150 175 L150 262 L61 344 L150 424 L150 512 L27 391 L27 297 L150 175 Z " />
<glyph glyph-name="logicalnot" unicode="&#xac;" horiz-adv-x="393" d="M334 388 C334 562 272 705 195 705 C118 705 58 562 58 388 C58 214 118 73 195 73 C272 73 334 214 334 388 L334 388 Z M317 356 L248 333 L233 116 L195 238 L95 253 L153 366 L103 520 L162 496 L196 648 L234 486 L317 356 Z " />
<glyph glyph-name="registered" unicode="&#xae;" horiz-adv-x="555" d="M502 543 C502 667 401 768 278 768 C154 768 53 667 53 543 C53 420 154 320 278 320 C401 320 502 420 502 543 L502 543 Z M477 543 C477 433 388 343 278 343 C167 343 78 433 78 543 C78 654 167 745 278 745 C388 745 477 654 477 543 L477 543 Z M393 614 C393 681 370 709 288 709 C247 709 187 709 187 709 L187 388 L237 388 L237 519 C237 519 287 519 296 519 C325 519 331 501 331 476 C331 469 331 444 331 437 C331 407 334 400 340 388 L389 388 C386 397 384 408 382 424 C379 506 381 539 332 544 C376 548 393 581 393 614 L393 614 Z M337 616 C337 564 319 556 288 556 C283 556 238 556 238 556 L238 676 C238 676 273 676 290 676 C327 676 337 658 337 616 L337 616 Z " />
<glyph glyph-name="macron" unicode="&#xaf;" horiz-adv-x="409" d="M317 709 L317 768 L94 768 L94 709 L317 709 Z " />
<glyph glyph-name="degree" unicode="&#xb0;" horiz-adv-x="188" d="M170 692 C170 733 135 768 94 768 C53 768 18 733 18 692 C18 651 53 617 94 617 C135 617 170 651 170 692 L170 692 Z M136 692 C136 669 117 651 94 651 C71 651 52 669 52 692 C52 715 71 734 94 734 C117 734 136 715 136 692 L136 692 Z " />
<glyph glyph-name="plusminus" unicode="&#xb1;" horiz-adv-x="534" d="M504 0 L504 768 L441 762 C420 767 394 776 358 776 C323 776 293 767 273 745 C248 765 220 776 184 776 C108 776 56 738 56 662 C56 641 56 551 56 551 L3 551 L3 505 L56 505 L56 0 L118 0 L118 505 L249 505 L249 0 L311 0 L311 505 L387 505 L387 551 L311 551 C311 551 311 666 311 680 C311 715 340 728 361 728 C403 728 425 712 442 688 L442 0 L504 0 Z M251 690 C250 681 249 672 249 662 C249 641 249 551 249 551 L118 551 C118 551 118 648 118 662 C118 706 138 728 186 728 C211 728 240 714 251 690 L251 690 Z " />
<glyph glyph-name="twosuperior" unicode="&#xb2;" horiz-adv-x="393" d="M334 388 C334 562 272 705 195 705 C118 705 58 562 58 388 C58 214 118 73 195 73 C272 73 334 214 334 388 L334 388 Z M317 356 L248 333 L233 116 L195 238 L95 253 L153 366 L103 520 L162 496 L196 648 L234 486 L317 356 Z " />
<glyph glyph-name="threesuperior" unicode="&#xb3;" horiz-adv-x="393" d="M334 388 C334 562 272 705 195 705 C118 705 58 562 58 388 C58 214 118 73 195 73 C272 73 334 214 334 388 L334 388 Z M317 356 L248 333 L233 116 L195 238 L95 253 L153 366 L103 520 L162 496 L196 648 L234 486 L317 356 Z " />
<glyph glyph-name="acute" unicode="&#xb4;" horiz-adv-x="409" d="M269 768 L197 768 L156 662 L194 662 L269 768 Z " />
<glyph glyph-name="mu" unicode="&#xb5;" horiz-adv-x="393" d="M334 388 C334 562 272 705 195 705 C118 705 58 562 58 388 C58 214 118 73 195 73 C272 73 334 214 334 388 L334 388 Z M317 356 L248 333 L233 116 L195 238 L95 253 L153 366 L103 520 L162 496 L196 648 L234 486 L317 356 Z " />
<glyph glyph-name="paragraph" unicode="&#xb6;" horiz-adv-x="350" d="M302 0 L302 768 C302 768 211 768 161 768 C69 768 29 707 29 522 C29 363 75 303 156 280 C165 278 188 273 196 272 L196 0 L231 0 L231 730 L267 730 L267 0 L302 0 Z M196 303 C157 337 123 352 123 520 C123 711 155 730 196 730 L196 303 Z " />
<glyph glyph-name="periodcentered" unicode="&#xb7;" horiz-adv-x="174" d="M121 306 L121 438 L53 438 L53 306 L121 306 Z " />
<glyph glyph-name="cedilla" unicode="&#xb8;" horiz-adv-x="409" d="M288 -86 C288 -37 237 -9 200 -9 C194 -9 190 -9 183 -10 L176 -50 C182 -49 187 -48 193 -48 C221 -48 246 -61 246 -87 C246 -115 227 -122 197 -122 C183 -122 161 -113 144 -97 L128 -134 C152 -155 178 -167 203 -167 C241 -167 288 -143 288 -86 L288 -86 Z " />
<glyph glyph-name="onesuperior" unicode="&#xb9;" horiz-adv-x="393" d="M334 388 C334 562 272 705 195 705 C118 705 58 562 58 388 C58 214 118 73 195 73 C272 73 334 214 334 388 L334 388 Z M317 356 L248 333 L233 116 L195 238 L95 253 L153 366 L103 520 L162 496 L196 648 L234 486 L317 356 Z " />
<glyph glyph-name="ordmasculine" unicode="&#xba;" horiz-adv-x="357" d="M315 571 C315 715 281 779 179 779 C72 779 43 717 43 571 C43 421 81 373 179 373 C286 373 315 421 315 571 L315 571 Z M325 296 L325 338 L32 338 L32 296 L325 296 Z M254 571 C254 427 226 415 179 415 C134 415 104 426 104 571 C104 715 134 734 179 734 C223 734 254 716 254 571 L254 571 Z " />
<glyph glyph-name="guillemotright" unicode="&#xbb;" horiz-adv-x="319" d="M292 297 L292 391 L169 512 L169 424 L258 344 L169 262 L169 175 L292 297 Z M155 297 L155 391 L32 512 L32 424 L121 344 L32 262 L32 175 L155 297 Z " />
<glyph glyph-name="onequarter" unicode="&#xbc;" horiz-adv-x="393" d="M334 388 C334 562 272 705 195 705 C118 705 58 562 58 388 C58 214 118 73 195 73 C272 73 334 214 334 388 L334 388 Z M317 356 L248 333 L233 116 L195 238 L95 253 L153 366 L103 520 L162 496 L196 648 L234 486 L317 356 Z " />
<glyph glyph-name="onehalf" unicode="&#xbd;" horiz-adv-x="393" d="M334 388 C334 562 272 705 195 705 C118 705 58 562 58 388 C58 214 118 73 195 73 C272 73 334 214 334 388 L334 388 Z M317 356 L248 333 L233 116 L195 238 L95 253 L153 366 L103 520 L162 496 L196 648 L234 486 L317 356 Z " />
<glyph glyph-name="threequarters" unicode="&#xbe;" horiz-adv-x="393" d="M334 388 C334 562 272 705 195 705 C118 705 58 562 58 388 C58 214 118 73 195 73 C272 73 334 214 334 388 L334 388 Z M317 356 L248 333 L233 116 L195 238 L95 253 L153 366 L103 520 L162 496 L196 648 L234 486 L317 356 Z " />
<glyph glyph-name="questiondown" unicode="&#xbf;" horiz-adv-x="338" d="M284 635 L284 767 L208 767 L208 635 L284 635 Z M312 120 C312 151 308 176 303 190 L240 193 C242 178 247 151 247 131 C247 67 215 48 173 48 C116 48 84 77 84 194 C84 318 98 372 154 372 C206 372 223 344 229 276 L277 276 L277 524 L224 524 L227 393 C208 420 171 437 130 437 C57 437 13 389 13 231 C13 31 76 -12 169 -12 C270 -12 312 41 312 120 L312 120 Z " />
<glyph glyph-name="Agrave" unicode="&#xc0;" horiz-adv-x="358" d="M344 0 L217 774 L141 774 L14 0 L80 0 L102 138 L252 138 L275 0 L344 0 Z M242 199 L112 199 L177 622 L242 199 Z M212 800 L170 906 L98 906 L174 800 L212 800 Z " />
<glyph glyph-name="Aacute" unicode="&#xc1;" horiz-adv-x="358" d="M344 0 L217 774 L141 774 L14 0 L80 0 L102 138 L252 138 L275 0 L344 0 Z M242 199 L112 199 L177 622 L242 199 Z M258 906 L186 906 L145 800 L183 800 L258 906 Z " />
<glyph glyph-name="Acircumflex" unicode="&#xc2;" horiz-adv-x="358" d="M344 0 L217 774 L141 774 L14 0 L80 0 L102 138 L252 138 L275 0 L344 0 Z M242 199 L112 199 L177 622 L242 199 Z M279 800 L208 906 L150 906 L78 800 L119 800 L178 850 L238 800 L279 800 Z " />
<glyph glyph-name="Atilde" unicode="&#xc3;" horiz-adv-x="358" d="M344 0 L217 774 L141 774 L14 0 L80 0 L102 138 L252 138 L275 0 L344 0 Z M242 199 L112 199 L177 622 L242 199 Z M276 845 C276 861 269 874 269 874 L240 874 C240 873 240 870 240 867 C240 859 237 849 223 849 C213 849 208 850 198 857 C195 859 190 863 184 867 C167 877 155 880 130 880 C89 880 78 856 78 836 C78 820 85 809 85 809 L114 809 C114 811 113 814 113 816 C113 824 117 832 132 832 C144 832 150 827 158 822 C164 818 169 814 173 812 C183 806 199 800 216 800 C259 800 276 825 276 845 L276 845 Z " />
<glyph glyph-name="Adieresis" unicode="&#xc4;" horiz-adv-x="358" d="M344 0 L217 774 L141 774 L14 0 L80 0 L102 138 L252 138 L275 0 L344 0 Z M242 199 L112 199 L177 622 L242 199 Z M318 800 L318 859 L220 859 L220 800 L318 800 Z M143 800 L143 859 L45 859 L45 800 L143 800 Z " />
<glyph glyph-name="Aring" unicode="&#xc5;" horiz-adv-x="358" d="M344 0 L220 734 C241 748 255 772 255 799 C255 842 221 876 178 876 C135 876 101 842 101 799 C101 772 115 748 136 734 L14 0 L80 0 L103 138 L252 138 L275 0 L344 0 Z M214 799 C214 778 199 763 178 763 C157 763 142 778 142 799 C142 820 157 835 178 835 C199 835 214 820 214 799 L214 799 Z M242 199 L113 199 L179 622 L242 199 Z " />
<glyph glyph-name="AE" unicode="&#xc6;" horiz-adv-x="529" d="M523 0 L523 59 L326 59 L326 362 L484 362 L484 421 L326 421 L326 709 L502 709 L502 768 L236 768 L1 0 L67 0 L109 138 L257 138 L257 0 L523 0 Z M257 199 L128 199 L257 640 L257 199 Z " />
<glyph glyph-name="Ccedilla" unicode="&#xc7;" horiz-adv-x="361" d="M331 323 L269 323 C293 129 260 47 196 47 C111 47 102 154 102 376 C102 649 140 721 194 721 C267 721 282 648 265 482 L326 484 C343 656 338 779 192 779 C65 779 29 678 29 358 C29 78 61 -12 191 -12 C334 -12 357 128 331 323 L331 323 Z M276 -91 C276 -42 225 -14 188 -14 C182 -14 178 -14 171 -15 C169 -24 164 -55 164 -55 C197 -48 234 -61 234 -92 C234 -120 215 -127 185 -127 C171 -127 149 -118 132 -102 L116 -139 C140 -160 166 -172 191 -172 C229 -172 276 -148 276 -91 L276 -91 Z " />
<glyph glyph-name="Egrave" unicode="&#xc8;" horiz-adv-x="321" d="M315 0 L315 59 L118 59 L118 362 L276 362 L276 421 L118 421 L118 709 L294 709 L294 768 L48 768 L48 0 L315 0 Z M231 800 L189 906 L117 906 L193 800 L231 800 Z " />
<glyph glyph-name="Eacute" unicode="&#xc9;" horiz-adv-x="321" d="M315 0 L315 59 L118 59 L118 362 L276 362 L276 421 L118 421 L118 709 L294 709 L294 768 L48 768 L48 0 L315 0 Z M256 906 L184 906 L143 800 L181 800 L256 906 Z " />
<glyph glyph-name="Ecircumflex" unicode="&#xca;" horiz-adv-x="321" d="M315 0 L315 59 L118 59 L118 362 L276 362 L276 421 L118 421 L118 709 L294 709 L294 768 L48 768 L48 0 L315 0 Z M274 800 L203 906 L145 906 L73 800 L114 800 L173 850 L233 800 L274 800 Z " />
<glyph glyph-name="Edieresis" unicode="&#xcb;" horiz-adv-x="321" d="M315 0 L315 59 L118 59 L118 362 L276 362 L276 421 L118 421 L118 709 L294 709 L294 768 L48 768 L48 0 L315 0 Z M308 800 L308 859 L210 859 L210 800 L308 800 Z M133 800 L133 859 L35 859 L35 800 L133 800 Z " />
<glyph glyph-name="Igrave" unicode="&#xcc;" horiz-adv-x="166" d="M118 0 L118 768 L48 768 L48 0 L118 0 Z M165 906 L93 906 L52 800 L90 800 L165 906 Z " />
<glyph glyph-name="Iacute" unicode="&#xcd;" horiz-adv-x="166" d="M118 0 L118 768 L48 768 L48 0 L118 0 Z M165 906 L93 906 L52 800 L90 800 L165 906 Z " />
<glyph glyph-name="Icircumflex" unicode="&#xce;" horiz-adv-x="166" d="M118 0 L118 768 L48 768 L48 0 L118 0 Z M185 800 L114 906 L56 906 L-16 800 L25 800 L84 850 L144 800 L185 800 Z " />
<glyph glyph-name="Idieresis" unicode="&#xcf;" horiz-adv-x="166" d="M118 0 L118 768 L48 768 L48 0 L118 0 Z M219 800 L219 859 L121 859 L121 800 L219 800 Z M44 800 L44 859 L-54 859 L-54 800 L44 800 Z " />
<glyph glyph-name="Eth" unicode="&#xd0;" horiz-adv-x="407" d="M378 345 C378 718 303 768 188 768 L48 768 L48 412 L-10 412 L-10 354 L48 354 L48 0 C48 0 138 0 196 0 C338 0 378 64 378 345 L378 345 Z M305 327 C305 83 264 60 187 60 C172 60 117 60 117 60 L117 354 L218 354 L218 412 L117 412 L117 708 C117 708 156 708 179 708 C268 708 305 627 305 327 L305 327 Z " />
<glyph glyph-name="Ntilde" unicode="&#xd1;" horiz-adv-x="396" d="M348 0 L348 768 L285 768 L285 200 L112 768 L48 768 L48 0 L111 0 L111 568 L284 0 L348 0 Z M296 845 C296 861 289 874 289 874 L260 874 C260 873 260 870 260 867 C260 859 257 849 243 849 C233 849 228 850 218 857 C215 859 210 863 204 867 C187 877 175 880 150 880 C109 880 98 856 98 836 C98 820 105 809 105 809 L134 809 C134 811 133 814 133 816 C133 824 137 832 152 832 C164 832 170 827 178 822 C184 818 189 814 193 812 C203 806 219 800 236 800 C279 800 296 825 296 845 L296 845 Z " />
<glyph glyph-name="Ograve" unicode="&#xd2;" horiz-adv-x="381" d="M352 378 C352 682 325 779 190 779 C55 779 29 682 29 378 C29 74 55 -12 190 -12 C325 -12 352 74 352 378 L352 378 Z M279 380 C279 107 261 44 190 44 C115 44 102 107 102 380 C102 650 115 723 188 723 C261 723 279 650 279 380 L279 380 Z M237 800 L195 906 L123 906 L199 800 L237 800 Z " />
<glyph glyph-name="Oacute" unicode="&#xd3;" horiz-adv-x="381" d="M352 378 C352 682 325 779 190 779 C55 779 29 682 29 378 C29 74 55 -12 190 -12 C325 -12 352 74 352 378 L352 378 Z M279 380 C279 107 261 44 190 44 C115 44 102 107 102 380 C102 650 115 723 188 723 C261 723 279 650 279 380 L279 380 Z M239 800 L197 906 L125 906 L201 800 L239 800 Z " />
<glyph glyph-name="Ocircumflex" unicode="&#xd4;" horiz-adv-x="381" d="M352 378 C352 682 325 779 190 779 C55 779 29 682 29 378 C29 74 55 -12 190 -12 C325 -12 352 74 352 378 L352 378 Z M279 380 C279 107 261 44 190 44 C115 44 102 107 102 380 C102 650 115 723 188 723 C261 723 279 650 279 380 L279 380 Z M293 800 L222 906 L164 906 L92 800 L133 800 L192 850 L252 800 L293 800 Z " />
<glyph glyph-name="Otilde" unicode="&#xd5;" horiz-adv-x="381" d="M352 378 C352 682 325 779 190 779 C55 779 29 682 29 378 C29 74 55 -12 190 -12 C325 -12 352 74 352 378 L352 378 Z M279 380 C279 107 261 44 190 44 C115 44 102 107 102 380 C102 650 115 723 188 723 C261 723 279 650 279 380 L279 380 Z M290 845 C290 861 283 874 283 874 L254 874 C254 873 254 870 254 867 C254 859 251 849 237 849 C227 849 222 850 212 857 C209 859 204 863 198 867 C181 877 169 880 144 880 C103 880 92 856 92 836 C92 820 99 809 99 809 L128 809 C128 811 127 814 127 816 C127 824 131 832 146 832 C158 832 164 827 172 822 C178 818 183 814 187 812 C197 806 213 800 230 800 C273 800 290 825 290 845 L290 845 Z " />
<glyph glyph-name="Odieresis" unicode="&#xd6;" horiz-adv-x="381" d="M352 378 C352 682 325 779 190 779 C55 779 29 682 29 378 C29 74 55 -12 190 -12 C325 -12 352 74 352 378 L352 378 Z M279 380 C279 107 261 44 190 44 C115 44 102 107 102 380 C102 650 115 723 188 723 C261 723 279 650 279 380 L279 380 Z M325 800 L325 859 L227 859 L227 800 L325 800 Z M150 800 L150 859 L52 859 L52 800 L150 800 Z " />
<glyph glyph-name="multiply" unicode="&#xd7;" horiz-adv-x="393" d="M334 388 C334 562 272 705 195 705 C118 705 58 562 58 388 C58 214 118 73 195 73 C272 73 334 214 334 388 L334 388 Z M317 356 L248 333 L233 116 L195 238 L95 253 L153 366 L103 520 L162 496 L196 648 L234 486 L317 356 Z " />
<glyph glyph-name="Oslash" unicode="&#xd8;" horiz-adv-x="381" d="M355 789 L295 789 L282 752 C259 771 229 779 190 779 C55 779 29 682 29 378 C29 251 33 156 49 101 L5 -22 L65 -22 L83 28 C107 -1 141 -12 190 -12 C325 -12 352 74 352 378 C352 531 343 628 323 690 L355 789 Z M254 674 L104 232 C103 269 102 332 102 380 C102 650 115 723 188 723 C219 723 240 710 254 674 L254 674 Z M279 380 C279 107 261 44 190 44 C150 44 128 62 116 120 L274 569 C278 522 279 455 279 380 L279 380 Z " />
<glyph glyph-name="Ugrave" unicode="&#xd9;" horiz-adv-x="417" d="M371 124 C371 321 371 768 371 768 L301 768 C301 768 301 319 301 124 C301 78 284 48 209 48 C138 48 116 74 116 124 C116 319 116 768 116 768 L46 768 C46 768 46 319 46 124 C46 35 92 -12 209 -12 C326 -12 371 36 371 124 L371 124 Z M263 800 L221 906 L149 906 L225 800 L263 800 Z " />
<glyph glyph-name="Uacute" unicode="&#xda;" horiz-adv-x="417" d="M371 124 C371 321 371 768 371 768 L301 768 C301 768 301 319 301 124 C301 78 284 48 209 48 C138 48 116 74 116 124 C116 319 116 768 116 768 L46 768 C46 768 46 319 46 124 C46 35 92 -12 209 -12 C326 -12 371 36 371 124 L371 124 Z M273 906 L201 906 L160 800 L198 800 L273 906 Z " />
<glyph glyph-name="Ucircumflex" unicode="&#xdb;" horiz-adv-x="417" d="M371 124 C371 321 371 768 371 768 L301 768 C301 768 301 319 301 124 C301 78 284 48 209 48 C138 48 116 74 116 124 C116 319 116 768 116 768 L46 768 C46 768 46 319 46 124 C46 35 92 -12 209 -12 C326 -12 371 36 371 124 L371 124 Z M309 800 L238 906 L180 906 L108 800 L149 800 L208 850 L268 800 L309 800 Z " />
<glyph glyph-name="Udieresis" unicode="&#xdc;" horiz-adv-x="417" d="M371 124 C371 321 371 768 371 768 L301 768 C301 768 301 319 301 124 C301 78 284 48 209 48 C138 48 116 74 116 124 C116 319 116 768 116 768 L46 768 C46 768 46 319 46 124 C46 35 92 -12 209 -12 C326 -12 371 36 371 124 L371 124 Z M345 800 L345 859 L247 859 L247 800 L345 800 Z M170 800 L170 859 L72 859 L72 800 L170 800 Z " />
<glyph glyph-name="Yacute" unicode="&#xdd;" horiz-adv-x="367" d="M365 768 L298 768 L186 402 L67 768 L-4 768 L148 301 L148 0 L218 0 L218 302 L365 768 Z M259 906 L187 906 L146 800 L184 800 L259 906 Z " />
<glyph glyph-name="Thorn" unicode="&#xde;" horiz-adv-x="378" d="M361 375 C361 538 307 596 211 596 C181 596 148 596 118 596 C118 618 118 768 118 768 L48 768 L48 0 L118 0 L118 169 C118 169 174 169 200 169 C302 169 361 196 361 375 L361 375 Z M292 371 C292 265 271 227 208 227 C188 227 118 227 118 227 L118 537 C118 537 180 537 195 537 C260 537 292 503 292 371 L292 371 Z " />
<glyph glyph-name="germandbls" unicode="&#xdf;" horiz-adv-x="387" d="M358 217 C358 341 312 391 250 411 C295 422 342 449 342 568 C342 708 300 779 196 779 C94 779 48 714 48 592 C48 473 48 210 48 0 L115 0 C115 218 115 478 115 584 C115 703 154 724 192 724 C235 724 273 693 273 576 C273 470 253 439 209 439 L203 439 L203 377 L206 377 C246 377 285 323 285 236 C285 87 249 61 209 61 L182 61 L182 0 L185 0 C285 0 358 39 358 217 L358 217 Z " />
<glyph glyph-name="agrave" unicode="&#xe0;" horiz-adv-x="324" d="M322 6 L322 43 C316 39 308 36 298 36 C281 36 276 48 276 77 C276 97 276 330 276 453 C276 514 247 556 162 556 C81 556 36 523 36 442 C36 417 42 397 45 386 L100 388 C96 403 92 428 92 445 C92 496 125 516 156 516 C187 516 218 496 218 437 C218 393 215 374 213 359 C194 350 179 342 158 332 C74 292 22 263 22 159 C22 17 74 -8 135 -8 C177 -8 208 10 228 38 C230 15 237 -8 264 -8 C287 -8 309 -1 322 6 L322 6 Z M216 101 C210 70 188 37 152 37 C116 37 84 57 84 147 C84 253 129 283 216 312 L216 101 Z M208 587 L166 693 L94 693 L170 587 L208 587 Z " />
<glyph glyph-name="aacute" unicode="&#xe1;" horiz-adv-x="324" d="M322 6 L322 43 C316 39 308 36 298 36 C281 36 276 48 276 77 C276 97 276 330 276 453 C276 514 247 556 162 556 C81 556 36 523 36 442 C36 417 42 397 45 386 L100 388 C96 403 92 428 92 445 C92 496 125 516 156 516 C187 516 218 496 218 437 C218 393 215 374 213 359 C194 350 179 342 158 332 C74 292 22 263 22 159 C22 17 74 -8 135 -8 C177 -8 208 10 228 38 C230 15 237 -8 264 -8 C287 -8 309 -1 322 6 L322 6 Z M216 101 C210 70 188 37 152 37 C116 37 84 57 84 147 C84 253 129 283 216 312 L216 101 Z M240 693 L168 693 L127 587 L165 587 L240 693 Z " />
<glyph glyph-name="acircumflex" unicode="&#xe2;" horiz-adv-x="324" d="M322 6 L322 43 C316 39 308 36 298 36 C281 36 276 48 276 77 C276 97 276 330 276 453 C276 514 247 556 162 556 C81 556 36 523 36 442 C36 417 42 397 45 386 L100 388 C96 403 92 428 92 445 C92 496 125 516 156 516 C187 516 218 496 218 437 C218 393 215 374 213 359 C194 350 179 342 158 332 C74 292 22 263 22 159 C22 17 74 -8 135 -8 C177 -8 208 10 228 38 C230 15 237 -8 264 -8 C287 -8 309 -1 322 6 L322 6 Z M216 101 C210 70 188 37 152 37 C116 37 84 57 84 147 C84 253 129 283 216 312 L216 101 Z M261 587 L190 693 L132 693 L60 587 L101 587 L160 637 L220 587 L261 587 Z " />
<glyph glyph-name="atilde" unicode="&#xe3;" horiz-adv-x="324" d="M322 6 L322 43 C316 39 308 36 298 36 C281 36 276 48 276 77 C276 97 276 330 276 453 C276 514 247 556 162 556 C81 556 36 523 36 442 C36 417 42 397 45 386 L100 388 C96 403 92 428 92 445 C92 496 125 516 156 516 C187 516 218 496 218 437 C218 393 215 374 213 359 C194 350 179 342 158 332 C74 292 22 263 22 159 C22 17 74 -8 135 -8 C177 -8 208 10 228 38 C230 15 237 -8 264 -8 C287 -8 309 -1 322 6 L322 6 Z M216 101 C210 70 188 37 152 37 C116 37 84 57 84 147 C84 253 129 283 216 312 L216 101 Z M265 632 C265 648 258 661 258 661 L229 661 C229 660 229 657 229 654 C229 646 226 636 212 636 C202 636 197 637 187 644 C184 646 179 650 173 654 C156 664 144 667 119 667 C78 667 67 643 67 623 C67 607 74 596 74 596 L103 596 C103 598 102 601 102 603 C102 611 106 619 121 619 C133 619 139 614 147 609 C153 605 158 601 162 599 C172 593 188 587 205 587 C248 587 265 612 265 632 L265 632 Z " />
<glyph glyph-name="adieresis" unicode="&#xe4;" horiz-adv-x="324" d="M322 6 L322 43 C316 39 308 36 298 36 C281 36 276 48 276 77 C276 97 276 330 276 453 C276 514 247 556 162 556 C81 556 36 523 36 442 C36 417 42 397 45 386 L100 388 C96 403 92 428 92 445 C92 496 125 516 156 516 C187 516 218 496 218 437 C218 393 215 374 213 359 C194 350 179 342 158 332 C74 292 22 263 22 159 C22 17 74 -8 135 -8 C177 -8 208 10 228 38 C230 15 237 -8 264 -8 C287 -8 309 -1 322 6 L322 6 Z M216 101 C210 70 188 37 152 37 C116 37 84 57 84 147 C84 253 129 283 216 312 L216 101 Z M297 587 L297 646 L199 646 L199 587 L297 587 Z M122 587 L122 646 L24 646 L24 587 L122 587 Z " />
<glyph glyph-name="aring" unicode="&#xe5;" horiz-adv-x="324" d="M242 664 C242 707 208 741 165 741 C122 741 88 707 88 664 C88 621 122 587 165 587 C208 587 242 621 242 664 L242 664 Z M201 664 C201 643 186 628 165 628 C144 628 129 643 129 664 C129 685 144 700 165 700 C186 700 201 685 201 664 L201 664 Z M322 6 L322 43 C316 39 308 36 298 36 C281 36 276 48 276 77 C276 97 276 330 276 453 C276 514 247 556 162 556 C81 556 36 523 36 442 C36 417 42 397 45 386 L100 388 C96 403 92 428 92 445 C92 496 125 516 156 516 C187 516 218 496 218 437 C218 393 215 374 213 359 C194 350 179 342 158 332 C74 292 22 263 22 159 C22 17 74 -8 135 -8 C177 -8 208 10 228 38 C230 15 237 -8 264 -8 C287 -8 309 -1 322 6 L322 6 Z M216 101 C210 70 188 37 152 37 C116 37 84 57 84 147 C84 253 129 283 216 312 L216 101 Z " />
<glyph glyph-name="ae" unicode="&#xe6;" horiz-adv-x="507" d="M482 126 C482 149 480 183 477 195 L422 197 C423 184 426 165 426 152 C426 56 408 34 361 34 C285 34 281 100 281 264 L477 264 C478 275 481 308 481 337 C481 491 450 557 355 557 C314 557 283 547 261 515 C244 541 213 556 162 556 C81 556 36 523 36 442 C36 417 42 397 45 386 L100 388 C96 403 92 428 92 445 C92 496 125 516 156 516 C187 516 218 496 218 437 C218 393 215 374 213 359 C194 350 179 342 158 332 C74 292 22 263 22 159 C22 17 74 -8 135 -8 C187 -8 215 18 242 56 C265 4 303 -9 361 -9 C446 -9 482 36 482 126 L482 126 Z M421 382 C421 354 421 330 418 306 L280 306 C280 454 305 514 353 514 C392 514 421 485 421 382 L421 382 Z M216 101 C209 69 187 37 152 37 C116 37 84 57 84 147 C84 253 129 283 216 312 L216 101 Z " />
<glyph glyph-name="ccedilla" unicode="&#xe7;" horiz-adv-x="309" d="M289 152 C289 177 283 212 279 226 L226 228 C227 213 231 174 231 158 C231 59 210 34 168 34 C121 34 90 63 90 270 C90 479 120 513 161 513 C207 513 223 476 223 408 C223 389 221 366 219 353 L276 354 C278 366 281 394 281 411 C281 517 247 557 161 557 C69 557 26 512 26 281 C26 43 58 -9 164 -9 C266 -9 289 38 289 152 L289 152 Z M256 -89 C256 -40 205 -12 168 -12 C162 -12 158 -12 151 -13 C149 -22 144 -53 144 -53 C177 -46 214 -59 214 -90 C214 -118 195 -125 165 -125 C151 -125 129 -116 112 -100 L96 -137 C120 -158 146 -170 171 -170 C209 -170 256 -146 256 -89 L256 -89 Z " />
<glyph glyph-name="egrave" unicode="&#xe8;" horiz-adv-x="315" d="M290 126 C290 149 288 183 285 195 L230 197 C231 184 234 165 234 152 C234 56 216 34 169 34 C93 34 89 100 89 264 L285 264 C286 275 289 308 289 337 C289 491 258 557 163 557 C70 557 26 504 26 249 C26 30 68 -9 169 -9 C254 -9 290 36 290 126 L290 126 Z M229 382 C229 354 229 330 226 306 L88 306 C88 454 113 514 161 514 C200 514 229 485 229 382 L229 382 Z M217 587 L175 693 L103 693 L179 587 L217 587 Z " />
<glyph glyph-name="eacute" unicode="&#xe9;" horiz-adv-x="315" d="M290 126 C290 149 288 183 285 195 L230 197 C231 184 234 165 234 152 C234 56 216 34 169 34 C93 34 89 100 89 264 L285 264 C286 275 289 308 289 337 C289 491 258 557 163 557 C70 557 26 504 26 249 C26 30 68 -9 169 -9 C254 -9 290 36 290 126 L290 126 Z M229 382 C229 354 229 330 226 306 L88 306 C88 454 113 514 161 514 C200 514 229 485 229 382 L229 382 Z M243 693 L171 693 L130 587 L168 587 L243 693 Z " />
<glyph glyph-name="ecircumflex" unicode="&#xea;" horiz-adv-x="315" d="M290 126 C290 149 288 183 285 195 L230 197 C231 184 234 165 234 152 C234 56 216 34 169 34 C93 34 89 100 89 264 L285 264 C286 275 289 308 289 337 C289 491 258 557 163 557 C70 557 26 504 26 249 C26 30 68 -9 169 -9 C254 -9 290 36 290 126 L290 126 Z M229 382 C229 354 229 330 226 306 L88 306 C88 454 113 514 161 514 C200 514 229 485 229 382 L229 382 Z M263 587 L192 693 L134 693 L62 587 L103 587 L162 637 L222 587 L263 587 Z " />
<glyph glyph-name="edieresis" unicode="&#xeb;" horiz-adv-x="315" d="M290 126 C290 149 288 183 285 195 L230 197 C231 184 234 165 234 152 C234 56 216 34 169 34 C93 34 89 100 89 264 L285 264 C286 275 289 308 289 337 C289 491 258 557 163 557 C70 557 26 504 26 249 C26 30 68 -9 169 -9 C254 -9 290 36 290 126 L290 126 Z M229 382 C229 354 229 330 226 306 L88 306 C88 454 113 514 161 514 C200 514 229 485 229 382 L229 382 Z M299 587 L299 646 L201 646 L201 587 L299 587 Z M124 587 L124 646 L26 646 L26 587 L124 587 Z " />
<glyph glyph-name="igrave" unicode="&#xec;" horiz-adv-x="122" d="M92 0 L92 551 L30 551 L30 0 L92 0 Z M92 587 L50 693 L-22 693 L54 587 L92 587 Z " />
<glyph glyph-name="iacute" unicode="&#xed;" horiz-adv-x="122" d="M92 0 L92 551 L30 551 L30 0 L92 0 Z M145 693 L73 693 L32 587 L70 587 L145 693 Z " />
<glyph glyph-name="icircumflex" unicode="&#xee;" horiz-adv-x="122" d="M92 0 L92 551 L30 551 L30 0 L92 0 Z M162 587 L91 693 L33 693 L-39 587 L2 587 L61 637 L121 587 L162 587 Z " />
<glyph glyph-name="idieresis" unicode="&#xef;" horiz-adv-x="122" d="M92 0 L92 551 L30 551 L30 0 L92 0 Z M198 587 L198 646 L100 646 L100 587 L198 587 Z M23 587 L23 646 L-75 646 L-75 587 L23 587 Z " />
<glyph glyph-name="eth" unicode="&#xf0;" horiz-adv-x="333" d="M347 713 C347 732 333 749 311 757 L296 750 C310 735 308 717 276 710 C256 777 227 800 181 800 C123 800 96 774 68 745 L109 709 C134 740 147 752 173 752 C199 752 216 735 224 704 C163 697 149 672 149 649 C149 633 161 617 185 607 L203 616 C186 638 186 653 234 657 C240 609 242 578 242 506 C219 540 195 557 151 557 C78 557 27 504 27 269 C27 48 65 -7 148 -7 C251 -7 303 108 303 276 C303 429 303 570 287 660 C333 671 347 693 347 713 L347 713 Z M241 275 C241 89 207 40 166 40 C123 40 91 81 91 276 C91 470 122 510 166 510 C211 510 241 455 241 275 L241 275 Z " />
<glyph glyph-name="ntilde" unicode="&#xf1;" horiz-adv-x="322" d="M294 0 C294 0 294 408 294 469 C294 530 256 557 196 557 C140 557 114 535 91 499 C91 516 91 551 91 551 L30 551 L30 0 L92 0 C92 0 92 367 92 409 C92 457 127 508 178 508 C220 508 231 493 231 450 C231 390 231 0 231 0 L294 0 Z M269 632 C269 648 262 661 262 661 L233 661 C233 660 233 657 233 654 C233 646 230 636 216 636 C206 636 201 637 191 644 C188 646 183 650 177 654 C160 664 148 667 123 667 C82 667 71 643 71 623 C71 607 78 596 78 596 L107 596 C107 598 106 601 106 603 C106 611 110 619 125 619 C137 619 143 614 151 609 C157 605 162 601 166 599 C176 593 192 587 209 587 C252 587 269 612 269 632 L269 632 Z " />
<glyph glyph-name="ograve" unicode="&#xf2;" horiz-adv-x="329" d="M303 274 C303 509 259 557 164 557 C69 557 26 509 26 274 C26 39 69 -9 164 -9 C259 -9 303 39 303 274 L303 274 Z M239 275 C239 77 210 36 164 36 C118 36 90 77 90 273 C90 471 118 512 164 512 C210 512 239 471 239 275 L239 275 Z M216 587 L174 693 L102 693 L178 587 L216 587 Z " />
<glyph glyph-name="oacute" unicode="&#xf3;" horiz-adv-x="329" d="M303 274 C303 509 259 557 164 557 C69 557 26 509 26 274 C26 39 69 -9 164 -9 C259 -9 303 39 303 274 L303 274 Z M239 275 C239 77 210 36 164 36 C118 36 90 77 90 273 C90 471 118 512 164 512 C210 512 239 471 239 275 L239 275 Z M237 693 L165 693 L124 587 L162 587 L237 693 Z " />
<glyph glyph-name="ocircumflex" unicode="&#xf4;" horiz-adv-x="329" d="M303 274 C303 509 259 557 164 557 C69 557 26 509 26 274 C26 39 69 -9 164 -9 C259 -9 303 39 303 274 L303 274 Z M239 275 C239 77 210 36 164 36 C118 36 90 77 90 273 C90 471 118 512 164 512 C210 512 239 471 239 275 L239 275 Z M268 587 L197 693 L139 693 L67 587 L108 587 L167 637 L227 587 L268 587 Z " />
<glyph glyph-name="otilde" unicode="&#xf5;" horiz-adv-x="329" d="M303 274 C303 509 259 557 164 557 C69 557 26 509 26 274 C26 39 69 -9 164 -9 C259 -9 303 39 303 274 L303 274 Z M239 275 C239 77 210 36 164 36 C118 36 90 77 90 273 C90 471 118 512 164 512 C210 512 239 471 239 275 L239 275 Z M271 632 C271 648 264 661 264 661 L235 661 C235 660 235 657 235 654 C235 646 232 636 218 636 C208 636 203 637 193 644 C190 646 185 650 179 654 C162 664 150 667 125 667 C84 667 73 643 73 623 C73 607 80 596 80 596 L109 596 C109 598 108 601 108 603 C108 611 112 619 127 619 C139 619 145 614 153 609 C159 605 164 601 168 599 C178 593 194 587 211 587 C254 587 271 612 271 632 L271 632 Z " />
<glyph glyph-name="odieresis" unicode="&#xf6;" horiz-adv-x="329" d="M303 274 C303 509 259 557 164 557 C69 557 26 509 26 274 C26 39 69 -9 164 -9 C259 -9 303 39 303 274 L303 274 Z M239 275 C239 77 210 36 164 36 C118 36 90 77 90 273 C90 471 118 512 164 512 C210 512 239 471 239 275 L239 275 Z M303 587 L303 646 L205 646 L205 587 L303 587 Z M128 587 L128 646 L30 646 L30 587 L128 587 Z " />
<glyph glyph-name="divide" unicode="&#xf7;" horiz-adv-x="393" d="M334 388 C334 562 272 705 195 705 C118 705 58 562 58 388 C58 214 118 73 195 73 C272 73 334 214 334 388 L334 388 Z M317 356 L248 333 L233 116 L195 238 L95 253 L153 366 L103 520 L162 496 L196 648 L234 486 L317 356 Z " />
<glyph glyph-name="oslash" unicode="&#xf8;" horiz-adv-x="329" d="M346 570 L289 570 L261 516 C238 548 206 557 164 557 C69 557 26 509 26 274 C26 195 31 137 41 95 L-20 -22 L37 -22 L66 34 C88 1 121 -9 164 -9 C259 -9 303 39 303 274 C303 356 298 414 287 456 L346 570 Z M225 447 L92 193 C91 216 90 243 90 273 C90 471 118 512 164 512 C191 512 212 498 225 447 L225 447 Z M239 275 C239 77 210 36 164 36 C136 36 115 51 103 104 L237 360 C238 336 239 308 239 275 L239 275 Z " />
<glyph glyph-name="ugrave" unicode="&#xf9;" horiz-adv-x="324" d="M294 0 L294 551 L231 551 C231 551 231 165 231 128 C231 78 192 44 154 44 C103 44 92 61 92 93 C92 140 92 551 92 551 L30 551 C30 551 30 139 30 77 C30 21 63 -7 124 -7 C168 -7 212 11 232 41 C232 29 232 0 232 0 L294 0 Z M220 587 L178 693 L106 693 L182 587 L220 587 Z " />
<glyph glyph-name="uacute" unicode="&#xfa;" horiz-adv-x="324" d="M294 0 L294 551 L231 551 C231 551 231 165 231 128 C231 78 192 44 154 44 C103 44 92 61 92 93 C92 140 92 551 92 551 L30 551 C30 551 30 139 30 77 C30 21 63 -7 124 -7 C168 -7 212 11 232 41 C232 29 232 0 232 0 L294 0 Z M231 693 L159 693 L118 587 L156 587 L231 693 Z " />
<glyph glyph-name="ucircumflex" unicode="&#xfb;" horiz-adv-x="324" d="M294 0 L294 551 L231 551 C231 551 231 165 231 128 C231 78 192 44 154 44 C103 44 92 61 92 93 C92 140 92 551 92 551 L30 551 C30 551 30 139 30 77 C30 21 63 -7 124 -7 C168 -7 212 11 232 41 C232 29 232 0 232 0 L294 0 Z M266 587 L195 693 L137 693 L65 587 L106 587 L165 637 L225 587 L266 587 Z " />
<glyph glyph-name="udieresis" unicode="&#xfc;" horiz-adv-x="324" d="M294 0 L294 551 L231 551 C231 551 231 165 231 128 C231 78 192 44 154 44 C103 44 92 61 92 93 C92 140 92 551 92 551 L30 551 C30 551 30 139 30 77 C30 21 63 -7 124 -7 C168 -7 212 11 232 41 C232 29 232 0 232 0 L294 0 Z M298 587 L298 646 L200 646 L200 587 L298 587 Z M123 587 L123 646 L25 646 L25 587 L123 587 Z " />
<glyph glyph-name="yacute" unicode="&#xfd;" horiz-adv-x="312" d="M299 551 L232 551 L163 106 L64 551 L-1 551 L134 -20 C123 -95 108 -126 66 -126 C36 -126 16 -104 16 -81 C16 -68 18 -55 19 -45 L-38 -53 C-39 -69 -38 -82 -37 -96 C-33 -159 23 -176 70 -176 C155 -176 180 -109 200 1 C280 440 294 522 299 551 L299 551 Z M233 694 L161 694 L120 588 L158 588 L233 694 Z " />
<glyph glyph-name="thorn" unicode="&#xfe;" horiz-adv-x="333" d="M304 271 C304 503 261 557 191 557 C137 557 119 536 91 506 C91 517 91 768 91 768 L30 768 L30 -175 L91 -175 L91 37 C103 11 140 -9 177 -9 C264 -9 304 34 304 271 L304 271 Z M240 272 C240 67 213 39 165 39 C124 39 89 89 89 271 C89 478 126 509 168 509 C207 509 240 467 240 272 L240 272 Z " />
<glyph glyph-name="ydieresis" unicode="&#xff;" horiz-adv-x="312" d="M299 551 L232 551 L163 106 L64 551 L-1 551 L134 -20 C123 -95 108 -126 66 -126 C36 -126 16 -104 16 -81 C16 -68 18 -55 19 -45 L-38 -53 C-39 -69 -38 -82 -37 -96 C-33 -159 23 -176 70 -176 C155 -176 180 -109 200 1 C280 440 294 522 299 551 L299 551 Z M289 587 L289 646 L191 646 L191 587 L289 587 Z M114 587 L114 646 L16 646 L16 587 L114 587 Z " />
<glyph glyph-name="dotlessi" unicode="&#x131;" horiz-adv-x="122" d="M92 0 L92 551 L30 551 L30 0 L92 0 Z " />
<glyph glyph-name="Lslash" unicode="&#x141;" horiz-adv-x="306" d="M304 0 L304 60 L118 60 L118 345 L222 434 L187 477 L118 418 L118 768 L48 768 L48 359 L-31 292 L4 249 L48 286 L48 0 L304 0 Z " />
<glyph glyph-name="lslash" unicode="&#x142;" horiz-adv-x="198" d="M211 424 L176 467 L127 425 L127 768 L65 768 L65 372 L0 317 L35 274 L65 299 L65 0 L127 0 L127 352 L211 424 Z " />
<glyph glyph-name="OE" unicode="&#x152;" horiz-adv-x="531" d="M525 0 L525 59 L328 59 L328 362 L486 362 L486 421 L328 421 L328 709 L504 709 L504 768 L258 768 C241 777 219 779 190 779 C55 779 29 682 29 378 C29 74 55 -12 190 -12 C220 -12 239 -8 256 0 L525 0 Z M258 88 C243 54 220 44 190 44 C115 44 102 107 102 380 C102 650 115 723 188 723 C222 723 246 711 258 672 L258 88 Z " />
<glyph glyph-name="oe" unicode="&#x153;" horiz-adv-x="511" d="M486 126 C486 149 484 183 481 195 L425 196 C426 183 429 165 429 152 C429 55 415 36 365 36 C295 36 293 80 293 264 L481 264 C482 275 485 308 485 337 C485 491 454 557 359 557 C315 557 293 544 264 512 C241 545 208 557 164 557 C69 557 26 509 26 274 C26 39 69 -9 164 -9 C205 -9 237 0 260 30 C283 -1 317 -9 365 -9 C450 -9 486 36 486 126 L486 126 Z M425 382 C425 354 425 330 422 306 L293 306 C292 317 292 323 292 334 C292 476 318 512 359 512 C404 512 425 485 425 382 L425 382 Z M229 275 C229 70 223 36 164 36 C113 36 90 77 90 273 C90 471 112 512 164 512 C213 512 229 483 229 275 L229 275 Z " />
<glyph glyph-name="Scaron" unicode="&#x160;" horiz-adv-x="368" d="M352 200 C352 324 310 377 208 443 C133 492 88 514 88 614 C88 692 133 726 173 726 C214 726 258 695 258 615 C258 595 257 558 253 538 L315 546 C320 567 324 603 324 621 C324 717 279 779 173 779 C75 779 18 714 18 585 C18 490 62 438 150 384 C240 328 282 276 282 173 C282 62 226 45 188 45 C135 45 98 63 98 159 C98 196 102 246 107 276 L43 270 C36 243 30 193 30 164 C30 27 91 -12 186 -12 C303 -12 352 63 352 200 L352 200 Z M279 906 L238 906 L178 856 L119 906 L78 906 L151 800 L207 800 L279 906 Z " />
<glyph glyph-name="scaron" unicode="&#x161;" horiz-adv-x="311" d="M291 151 C291 227 261 258 174 318 C98 370 82 385 82 438 C82 486 120 509 149 509 C199 509 214 475 214 434 C214 416 211 398 207 380 L263 382 C265 392 269 421 269 438 C269 521 222 557 151 557 C78 557 22 513 22 413 C22 340 56 312 113 274 C190 222 227 188 227 129 C227 65 201 41 147 41 C100 41 79 67 79 124 C79 145 84 168 89 194 L32 186 C29 164 25 130 25 111 C25 31 68 -9 148 -9 C242 -9 291 45 291 151 L291 151 Z M253 694 L212 694 L152 644 L93 694 L52 694 L125 588 L181 588 L253 694 Z " />
<glyph glyph-name="Ydieresis" unicode="&#x178;" horiz-adv-x="367" d="M365 768 L298 768 L186 402 L67 768 L-4 768 L148 301 L148 0 L218 0 L218 302 L365 768 Z M322 800 L322 859 L224 859 L224 800 L322 800 Z M147 800 L147 859 L49 859 L49 800 L147 800 Z " />
<glyph glyph-name="Zcaron" unicode="&#x17d;" horiz-adv-x="334" d="M321 702 L321 768 L34 768 L34 706 L250 706 L9 64 L9 0 L317 0 L317 63 L79 63 L321 702 Z M279 906 L238 906 L178 856 L119 906 L78 906 L151 800 L207 800 L279 906 Z " />
<glyph glyph-name="zcaron" unicode="&#x17e;" horiz-adv-x="247" d="M238 500 L238 551 L34 551 L34 501 L171 501 L4 43 L4 0 L237 0 L237 53 L71 53 L238 500 Z M242 693 L201 693 L141 643 L82 693 L41 693 L114 587 L170 587 L242 693 Z " />
<glyph glyph-name="florin" unicode="&#x192;" horiz-adv-x="334" d="M311 666 C311 739 277 776 220 776 C168 776 133 744 133 676 C133 629 133 551 133 551 L82 551 L82 505 L133 505 C133 505 133 223 133 66 C133 38 127 27 107 27 C79 27 72 46 72 83 C72 96 73 110 76 134 L27 133 C24 112 22 95 22 75 C22 4 60 -26 113 -26 C165 -26 194 7 194 74 C194 219 194 505 194 505 L253 505 L253 551 L194 551 C194 551 194 634 194 683 C194 707 206 722 221 722 C243 722 261 709 261 658 C261 645 258 622 256 598 L305 599 C308 621 311 641 311 666 L311 666 Z " />
<glyph glyph-name="circumflex" unicode="&#x2c6;" horiz-adv-x="409" d="M305 662 L234 768 L176 768 L104 662 L145 662 L204 712 L264 662 L305 662 Z " />
<glyph glyph-name="caron" unicode="&#x2c7;" horiz-adv-x="409" d="M305 768 L264 768 L204 718 L145 768 L104 768 L177 662 L233 662 L305 768 Z " />
<glyph glyph-name="breve" unicode="&#x2d8;" horiz-adv-x="409" d="M320 768 L255 768 C255 744 251 723 205 723 C159 723 155 744 155 768 L90 768 C90 732 129 677 205 677 C294 677 320 731 320 768 L320 768 Z " />
<glyph glyph-name="dotaccent" unicode="&#x2d9;" horiz-adv-x="409" d="M256 702 L256 768 L150 768 L150 702 L256 702 Z " />
<glyph glyph-name="ring" unicode="&#x2da;" horiz-adv-x="409" d="M281 691 C281 734 247 768 204 768 C161 768 127 734 127 691 C127 648 161 614 204 614 C247 614 281 648 281 691 L281 691 Z M240 691 C240 670 225 655 204 655 C183 655 168 670 168 691 C168 712 183 727 204 727 C225 727 240 712 240 691 L240 691 Z " />
<glyph glyph-name="ogonek" unicode="&#x2db;" horiz-adv-x="409" d="M253 0 L198 0 C157 -16 124 -63 124 -93 C124 -137 146 -159 204 -159 C259 -159 287 -106 251 -78 L213 -90 C234 -107 216 -122 199 -122 C180 -122 170 -114 170 -96 C170 -55 203 -32 253 0 L253 0 Z " />
<glyph glyph-name="tilde" unicode="&#x2dc;" horiz-adv-x="409" d="M306 733 C306 749 299 762 299 762 L270 762 C270 761 270 758 270 755 C270 747 267 737 253 737 C243 737 238 738 228 745 C225 747 220 751 214 755 C197 765 185 768 160 768 C119 768 108 744 108 724 C108 708 115 697 115 697 L144 697 C144 699 143 702 143 704 C143 712 147 720 162 720 C174 720 180 715 188 710 C194 706 199 702 203 700 C213 694 229 688 246 688 C289 688 306 713 306 733 L306 733 Z " />
<glyph glyph-name="hungarumlaut" unicode="&#x2dd;" horiz-adv-x="409" d="M326 768 L254 768 L209 662 L248 662 L326 768 Z M201 768 L129 768 L84 662 L123 662 L201 768 Z " />
<glyph glyph-name="pi" unicode="&#x3c0;" horiz-adv-x="555" d="M502 543 C502 667 401 768 278 768 C154 768 53 667 53 543 C53 420 154 320 278 320 C401 320 502 420 502 543 L502 543 Z M477 543 C477 433 388 343 278 343 C167 343 78 433 78 543 C78 654 167 745 278 745 C388 745 477 654 477 543 L477 543 Z M401 617 C401 687 367 709 303 709 C258 709 195 709 195 709 L195 388 L246 388 L246 519 C246 519 280 519 296 519 C358 519 401 542 401 617 L401 617 Z M348 614 C348 570 331 557 298 557 C284 557 246 557 246 557 L246 672 C246 672 288 672 297 672 C337 672 348 653 348 614 L348 614 Z " />
<glyph glyph-name="endash" unicode="&#x2013;" horiz-adv-x="654" d="M629 315 L629 373 L25 373 L25 315 L629 315 Z " />
<glyph glyph-name="emdash" unicode="&#x2014;" horiz-adv-x="979" d="M954 315 L954 373 L25 373 L25 315 L954 315 Z " />
<glyph glyph-name="quoteleft" unicode="&#x2018;" horiz-adv-x="176" d="M123 545 L123 677 L96 677 C96 711 99 720 114 745 L92 779 C68 755 53 721 53 681 C53 631 53 545 53 545 L123 545 Z " />
<glyph glyph-name="quoteright" unicode="&#x2019;" horiz-adv-x="176" d="M123 632 C123 682 123 768 123 768 L53 768 L53 636 L80 636 C80 602 77 593 62 568 L84 534 C108 558 123 592 123 632 L123 632 Z " />
<glyph glyph-name="quotesinglbase" unicode="&#x201a;" horiz-adv-x="176" d="M123 -4 C123 46 123 132 123 132 L53 132 L53 0 L80 0 C80 -34 77 -43 62 -68 L84 -102 C108 -78 123 -44 123 -4 L123 -4 Z " />
<glyph glyph-name="quotedblleft" unicode="&#x201c;" horiz-adv-x="306" d="M253 545 L253 677 L226 677 C226 711 229 720 244 745 L222 779 C198 755 183 721 183 681 C183 631 183 545 183 545 L253 545 Z M123 545 L123 677 L96 677 C96 711 99 720 114 745 L92 779 C68 755 53 721 53 681 C53 631 53 545 53 545 L123 545 Z " />
<glyph glyph-name="quotedblright" unicode="&#x201d;" horiz-adv-x="306" d="M253 632 C253 682 253 768 253 768 L183 768 L183 636 L210 636 C210 602 207 593 192 568 L214 534 C238 558 253 592 253 632 L253 632 Z M123 632 C123 682 123 768 123 768 L53 768 L53 636 L80 636 C80 602 77 593 62 568 L84 534 C108 558 123 592 123 632 L123 632 Z " />
<glyph glyph-name="quotedblbase" unicode="&#x201e;" horiz-adv-x="306" d="M253 -4 C253 46 253 132 253 132 L183 132 L183 0 L210 0 C210 -34 207 -43 192 -68 L214 -102 C238 -78 253 -44 253 -4 L253 -4 Z M123 -4 C123 46 123 132 123 132 L53 132 L53 0 L80 0 C80 -34 77 -43 62 -68 L84 -102 C108 -78 123 -44 123 -4 L123 -4 Z " />
<glyph glyph-name="dagger" unicode="&#x2020;" horiz-adv-x="355" d="M309 568 L309 628 L200 628 L200 768 L135 768 L135 628 L26 628 L26 568 L135 568 L135 -43 L200 -43 L200 568 L309 568 Z " />
<glyph glyph-name="daggerdbl" unicode="&#x2021;" horiz-adv-x="335" d="M309 193 L309 253 L200 253 L200 568 L309 568 L309 628 L200 628 L200 768 L135 768 L135 628 L26 628 L26 568 L135 568 L135 253 L26 253 L26 193 L135 193 L135 -43 L200 -43 L200 193 L309 193 Z " />
<glyph glyph-name="bullet" unicode="&#x2022;" horiz-adv-x="280" d="M260 384 C260 450 206 504 140 504 C74 504 20 450 20 384 C20 318 74 264 140 264 C206 264 260 318 260 384 L260 384 Z " />
<glyph glyph-name="ellipsis" unicode="&#x2026;" horiz-adv-x="416" d="M363 0 L363 132 L295 132 L295 0 L363 0 Z M242 0 L242 132 L174 132 L174 0 L242 0 Z M121 0 L121 132 L53 132 L53 0 L121 0 Z " />
<glyph glyph-name="perthousand" unicode="&#x2030;" horiz-adv-x="909" d="M893 192 C893 362 854 413 769 413 C685 413 646 362 646 192 C646 42 685 -9 769 -9 C854 -9 893 42 893 192 L893 192 Z M263 553 C263 723 224 774 139 774 C55 774 16 723 16 553 C16 403 55 352 139 352 C224 352 263 403 263 553 L263 553 Z M577 760 L527 760 L36 0 L86 0 L577 760 Z M601 192 C601 362 562 413 477 413 C393 413 354 362 354 192 C354 42 393 -9 477 -9 C562 -9 601 42 601 192 L601 192 Z M833 201 C833 67 807 44 769 44 C731 44 706 67 706 201 C706 337 731 360 769 360 C807 360 833 337 833 201 L833 201 Z M203 562 C203 428 177 405 139 405 C101 405 76 428 76 562 C76 698 101 721 139 721 C177 721 203 698 203 562 L203 562 Z M541 201 C541 67 515 44 477 44 C439 44 414 67 414 201 C414 337 439 360 477 360 C515 360 541 337 541 201 L541 201 Z " />
<glyph glyph-name="guilsinglleft" unicode="&#x2039;" horiz-adv-x="182" d="M150 175 L150 262 L61 344 L150 424 L150 512 L27 391 L27 297 L150 175 Z " />
<glyph glyph-name="guilsinglright" unicode="&#x203a;" horiz-adv-x="182" d="M155 297 L155 391 L32 512 L32 424 L121 344 L32 262 L32 175 L155 297 Z " />
<glyph glyph-name="fraction" unicode="&#x2044;" horiz-adv-x="279" d="M450 779 L406 779 L-185 -28 L-141 -28 L450 779 Z " />
<glyph glyph-name="trademark" unicode="&#x2122;" horiz-adv-x="417" d="M385 537 L385 768 L317 768 L279 606 L242 768 L174 768 L174 537 L214 537 L214 711 L260 537 L298 537 L345 711 L345 537 L385 537 Z M162 730 L162 768 L9 768 L9 730 L66 730 L66 537 L106 537 L106 730 L162 730 Z " />
<glyph glyph-name="Omega" unicode="&#x2126;" horiz-adv-x="393" d="M334 388 C334 562 272 705 195 705 C118 705 58 562 58 388 C58 214 118 73 195 73 C272 73 334 214 334 388 L334 388 Z M317 356 L248 333 L233 116 L195 238 L95 253 L153 366 L103 520 L162 496 L196 648 L234 486 L317 356 Z " />
<glyph glyph-name="partialdiff" unicode="&#x2202;" horiz-adv-x="393" d="M334 388 C334 562 272 705 195 705 C118 705 58 562 58 388 C58 214 118 73 195 73 C272 73 334 214 334 388 L334 388 Z M317 356 L248 333 L233 116 L195 238 L95 253 L153 366 L103 520 L162 496 L196 648 L234 486 L317 356 Z " />
<glyph glyph-name="Delta" unicode="&#x2206;" horiz-adv-x="393" d="M334 388 C334 562 272 705 195 705 C118 705 58 562 58 388 C58 214 118 73 195 73 C272 73 334 214 334 388 L334 388 Z M317 356 L248 333 L233 116 L195 238 L95 253 L153 366 L103 520 L162 496 L196 648 L234 486 L317 356 Z " />
<glyph glyph-name="product" unicode="&#x220f;" horiz-adv-x="393" d="M334 388 C334 562 272 705 195 705 C118 705 58 562 58 388 C58 214 118 73 195 73 C272 73 334 214 334 388 L334 388 Z M317 356 L248 333 L233 116 L195 238 L95 253 L153 366 L103 520 L162 496 L196 648 L234 486 L317 356 Z " />
<glyph glyph-name="summation" unicode="&#x2211;" horiz-adv-x="393" d="M334 388 C334 562 272 705 195 705 C118 705 58 562 58 388 C58 214 118 73 195 73 C272 73 334 214 334 388 L334 388 Z M317 356 L248 333 L233 116 L195 238 L95 253 L153 366 L103 520 L162 496 L196 648 L234 486 L317 356 Z " />
<glyph glyph-name="minus" unicode="&#x2212;" horiz-adv-x="393" d="M334 388 C334 562 272 705 195 705 C118 705 58 562 58 388 C58 214 118 73 195 73 C272 73 334 214 334 388 L334 388 Z M317 356 L248 333 L233 116 L195 238 L95 253 L153 366 L103 520 L162 496 L196 648 L234 486 L317 356 Z " />
<glyph glyph-name="radical" unicode="&#x221a;" horiz-adv-x="610" d="M658 829 L559 785 C483 672 429 559 382 445 C324 304 278 164 244 21 L104 310 L22 280 L213 -62 L295 -25 C322 112 369 255 438 427 C488 553 585 745 658 829 L658 829 Z " />
<glyph glyph-name="infinity" unicode="&#x221e;" horiz-adv-x="534" d="M504 0 L504 551 L311 551 C311 551 311 659 311 673 C311 717 340 728 359 728 C390 728 408 707 408 670 C408 658 406 640 404 626 L457 631 C459 646 461 660 461 677 C461 743 424 776 357 776 C322 776 295 766 273 745 C248 765 220 776 184 776 C108 776 56 738 56 662 C56 641 56 551 56 551 L3 551 L3 505 L56 505 L56 0 L118 0 L118 505 L249 505 L249 0 L311 0 L311 505 L442 505 L442 0 L504 0 Z M251 690 C250 681 249 672 249 662 C249 641 249 551 249 551 L118 551 C118 551 118 648 118 662 C118 706 138 728 186 728 C211 728 240 714 251 690 L251 690 Z " />
<glyph glyph-name="integral" unicode="&#x222b;" horiz-adv-x="393" d="M334 388 C334 562 272 705 195 705 C118 705 58 562 58 388 C58 214 118 73 195 73 C272 73 334 214 334 388 L334 388 Z M317 356 L248 333 L233 116 L195 238 L95 253 L153 366 L103 520 L162 496 L196 648 L234 486 L317 356 Z " />
<glyph glyph-name="approxequal" unicode="&#x2248;" horiz-adv-x="393" d="M334 388 C334 562 272 705 195 705 C118 705 58 562 58 388 C58 214 118 73 195 73 C272 73 334 214 334 388 L334 388 Z M317 356 L248 333 L233 116 L195 238 L95 253 L153 366 L103 520 L162 496 L196 648 L234 486 L317 356 Z " />
<glyph glyph-name="notequal" unicode="&#x2260;" horiz-adv-x="401" d="M461 677 C461 743 424 776 357 776 C322 776 295 766 273 745 C248 765 220 776 184 776 C108 776 56 738 56 662 C56 641 56 551 56 551 L3 551 L3 505 L56 505 L56 0 L118 0 L118 505 L249 505 L249 0 L311 0 L311 505 L387 505 L387 551 L311 551 C311 551 311 659 311 673 C311 717 340 728 359 728 C390 728 408 707 408 670 C408 659 407 641 404 626 L457 631 C459 646 461 660 461 677 L461 677 Z M251 690 C250 681 249 672 249 662 C249 641 249 551 249 551 L118 551 C118 551 118 648 118 662 C118 706 138 728 186 728 C211 728 240 714 251 690 L251 690 Z " />
<glyph glyph-name="lessequal" unicode="&#x2264;" horiz-adv-x="393" d="M334 388 C334 562 272 705 195 705 C118 705 58 562 58 388 C58 214 118 73 195 73 C272 73 334 214 334 388 L334 388 Z M317 356 L248 333 L233 116 L195 238 L95 253 L153 366 L103 520 L162 496 L196 648 L234 486 L317 356 Z " />
<glyph glyph-name="greaterequal" unicode="&#x2265;" horiz-adv-x="393" d="M334 388 C334 562 272 705 195 705 C118 705 58 562 58 388 C58 214 118 73 195 73 C272 73 334 214 334 388 L334 388 Z M317 356 L248 333 L233 116 L195 238 L95 253 L153 366 L103 520 L162 496 L196 648 L234 486 L317 356 Z " />
<glyph glyph-name="lozenge" unicode="&#x25ca;" horiz-adv-x="393" d="M334 388 C334 562 272 705 195 705 C118 705 58 562 58 388 C58 214 118 73 195 73 C272 73 334 214 334 388 L334 388 Z M317 356 L248 333 L233 116 L195 238 L95 253 L153 366 L103 520 L162 496 L196 648 L234 486 L317 356 Z " />
<glyph glyph-name="fi" unicode="&#xfb01;" horiz-adv-x="339" d="M311 0 L311 551 L118 551 C118 551 118 659 118 673 C118 717 147 728 166 728 C197 728 215 707 215 670 C215 658 213 640 211 626 L264 631 C266 646 268 660 268 677 C268 743 231 776 164 776 C96 776 56 746 56 665 C56 644 56 551 56 551 L3 551 L3 505 L56 505 L56 0 L118 0 L118 505 L249 505 L249 0 L311 0 Z " />
<glyph glyph-name="fl" unicode="&#xfb02;" horiz-adv-x="342" d="M312 0 L312 768 L249 762 C228 767 201 776 165 776 C99 776 56 749 56 668 C56 647 56 551 56 551 L3 551 L3 505 L56 505 L56 0 L118 0 L118 505 L193 505 L193 551 L118 551 C118 551 118 666 118 680 C118 715 147 728 168 728 C210 728 233 712 250 688 C250 677 250 0 250 0 L312 0 Z " />
</font>
</svg>
