<?xml version="1.0" encoding="UTF-8"?>
<svg xmlns="http://www.w3.org/2000/svg" xmlns:xlink="http://www.w3.org/1999/xlink" version="1.2" >
<font id="BureauGrotesque-ThreeFive">
<font-face  font-family="BureauGrotesque" units-per-em="1000" ascent="750" descent="-250" font-style="normal" font-weight="400" font-stretch="normal" cap-height="750" x-height="500" underline-position="-123" underline-thickness="20" />
<missing-glyph  horiz-adv-x="500" d="" />
<glyph glyph-name="CR" unicode="&#xd;" horiz-adv-x="250" d="" />
<glyph glyph-name="space" unicode="&#x20;" horiz-adv-x="232" d="" />
<glyph glyph-name="exclam" unicode="&#x21;" horiz-adv-x="252" d="M199 508 L199 768 L53 768 L53 508 L86 238 L166 238 L199 508 Z M199 0 L199 166 L53 166 L53 0 L199 0 Z " />
<glyph glyph-name="quotedbl" unicode="&#x22;" horiz-adv-x="394" d="M359 768 L226 768 L241 484 L343 484 L359 768 Z M168 768 L35 768 L50 484 L152 484 L168 768 Z " />
<glyph glyph-name="numbersign" unicode="&#x23;" horiz-adv-x="595" d="M570 579 L468 579 L495 768 L408 768 L381 579 L267 579 L294 768 L207 768 L180 579 L79 579 L63 453 L163 453 L144 316 L43 316 L25 189 L126 189 L100 0 L187 0 L213 189 L327 189 L301 0 L388 0 L414 189 L517 189 L535 316 L432 316 L451 453 L554 453 L570 579 Z M364 453 L345 316 L231 316 L250 453 L364 453 Z " />
<glyph glyph-name="dollar" unicode="&#x24;" horiz-adv-x="492" d="M459 236 C459 315 425 389 349 428 C320 443 259 475 243 483 C176 516 168 537 168 586 C168 637 190 660 231 660 C275 660 292 627 292 575 C292 553 290 535 286 524 L415 531 C419 543 423 563 423 587 C423 682 363 743 276 754 L276 795 L203 795 L203 756 C100 748 29 675 29 561 C29 485 51 425 133 384 C173 364 224 338 240 330 C300 302 314 264 314 209 C314 158 298 118 242 118 C193 118 169 144 169 211 C169 231 172 259 178 279 L46 274 C39 256 33 222 33 196 C33 74 111 26 203 17 L203 -62 L276 -62 L276 17 C399 27 459 108 459 236 L459 236 Z " />
<glyph glyph-name="percent" unicode="&#x25;" horiz-adv-x="861" d="M828 213 C828 397 781 465 666 465 C551 465 504 397 504 213 C504 52 551 -8 666 -8 C781 -8 828 52 828 213 L828 213 Z M673 768 L604 768 L184 -8 L253 -8 L673 768 Z M357 528 C357 712 310 780 195 780 C80 780 33 712 33 528 C33 367 80 307 195 307 C310 307 357 367 357 528 L357 528 Z M713 226 C713 102 705 77 666 77 C630 77 619 102 619 227 C619 350 629 380 666 380 C702 380 713 350 713 226 L713 226 Z M242 541 C242 417 234 392 195 392 C159 392 148 417 148 542 C148 665 158 695 195 695 C231 695 242 665 242 541 L242 541 Z " />
<glyph glyph-name="ampersand" unicode="&#x26;" horiz-adv-x="655" d="M633 133 C633 166 624 204 621 212 L547 205 C553 192 557 166 557 148 C557 121 551 95 522 95 C499 95 478 121 463 160 C512 242 561 383 580 509 L497 509 C486 424 452 317 420 258 C401 296 356 398 335 453 C402 498 464 551 464 637 C464 725 415 780 313 780 C200 780 152 714 152 617 C152 573 171 510 188 474 C95 416 30 332 30 210 C30 82 103 -11 226 -11 C284 -11 339 10 381 54 C411 13 443 -11 506 -11 C588 -11 633 51 633 133 L633 133 Z M366 643 C366 606 358 578 299 537 C283 575 272 611 272 639 C272 678 283 700 317 700 C346 700 366 684 366 643 L366 643 Z M339 132 C323 109 295 97 264 97 C200 97 161 133 161 221 C161 289 183 333 229 373 C251 324 311 193 339 132 L339 132 Z " />
<glyph glyph-name="quotesingle" unicode="&#x27;" horiz-adv-x="203" d="M168 768 L35 768 L50 484 L152 484 L168 768 Z " />
<glyph glyph-name="parenleft" unicode="&#x28;" horiz-adv-x="319" d="M304 -126 C212 17 193 159 193 330 C193 512 220 653 304 780 L250 788 C123 690 45 535 45 331 C45 127 115 -30 250 -134 L304 -126 Z " />
<glyph glyph-name="parenright" unicode="&#x29;" horiz-adv-x="319" d="M274 331 C274 535 196 690 69 788 L15 780 C99 653 126 512 126 330 C126 159 107 17 15 -126 L69 -134 C204 -30 274 127 274 331 L274 331 Z " />
<glyph glyph-name="asterisk" unicode="&#x2a;" horiz-adv-x="382" d="M347 588 L261 627 L345 665 L298 743 L226 687 L237 780 L146 780 L158 687 L82 743 L36 665 L125 627 L35 588 L81 513 L157 567 L146 474 L237 474 L226 567 L299 513 L347 588 Z " />
<glyph glyph-name="plus" unicode="&#x2b;" horiz-adv-x="529" d="M483 292 L483 405 L326 405 L326 561 L205 561 L205 405 L46 405 L46 292 L205 292 L205 135 L326 135 L326 292 L483 292 Z " />
<glyph glyph-name="comma" unicode="&#x2c;" horiz-adv-x="249" d="M204 4 C204 65 204 170 204 170 L45 170 L45 0 L120 0 C120 -55 105 -93 56 -111 L71 -164 C125 -148 204 -101 204 4 L204 4 Z " />
<glyph glyph-name="hyphen" unicode="&#x2d;" horiz-adv-x="452" d="M406 271 L406 387 L46 387 L46 271 L406 271 Z " />
<glyph glyph-name="period" unicode="&#x2e;" horiz-adv-x="249" d="M204 0 L204 170 L45 170 L45 0 L204 0 Z " />
<glyph glyph-name="slash" unicode="&#x2f;" horiz-adv-x="410" d="M407 768 L321 768 L3 0 L89 0 L407 768 Z " />
<glyph glyph-name="zero" unicode="0" horiz-adv-x="438" d="M413 358 C413 697 363 777 219 777 C75 777 25 697 25 357 C25 53 75 -11 219 -11 C363 -11 413 55 413 358 L413 358 Z M271 379 C271 251 270 195 262 148 C254 100 243 89 219 89 C195 89 184 100 176 150 C169 196 167 252 167 380 C167 506 170 575 177 622 C184 671 195 681 219 681 C243 681 254 671 262 619 C269 572 271 503 271 379 L271 379 Z " />
<glyph glyph-name="one" unicode="1" horiz-adv-x="331" d="M287 0 L287 771 L202 771 C172 698 75 655 7 655 L7 573 C18 571 68 571 82 571 C103 571 132 572 146 578 L146 0 L287 0 Z " />
<glyph glyph-name="two" unicode="2" horiz-adv-x="437" d="M412 548 C412 702 354 777 218 777 C94 777 25 695 25 568 C25 529 35 469 42 439 L173 443 C165 473 162 517 162 549 C162 642 173 681 214 681 C254 681 270 648 270 550 C270 367 165 231 26 105 L26 0 L411 0 L411 124 C411 124 286 124 260 124 C226 124 198 123 170 120 C302 233 412 391 412 548 L412 548 Z " />
<glyph glyph-name="three" unicode="3" horiz-adv-x="442" d="M417 235 C417 412 364 472 278 472 C260 472 245 471 231 464 L392 646 L392 768 L40 768 L40 648 L257 648 L88 458 L159 380 C175 396 189 403 212 403 C262 403 281 364 281 243 C281 129 256 99 211 99 C173 99 147 121 147 200 C147 229 152 258 156 276 L30 269 C24 243 20 212 20 168 C20 61 78 -11 203 -11 C334 -11 417 47 417 235 L417 235 Z " />
<glyph glyph-name="four" unicode="4" horiz-adv-x="453" d="M441 159 L441 273 L379 273 L379 768 L227 768 L17 306 L17 159 L242 159 L242 0 L379 0 L379 159 L441 159 Z M246 577 C242 538 242 517 242 496 C242 395 242 273 242 273 L116 273 L246 577 Z " />
<glyph glyph-name="five" unicode="5" horiz-adv-x="431" d="M406 267 C406 452 354 537 255 537 C206 537 169 518 150 477 L160 648 L368 648 L373 768 L49 768 L37 354 L161 348 C164 395 173 428 214 428 C254 428 270 397 270 267 C270 132 260 95 213 95 C173 95 152 120 152 190 C152 218 154 235 157 253 L31 249 C27 228 25 199 25 166 C25 53 90 -11 211 -11 C331 -11 406 45 406 267 L406 267 Z " />
<glyph glyph-name="six" unicode="6" horiz-adv-x="441" d="M419 250 C419 430 355 490 259 490 C214 490 179 464 164 427 C163 445 162 487 162 508 C162 623 171 681 219 681 C256 681 270 655 270 601 C270 584 268 567 265 556 L388 562 C392 578 394 595 394 618 C394 715 344 777 233 777 C80 777 25 703 25 386 C25 72 84 -11 227 -11 C354 -11 419 59 419 250 L419 250 Z M277 247 C277 124 266 89 226 89 C183 89 165 121 165 247 C165 366 185 393 225 393 C264 393 277 365 277 247 L277 247 Z " />
<glyph glyph-name="seven" unicode="7" horiz-adv-x="405" d="M393 647 L393 768 L11 768 L2 638 L270 638 C179 510 90 303 90 78 C90 48 93 16 94 0 L251 0 C245 36 242 100 242 164 C242 337 283 505 393 647 L393 647 Z " />
<glyph glyph-name="eight" unicode="8" horiz-adv-x="445" d="M422 208 C422 332 383 392 329 410 C380 425 407 478 407 560 C407 701 349 777 222 777 C95 777 37 701 37 560 C37 478 64 425 115 410 C61 392 22 327 22 208 C22 46 92 -11 222 -11 C352 -11 422 46 422 208 L422 208 Z M272 572 C272 473 260 455 222 455 C184 455 172 475 172 572 C172 659 183 681 222 681 C256 681 272 662 272 572 L272 572 Z M280 222 C280 110 264 89 222 89 C180 89 164 110 164 222 C164 333 177 362 222 362 C267 362 280 336 280 222 L280 222 Z " />
<glyph glyph-name="nine" unicode="9" horiz-adv-x="441" d="M416 380 C416 682 363 777 217 777 C89 777 22 709 22 515 C22 338 81 275 180 275 C231 275 262 303 277 338 C279 317 279 282 279 258 C279 154 275 90 222 90 C189 90 171 110 171 165 C171 189 174 201 176 210 L53 204 C48 186 47 167 47 147 C47 49 98 -11 209 -11 C363 -11 416 66 416 380 L416 380 Z M276 519 C276 404 258 372 218 372 C180 372 164 392 164 519 C164 647 177 680 216 680 C261 680 276 635 276 519 L276 519 Z " />
<glyph glyph-name="colon" unicode="&#x3a;" horiz-adv-x="249" d="M204 366 L204 536 L45 536 L45 366 L204 366 Z M204 0 L204 170 L45 170 L45 0 L204 0 Z " />
<glyph glyph-name="semicolon" unicode="&#x3b;" horiz-adv-x="252" d="M204 366 L204 536 L45 536 L45 366 L204 366 Z M204 4 C204 65 204 170 204 170 L45 170 L45 0 L120 0 C120 -55 105 -93 56 -111 L71 -164 C125 -148 204 -101 204 4 L204 4 Z " />
<glyph glyph-name="less" unicode="&#x3c;" horiz-adv-x="366" d="M320 120 L320 235 L138 342 L320 449 L320 564 L40 388 L40 296 L320 120 Z " />
<glyph glyph-name="equal" unicode="&#x3d;" horiz-adv-x="474" d="M428 407 L428 522 L46 522 L46 407 L428 407 Z M428 185 L428 300 L46 300 L46 185 L428 185 Z " />
<glyph glyph-name="greater" unicode="&#x3e;" horiz-adv-x="366" d="M326 296 L326 388 L46 564 L46 449 L228 342 L46 235 L46 120 L326 296 Z " />
<glyph glyph-name="question" unicode="&#x3f;" horiz-adv-x="439" d="M404 534 C404 711 335 780 217 780 C89 780 35 714 35 629 C35 598 38 579 44 562 L171 561 C168 572 165 591 165 611 C165 657 177 676 206 676 C244 676 257 654 257 533 C257 428 246 410 219 410 C191 410 179 424 168 478 L74 478 L74 234 L177 234 L177 339 C194 316 219 297 265 297 C346 297 404 345 404 534 L404 534 Z M205 0 L205 170 L56 170 L56 0 L205 0 Z " />
<glyph glyph-name="at" unicode="&#x40;" horiz-adv-x="806" d="M771 405 C771 651 623 780 419 780 C175 780 35 594 35 330 C35 56 174 -106 412 -106 C512 -106 578 -65 643 -10 L609 35 C565 -13 487 -54 416 -54 C227 -54 99 85 99 329 C99 559 225 733 411 733 C576 733 710 618 710 404 C710 240 650 166 594 166 C568 166 559 179 559 199 C559 207 560 220 563 236 C569 271 577 323 583 366 C589 408 593 441 593 459 C593 529 553 595 440 595 C300 595 249 530 249 439 C249 433 250 423 251 419 L373 435 C372 440 372 447 372 454 C372 483 385 512 419 512 C457 512 467 491 467 457 C467 445 463 420 460 404 C314 400 211 359 211 215 C211 141 258 98 324 98 C408 98 435 133 462 171 C464 135 498 101 567 101 C686 101 771 215 771 405 L771 405 Z M452 341 C450 324 444 285 441 265 C435 226 420 190 371 190 C339 190 329 205 329 242 C329 326 400 341 452 341 L452 341 Z " />
<glyph glyph-name="A" unicode="A" horiz-adv-x="454" d="M454 0 L295 771 L147 771 L0 0 L139 0 L163 141 L274 141 L300 0 L454 0 Z M255 247 L181 247 C181 247 194 352 206 447 C212 493 215 538 217 564 C219 538 223 493 229 446 C241 352 255 247 255 247 L255 247 Z " />
<glyph glyph-name="B" unicode="B" horiz-adv-x="477" d="M456 217 C456 338 394 401 324 406 C392 414 433 465 433 562 C433 690 371 768 232 768 C157 768 48 768 48 768 L48 0 C48 0 168 0 248 0 C365 0 456 52 456 217 L456 217 Z M288 557 C288 488 265 458 219 458 C202 458 192 458 192 458 L192 666 C192 666 197 666 213 666 C265 666 288 637 288 557 L288 557 Z M305 231 C305 135 280 106 226 106 C206 106 192 106 192 106 L192 354 C192 354 205 354 224 354 C278 354 305 308 305 231 L305 231 Z " />
<glyph glyph-name="C" unicode="C" horiz-adv-x="469" d="M451 248 C451 268 450 293 447 313 L314 317 C317 291 318 259 318 238 C318 147 309 86 253 86 C185 86 178 136 178 377 C178 632 190 684 248 684 C296 684 307 634 307 539 C307 525 306 499 304 479 L440 483 C442 498 444 521 444 545 C444 669 422 780 248 780 C75 780 27 669 27 371 C27 81 79 -14 254 -14 C405 -14 451 73 451 248 L451 248 Z " />
<glyph glyph-name="D" unicode="D" horiz-adv-x="497" d="M473 354 C473 664 399 768 234 768 C161 768 48 768 48 768 L48 0 C48 0 167 0 243 0 C411 0 473 95 473 354 L473 354 Z M322 356 C322 143 301 106 221 106 C207 106 192 106 192 106 L192 666 C192 666 202 666 214 666 C292 666 322 604 322 356 L322 356 Z " />
<glyph glyph-name="E" unicode="E" horiz-adv-x="419" d="M401 0 L401 121 L194 121 L194 332 L357 332 L357 455 L194 455 L194 648 L379 648 L379 768 L48 768 L48 0 L401 0 Z " />
<glyph glyph-name="F" unicode="F" horiz-adv-x="389" d="M372 648 L372 768 L48 768 L48 0 L194 0 L194 321 L350 321 L350 444 L194 444 L194 648 L372 648 Z " />
<glyph glyph-name="G" unicode="G" horiz-adv-x="494" d="M456 0 L456 402 L253 402 L253 291 L329 291 C330 265 330 255 330 241 C330 136 315 86 251 86 C194 86 178 117 178 363 C178 631 186 684 251 684 C295 684 307 632 307 544 C307 527 307 511 305 496 L442 500 C443 510 444 534 444 547 C444 694 402 780 253 780 C88 780 27 695 27 359 C27 67 95 -14 244 -14 C314 -14 339 17 364 59 L397 0 L456 0 Z " />
<glyph glyph-name="H" unicode="H" horiz-adv-x="504" d="M456 0 L456 768 L310 768 L310 472 L194 472 L194 768 L48 768 L48 0 L194 0 L194 349 L310 349 L310 0 L456 0 Z " />
<glyph glyph-name="I" unicode="I" horiz-adv-x="242" d="M194 0 L194 768 L48 768 L48 0 L194 0 Z " />
<glyph glyph-name="J" unicode="J" horiz-adv-x="431" d="M386 218 C386 412 386 768 386 768 L240 768 C240 768 240 406 240 204 C240 129 229 101 190 101 C154 101 137 125 137 180 C137 211 142 251 149 280 L16 275 C8 248 2 210 2 183 C2 60 53 -14 191 -14 C341 -14 386 57 386 218 L386 218 Z " />
<glyph glyph-name="K" unicode="K" horiz-adv-x="508" d="M498 0 L302 415 L474 768 L322 768 L194 479 L194 768 L48 768 L48 0 L194 0 L194 332 L335 0 L498 0 Z " />
<glyph glyph-name="L" unicode="L" horiz-adv-x="395" d="M383 0 L383 124 L194 124 L194 768 L48 768 L48 0 L383 0 Z " />
<glyph glyph-name="M" unicode="M" horiz-adv-x="647" d="M599 0 L599 768 L414 768 C388 628 363 471 344 369 C337 329 332 303 323 242 C313 304 310 324 302 370 C283 472 260 626 235 768 L48 768 L48 0 L181 0 C181 0 181 234 181 349 C181 465 181 487 178 563 C183 487 190 435 204 349 C223 232 263 0 263 0 L386 0 C386 0 426 232 445 349 C459 436 461 490 469 563 C468 490 466 465 466 349 C466 236 466 0 466 0 L599 0 Z " />
<glyph glyph-name="N" unicode="N" horiz-adv-x="501" d="M456 0 L456 768 L323 768 C323 768 323 593 323 484 C323 424 324 373 328 323 C318 370 310 393 299 422 C249 553 176 768 176 768 L48 768 L48 0 L181 0 C181 0 181 203 181 308 C181 360 179 405 175 459 C187 409 196 385 207 355 C258 211 332 0 332 0 L456 0 Z " />
<glyph glyph-name="O" unicode="O" horiz-adv-x="501" d="M474 383 C474 695 405 780 250 780 C95 780 27 698 27 383 C27 57 95 -14 250 -14 C405 -14 474 64 474 383 L474 383 Z M323 383 C323 149 317 86 250 86 C185 86 178 149 178 383 C178 609 183 684 250 684 C317 684 323 609 323 383 L323 383 Z " />
<glyph glyph-name="P" unicode="P" horiz-adv-x="471" d="M449 533 C449 703 371 768 231 768 C153 768 48 768 48 768 L48 0 L194 0 L194 293 C194 293 217 293 245 293 C376 293 449 354 449 533 L449 533 Z M298 532 C298 438 271 401 226 401 C207 401 194 401 194 401 L194 666 C194 666 204 666 217 666 C274 666 298 630 298 532 L298 532 Z " />
<glyph glyph-name="Q" unicode="Q" horiz-adv-x="501" d="M474 383 C474 695 405 780 250 780 C95 780 27 698 27 383 C27 105 74 12 187 -9 C179 -25 176 -44 176 -56 C176 -148 240 -175 312 -175 C370 -175 406 -151 421 -111 C425 -101 428 -91 429 -82 L372 -45 C361 -83 347 -95 322 -95 C298 -95 277 -83 277 -42 C277 -33 280 -21 286 -12 C417 0 474 90 474 383 L474 383 Z M323 383 C323 149 317 86 250 86 C185 86 178 149 178 383 C178 609 183 684 250 684 C317 684 323 609 323 383 L323 383 Z " />
<glyph glyph-name="R" unicode="R" horiz-adv-x="487" d="M468 0 C447 28 440 106 439 179 C437 302 415 373 328 383 C408 396 454 436 454 556 C454 700 380 768 252 768 C165 768 48 768 48 768 L48 0 L194 0 L194 322 C194 322 206 322 225 322 C278 322 293 281 293 221 C293 95 295 31 315 0 L468 0 Z M303 544 C303 466 277 437 225 437 C206 437 194 437 194 437 L194 666 C194 666 195 666 208 666 C269 666 303 639 303 544 L303 544 Z " />
<glyph glyph-name="S" unicode="S" horiz-adv-x="470" d="M442 214 C442 329 409 400 321 446 C294 460 264 473 242 484 C185 512 171 536 171 604 C171 654 179 683 221 683 C264 683 275 660 275 587 C275 568 272 540 269 527 L396 535 C401 556 406 581 406 601 C406 713 344 780 225 780 C91 780 32 700 32 572 C32 484 51 409 130 372 C157 359 185 347 199 340 C283 299 297 267 297 187 C297 111 280 89 233 89 C182 89 172 120 172 190 C172 215 176 249 181 269 L49 264 C42 242 36 209 36 180 C36 47 100 -14 232 -14 C382 -14 442 64 442 214 L442 214 Z " />
<glyph glyph-name="T" unicode="T" horiz-adv-x="424" d="M417 648 L417 768 L7 768 L7 648 L139 648 L139 0 L285 0 L285 648 L417 648 Z " />
<glyph glyph-name="U" unicode="U" horiz-adv-x="498" d="M453 204 C453 428 453 768 453 768 L307 768 C307 768 307 433 307 213 C307 144 299 99 249 99 C197 99 191 141 191 213 C191 433 191 768 191 768 L45 768 C45 768 45 428 45 204 C45 72 91 -14 249 -14 C407 -14 453 72 453 204 L453 204 Z " />
<glyph glyph-name="V" unicode="V" horiz-adv-x="459" d="M457 768 L320 768 C306 689 255 370 244 304 C241 284 238 259 236 235 C234 259 231 284 228 303 C216 370 166 689 152 768 L2 768 L155 -2 L308 -2 L457 768 Z " />
<glyph glyph-name="W" unicode="W" horiz-adv-x="654" d="M649 768 L518 768 C512 725 487 524 482 472 C478 431 470 349 462 283 C454 349 443 432 438 472 C432 523 402 723 395 768 L264 768 C259 730 227 525 220 472 C217 446 204 349 195 283 C189 349 181 446 178 473 C172 525 150 730 145 768 L5 768 L115 0 L251 0 C251 0 301 276 307 321 C316 388 321 427 327 477 C333 427 337 388 348 321 C355 276 401 0 401 0 L534 0 L649 768 Z " />
<glyph glyph-name="X" unicode="X" horiz-adv-x="480" d="M473 0 L315 398 L468 768 L328 768 L251 547 L177 768 L24 768 L159 398 L7 0 L146 0 L231 248 L318 0 L473 0 Z " />
<glyph glyph-name="Y" unicode="Y" horiz-adv-x="453" d="M453 768 L316 768 L235 471 L151 768 L0 768 L155 303 L155 0 L301 0 L301 303 L453 768 Z " />
<glyph glyph-name="Z" unicode="Z" horiz-adv-x="431" d="M404 0 L404 121 L167 121 L404 653 L404 768 L41 768 L41 648 L253 648 L17 119 L17 0 L404 0 Z " />
<glyph glyph-name="bracketleft" unicode="&#x5b;" horiz-adv-x="326" d="M306 -136 L306 -43 L201 -43 L201 675 L306 675 L306 768 L66 768 L66 -136 L306 -136 Z " />
<glyph glyph-name="backslash" unicode="&#x5c;" horiz-adv-x="410" d="M407 0 L89 768 L3 768 L321 0 L407 0 Z " />
<glyph glyph-name="bracketright" unicode="&#x5d;" horiz-adv-x="326" d="M260 -136 L260 768 L20 768 L20 675 L125 675 L125 -43 L20 -43 L20 -136 L260 -136 Z " />
<glyph glyph-name="asciicircum" unicode="&#x5e;" horiz-adv-x="382" d="M337 586 L242 768 L140 768 L45 586 L131 586 L191 667 L251 586 L337 586 Z " />
<glyph glyph-name="underscore" unicode="&#x5f;" horiz-adv-x="522" d="M522 -200 L522 -104 L0 -104 L0 -200 L522 -200 Z " />
<glyph glyph-name="grave" unicode="&#x60;" horiz-adv-x="370" d="M294 605 L233 730 L70 730 L217 605 L294 605 Z " />
<glyph glyph-name="a" unicode="a" horiz-adv-x="436" d="M434 11 L434 90 C429 88 420 87 415 87 C385 87 381 103 381 126 C381 242 381 318 381 422 C381 532 330 573 205 573 C88 573 37 524 37 441 C37 411 43 393 47 382 L163 387 C160 399 157 413 157 432 C157 469 160 491 201 491 C249 491 248 454 248 407 C248 368 230 346 177 331 C170 329 150 324 144 322 C68 303 21 258 21 158 C21 34 71 -11 158 -11 C211 -11 246 7 272 48 C280 8 306 -8 353 -8 C386 -8 413 1 434 11 L434 11 Z M247 156 C247 117 240 78 199 78 C169 78 157 98 157 151 C157 207 161 230 210 251 C228 259 238 264 247 272 C247 272 247 202 247 156 L247 156 Z " />
<glyph glyph-name="b" unicode="b" horiz-adv-x="440" d="M417 280 C417 517 345 573 264 573 C211 573 186 536 172 503 C172 515 172 768 172 768 L40 768 L40 0 L95 0 L132 64 C154 21 184 -11 243 -11 C352 -11 417 48 417 280 L417 280 Z M281 280 C281 116 273 76 226 76 C185 76 170 123 170 280 C170 437 189 475 223 475 C271 475 281 441 281 280 L281 280 Z " />
<glyph glyph-name="c" unicode="c" horiz-adv-x="400" d="M380 155 C380 183 376 216 371 235 L252 240 C254 222 256 196 256 181 C256 115 249 80 213 80 C165 80 159 114 159 286 C159 449 172 485 210 485 C243 485 247 455 247 396 C247 380 245 358 243 349 L366 353 C369 367 369 389 369 408 C369 511 330 573 214 573 C96 573 23 517 23 273 C23 64 69 -11 210 -11 C336 -11 380 55 380 155 L380 155 Z " />
<glyph glyph-name="d" unicode="d" horiz-adv-x="439" d="M400 0 L400 768 L268 768 L268 511 C255 545 226 573 185 573 C88 573 23 489 23 271 C23 57 74 -11 182 -11 C228 -11 253 13 273 57 L273 0 L400 0 Z M270 279 C270 128 255 80 215 80 C174 80 159 107 159 280 C159 442 171 482 214 482 C257 482 270 411 270 279 L270 279 Z " />
<glyph glyph-name="e" unicode="e" horiz-adv-x="404" d="M381 141 C381 156 380 179 377 193 L260 199 C261 191 261 178 261 167 C261 111 256 80 212 80 C164 80 159 119 159 225 C159 236 159 248 159 254 L376 254 C378 266 380 288 380 308 C380 486 331 573 209 573 C90 573 23 506 23 264 C23 56 75 -11 214 -11 C341 -11 381 57 381 141 L381 141 Z M255 363 C255 355 255 342 254 335 L159 335 C162 436 166 483 208 483 C249 483 255 440 255 363 L255 363 Z " />
<glyph glyph-name="f" unicode="f" horiz-adv-x="266" d="M332 678 C332 742 285 780 195 780 C107 780 53 728 53 650 C53 615 53 573 54 561 L-1 561 L-1 479 L54 479 L54 0 L189 0 L189 479 L260 479 L260 561 L182 561 C179 578 177 636 177 656 C177 683 189 699 207 699 C229 699 239 689 239 657 C239 641 236 626 233 616 L322 611 C326 622 332 650 332 678 L332 678 Z " />
<glyph glyph-name="g" unicode="g" horiz-adv-x="419" d="M425 -7 C425 106 358 161 269 158 C241 157 208 156 187 155 C126 152 124 158 124 175 C124 191 129 202 157 209 C175 205 199 201 228 201 C337 201 392 272 392 387 C392 454 377 490 352 520 L423 638 L307 638 L293 556 C276 567 250 573 213 573 C93 573 32 498 32 387 C32 321 58 251 103 229 C45 214 14 179 14 128 C14 88 29 45 91 39 C24 20 2 -13 2 -51 C2 -138 64 -180 209 -180 C354 -180 425 -117 425 -7 L425 -7 Z M260 387 C260 298 255 278 212 278 C169 278 163 298 163 387 C163 470 169 498 212 498 C255 498 260 470 260 387 L260 387 Z M314 -29 C314 -74 289 -106 206 -106 C130 -106 108 -77 108 -34 C108 -7 122 15 153 31 C169 33 207 35 228 35 C299 35 314 26 314 -29 L314 -29 Z " />
<glyph glyph-name="h" unicode="h" horiz-adv-x="435" d="M397 0 C397 0 397 274 397 447 C397 529 363 573 283 573 C219 573 190 538 171 492 L171 768 L40 768 L40 0 L175 0 C175 0 175 217 175 354 C175 433 189 471 225 471 C263 471 262 450 262 397 C262 243 262 0 262 0 L397 0 Z " />
<glyph glyph-name="i" unicode="i" horiz-adv-x="215" d="M176 626 L176 760 L39 760 L39 626 L176 626 Z M175 0 L175 561 L40 561 L40 0 L175 0 Z " />
<glyph glyph-name="j" unicode="j" horiz-adv-x="203" d="M174 626 L174 760 L37 760 L37 626 L174 626 Z M173 -47 C173 190 173 561 173 561 L38 561 C38 561 38 145 38 82 C38 52 42 15 45 -21 C47 -42 48 -58 48 -65 C48 -90 38 -99 15 -99 C-6 -99 -22 -86 -22 -58 C-22 -50 -21 -37 -18 -26 L-110 -18 C-116 -35 -118 -49 -118 -69 C-118 -147 -48 -180 28 -180 C124 -180 173 -130 173 -47 L173 -47 Z " />
<glyph glyph-name="k" unicode="k" horiz-adv-x="415" d="M416 0 L273 341 L405 561 L260 561 L172 378 L172 768 L40 768 L40 0 L175 0 L175 185 L191 216 L275 0 L416 0 Z " />
<glyph glyph-name="l" unicode="l" horiz-adv-x="215" d="M175 0 L175 768 L40 768 L40 0 L175 0 Z " />
<glyph glyph-name="m" unicode="m" horiz-adv-x="662" d="M626 0 C626 0 626 274 626 447 C626 529 592 573 513 573 C456 573 414 539 391 492 C378 548 344 573 276 573 C228 573 192 543 171 493 C171 518 171 541 172 561 L40 561 L40 0 L175 0 C175 0 175 219 175 357 C175 432 190 471 218 471 C256 471 265 457 265 400 C265 246 265 0 265 0 L398 0 C398 0 398 218 398 356 C398 429 417 471 456 471 C488 471 491 457 491 399 C491 260 491 0 491 0 L626 0 Z " />
<glyph glyph-name="n" unicode="n" horiz-adv-x="435" d="M397 0 C397 0 397 274 397 447 C397 529 363 573 283 573 C219 573 190 538 171 492 L171 561 L40 561 L40 0 L175 0 C175 0 175 217 175 354 C175 433 189 471 225 471 C263 471 262 450 262 397 C262 243 262 0 262 0 L397 0 Z " />
<glyph glyph-name="o" unicode="o" horiz-adv-x="426" d="M403 272 C403 487 351 573 213 573 C75 573 23 486 23 272 C23 57 75 -11 213 -11 C351 -11 403 57 403 272 L403 272 Z M267 272 C267 107 255 80 213 80 C167 80 159 107 159 272 C159 452 167 485 213 485 C259 485 267 452 267 272 L267 272 Z " />
<glyph glyph-name="p" unicode="p" horiz-adv-x="440" d="M417 280 C417 518 343 573 261 573 C211 573 181 529 171 492 C171 512 171 540 172 561 L40 561 L40 -170 L172 -170 L172 43 C183 16 202 -11 248 -11 C351 -11 417 51 417 280 L417 280 Z M281 280 C281 105 269 76 226 76 C180 76 170 139 170 280 C170 432 185 475 223 475 C269 475 281 445 281 280 L281 280 Z " />
<glyph glyph-name="q" unicode="q" horiz-adv-x="439" d="M400 -170 L400 561 L342 561 L301 498 C282 538 260 573 198 573 C86 573 23 490 23 268 C23 59 75 -11 182 -11 C226 -11 252 16 268 45 L268 -170 L400 -170 Z M270 280 C270 114 252 80 216 80 C168 80 159 120 159 277 C159 455 175 482 213 482 C247 482 270 456 270 280 L270 280 Z " />
<glyph glyph-name="r" unicode="r" horiz-adv-x="378" d="M373 430 C373 512 356 573 268 573 C211 573 187 532 171 489 C171 513 171 537 172 561 C161 561 40 561 40 561 L40 0 L175 0 C175 0 175 207 175 337 C175 435 186 462 226 462 C253 462 257 434 257 393 C257 378 254 358 250 343 L363 361 C369 377 373 406 373 430 L373 430 Z " />
<glyph glyph-name="s" unicode="s" horiz-adv-x="387" d="M373 163 C373 260 343 312 261 342 C238 350 224 355 201 363 C165 376 153 395 153 432 C153 467 160 490 191 490 C225 490 231 473 231 432 C231 418 228 399 225 390 L342 395 C345 404 349 422 349 440 C349 525 300 573 189 573 C90 573 22 517 22 415 C22 322 50 284 114 259 C135 251 155 244 171 238 C222 219 233 193 233 143 C233 99 226 78 193 78 C146 78 141 100 141 144 C141 157 143 177 148 197 L31 193 C25 178 20 154 20 129 C20 43 79 -11 194 -11 C324 -11 373 54 373 163 L373 163 Z " />
<glyph glyph-name="t" unicode="t" horiz-adv-x="321" d="M314 22 L314 106 C295 96 275 85 249 85 C211 85 197 100 197 138 C197 270 197 479 197 479 L297 479 L297 561 L197 561 L197 723 L66 723 L63 561 L2 561 L2 479 L62 479 C62 479 62 225 62 124 C62 50 112 -11 198 -11 C260 -11 297 8 314 22 L314 22 Z " />
<glyph glyph-name="u" unicode="u" horiz-adv-x="431" d="M394 0 L394 561 L259 561 C259 561 259 335 259 205 C259 131 246 91 208 91 C167 91 172 118 172 167 C172 306 172 561 172 561 L37 561 C37 561 37 269 37 122 C37 26 76 -11 151 -11 C214 -11 244 16 265 69 L265 0 L394 0 Z " />
<glyph glyph-name="v" unicode="v" horiz-adv-x="394" d="M394 561 L266 561 C266 561 232 342 224 298 C220 277 208 215 201 166 C194 215 183 278 179 299 C171 342 137 561 137 561 L0 561 L125 0 L268 0 L394 561 Z " />
<glyph glyph-name="w" unicode="w" horiz-adv-x="581" d="M581 561 L456 561 C456 561 427 369 421 329 C419 315 412 268 407 230 C399 268 392 315 389 329 C380 370 342 561 342 561 L240 561 C240 561 205 367 197 323 C194 308 189 269 182 229 C177 269 170 308 168 323 C161 367 132 561 132 561 L0 561 L119 0 L229 0 C229 0 262 188 273 241 C280 276 285 302 291 335 C297 302 302 276 309 241 C320 189 353 0 353 0 L462 0 L581 561 Z " />
<glyph glyph-name="x" unicode="x" horiz-adv-x="408" d="M411 0 L272 295 L395 561 L267 561 L209 415 L157 561 L12 561 L134 295 L-3 0 L125 0 L196 179 L265 0 L411 0 Z " />
<glyph glyph-name="y" unicode="y" horiz-adv-x="414" d="M414 561 L284 561 C284 561 245 303 235 250 C231 227 225 194 221 165 C216 194 212 208 204 249 C184 348 142 561 142 561 L0 561 L154 -9 C160 -57 146 -83 115 -83 C89 -83 80 -70 80 -51 C80 -44 81 -32 84 -22 L-24 -27 C-27 -40 -28 -53 -28 -65 C-28 -134 27 -178 114 -178 C211 -178 254 -138 287 -3 C316 115 414 561 414 561 L414 561 Z " />
<glyph glyph-name="z" unicode="z" horiz-adv-x="365" d="M344 457 L344 561 L36 561 L36 463 L211 463 L17 100 L17 0 L343 0 L343 102 L154 102 L344 457 Z " />
<glyph glyph-name="braceleft" unicode="&#x7b;" horiz-adv-x="337" d="M302 677 L302 768 C302 768 250 768 216 768 C137 768 101 729 101 653 C101 600 101 474 101 424 C101 385 96 368 45 368 C42 368 35 368 35 368 L35 287 C35 287 42 287 45 287 C92 287 101 270 101 235 C101 166 101 40 101 -31 C101 -118 142 -145 216 -145 C249 -145 301 -145 301 -145 L301 -54 C301 -54 276 -54 260 -54 C234 -54 225 -39 225 -13 C225 67 225 168 225 260 C225 307 213 328 171 328 C213 328 225 349 225 396 C225 468 225 564 225 635 C225 659 235 677 260 677 C276 677 302 677 302 677 L302 677 Z " />
<glyph glyph-name="bar" unicode="&#x7c;" horiz-adv-x="214" d="M154 -200 L154 800 L60 800 L60 -200 L154 -200 Z " />
<glyph glyph-name="braceright" unicode="&#x7d;" horiz-adv-x="337" d="M302 287 L302 368 C302 368 295 368 292 368 C241 368 236 385 236 424 C236 474 236 600 236 653 C236 729 200 768 121 768 C87 768 35 768 35 768 L35 677 C35 677 61 677 77 677 C102 677 112 659 112 635 C112 564 112 468 112 396 C112 349 124 328 166 328 C124 328 112 307 112 260 C112 168 112 67 112 -13 C112 -39 103 -54 77 -54 C61 -54 36 -54 36 -54 L36 -145 C36 -145 88 -145 121 -145 C195 -145 236 -118 236 -31 C236 40 236 166 236 235 C236 270 245 287 292 287 C295 287 302 287 302 287 L302 287 Z " />
<glyph glyph-name="asciitilde" unicode="&#x7e;" horiz-adv-x="398" d="M353 709 C353 739 346 761 342 768 L300 768 C305 746 302 708 269 708 C254 708 246 714 232 726 C224 733 217 740 209 748 C188 769 161 780 127 780 C64 780 45 739 45 691 C45 664 51 645 55 638 L97 638 C93 660 93 692 127 692 C141 692 155 685 170 670 C177 663 187 653 193 647 C210 630 240 620 263 620 C325 620 353 659 353 709 L353 709 Z " />
<glyph glyph-name="nbspace" unicode="&#xa0;" horiz-adv-x="116" d="" />
<glyph glyph-name="exclamdown" unicode="&#xa1;" horiz-adv-x="252" d="M199 602 L199 768 L53 768 L53 602 L199 602 Z M199 0 L199 260 L166 530 L86 530 L53 260 L53 0 L199 0 Z " />
<glyph glyph-name="cent" unicode="&#xa2;" horiz-adv-x="436" d="M408 287 C408 315 404 348 399 367 L280 372 C282 354 284 328 284 313 C284 235 269 212 231 212 C181 212 167 234 167 418 C167 591 186 617 228 617 C261 617 275 593 275 528 C275 512 273 490 271 481 L394 485 C397 499 397 521 397 540 C397 636 355 696 256 704 L256 768 L201 768 L201 703 C100 693 31 627 31 405 C31 210 80 132 201 122 L201 51 L256 51 L256 122 C362 131 408 195 408 287 L408 287 Z " />
<glyph glyph-name="sterling" unicode="&#xa3;" horiz-adv-x="591" d="M556 164 C556 191 551 217 543 236 L430 249 C435 234 439 211 439 192 C439 138 430 105 383 105 C350 105 322 117 297 132 C317 163 331 205 331 264 C331 281 330 297 327 313 L443 313 L443 412 L308 412 C290 472 280 525 280 588 C280 636 301 670 338 670 C379 670 394 640 394 583 C394 555 390 521 385 496 L516 509 C522 529 526 554 526 580 C526 714 456 780 338 780 C201 780 141 694 141 557 C141 499 152 457 168 412 L78 412 L78 313 L198 313 C205 290 210 264 210 231 C210 210 206 185 200 168 C183 177 154 187 121 187 C53 187 10 149 10 80 C10 26 49 -11 115 -11 C171 -11 207 11 237 45 C293 9 332 -11 406 -11 C506 -11 556 48 556 164 L556 164 Z M167 86 C156 66 135 55 120 55 C101 55 89 65 89 80 C89 97 100 108 114 108 C130 108 148 100 167 86 L167 86 Z " />
<glyph glyph-name="currency" unicode="&#xa4;" horiz-adv-x="461" d="M426 352 C426 535 339 684 231 684 C124 684 35 535 35 352 C35 171 124 23 231 23 C339 23 426 171 426 352 L426 352 Z M400 268 L288 261 L237 91 L193 271 L74 289 L166 375 L98 455 L188 468 L227 616 L280 480 L356 488 L317 379 L400 268 Z " />
<glyph glyph-name="yen" unicode="&#xa5;" horiz-adv-x="483" d="M478 768 L338 768 L250 476 L159 768 L5 768 L98 506 L15 506 L15 426 L126 426 L159 334 L15 334 L15 254 L170 254 L170 0 L316 0 L316 254 L463 254 L463 334 L327 334 L359 426 L463 426 L463 506 L387 506 L478 768 Z " />
<glyph glyph-name="brokenbar" unicode="&#xa6;" horiz-adv-x="461" d="M426 352 C426 535 339 684 231 684 C124 684 35 535 35 352 C35 171 124 23 231 23 C339 23 426 171 426 352 L426 352 Z M400 268 L288 261 L237 91 L193 271 L74 289 L166 375 L98 455 L188 468 L227 616 L280 480 L356 488 L317 379 L400 268 Z " />
<glyph glyph-name="section" unicode="&#xa7;" horiz-adv-x="437" d="M401 369 C401 463 350 508 272 540 C250 549 233 555 213 563 C159 585 150 602 150 638 C150 667 167 694 208 694 C246 694 263 675 263 638 C263 619 260 605 257 594 L374 600 C377 608 381 628 381 646 C381 727 326 777 202 777 C103 777 27 720 27 618 C27 539 60 504 105 478 C59 455 27 407 27 347 C27 260 66 225 126 201 C146 193 165 186 181 180 C239 157 265 135 265 80 C265 38 252 15 206 15 C153 15 146 46 146 88 C146 101 149 117 153 134 L36 130 C30 115 25 90 25 65 C25 -17 90 -74 211 -74 C344 -74 398 -4 398 101 C398 167 369 207 333 237 C367 260 401 301 401 369 L401 369 Z M283 345 C283 320 267 296 248 283 C232 289 201 302 177 312 C152 322 139 342 139 369 C139 403 165 427 194 435 C210 428 236 415 250 406 C269 395 283 376 283 345 L283 345 Z " />
<glyph glyph-name="dieresis" unicode="&#xa8;" horiz-adv-x="370" d="M351 605 L351 726 L234 726 L234 605 L351 605 Z M134 605 L134 726 L19 726 L19 605 L134 605 Z " />
<glyph glyph-name="copyright" unicode="&#xa9;" horiz-adv-x="695" d="M660 447 C660 619 520 761 348 761 C175 761 35 619 35 447 C35 275 175 132 348 132 C519 132 660 275 660 447 L660 447 Z M613 447 C613 297 495 175 348 175 C199 175 81 297 81 447 C81 595 200 719 348 719 C495 719 613 595 613 447 L613 447 Z M479 378 C479 389 478 402 476 410 L397 413 C399 401 400 388 400 377 C400 316 380 300 350 300 C311 300 294 321 294 444 C294 571 309 593 347 593 C372 593 393 577 393 524 C393 516 393 506 391 498 L471 501 C472 506 473 515 473 523 C474 597 444 652 347 652 C252 652 205 599 205 446 C205 288 251 240 351 240 C441 240 479 287 479 378 L479 378 Z " />
<glyph glyph-name="ordfeminine" unicode="&#xaa;" horiz-adv-x="414" d="M365 406 L365 457 C362 456 352 455 347 455 C325 455 318 465 318 481 C318 541 318 604 318 683 C318 741 281 780 193 780 C106 780 58 748 58 692 C58 672 62 662 67 655 L152 658 C150 665 148 673 148 686 C148 711 157 727 186 727 C217 727 224 705 224 670 C224 647 205 630 170 620 C163 618 146 613 141 612 C82 598 44 557 44 503 C44 420 90 392 153 392 C191 392 222 403 241 432 C248 405 267 393 301 393 C326 393 351 401 365 406 L365 406 Z M366 308 L366 356 L48 356 L48 308 L366 308 Z M223 584 C222 553 222 524 222 507 C222 474 216 445 182 445 C153 445 143 461 143 501 C143 529 150 553 191 568 C202 572 216 579 223 584 L223 584 Z " />
<glyph glyph-name="guillemotleft" unicode="&#xab;" horiz-adv-x="557" d="M509 37 L509 157 L363 271 L509 385 L509 505 L283 337 L283 205 L509 37 Z M268 37 L268 157 L122 271 L268 385 L268 505 L42 337 L42 205 L268 37 Z " />
<glyph glyph-name="logicalnot" unicode="&#xac;" horiz-adv-x="461" d="M426 352 C426 535 339 684 231 684 C124 684 35 535 35 352 C35 171 124 23 231 23 C339 23 426 171 426 352 L426 352 Z M400 268 L288 261 L237 91 L193 271 L74 289 L166 375 L98 455 L188 468 L227 616 L280 480 L356 488 L317 379 L400 268 Z " />
<glyph glyph-name="registered" unicode="&#xae;" horiz-adv-x="695" d="M660 447 C660 619 520 761 348 761 C175 761 35 619 35 447 C35 275 175 132 348 132 C519 132 660 275 660 447 L660 447 Z M613 447 C613 297 495 175 348 175 C199 175 81 297 81 447 C81 595 200 719 348 719 C495 719 613 595 613 447 L613 447 Z M471 531 C471 623 423 649 364 649 C312 649 233 649 233 649 L233 245 L310 245 L310 402 C310 402 334 402 350 402 C370 402 382 388 382 361 C382 340 382 345 382 294 C382 267 386 251 389 245 L467 245 C463 251 461 273 461 290 C461 386 456 427 391 434 C446 440 471 475 471 531 L471 531 Z M387 527 C387 478 374 462 350 462 C334 462 310 462 310 462 L310 593 C310 593 335 593 349 593 C373 593 387 578 387 527 L387 527 Z " />
<glyph glyph-name="macron" unicode="&#xaf;" horiz-adv-x="370" d="M315 622 L315 698 L53 698 L53 622 L315 622 Z " />
<glyph glyph-name="degree" unicode="&#xb0;" horiz-adv-x="366" d="M310 654 C310 723 253 780 183 780 C113 780 56 723 56 654 C56 585 113 528 183 528 C253 528 310 585 310 654 L310 654 Z M243 654 C243 616 218 588 183 588 C148 588 123 616 123 654 C123 692 148 720 183 720 C218 720 243 692 243 654 L243 654 Z " />
<glyph glyph-name="plusminus" unicode="&#xb1;" horiz-adv-x="719" d="M689 0 L689 768 L538 768 C519 774 496 780 458 780 C403 780 359 766 335 738 C311 765 267 780 208 780 C113 780 53 738 53 650 C53 615 53 573 54 561 L-1 561 L-1 479 L54 479 L54 0 L189 0 L189 479 L304 479 L304 0 L439 0 L439 479 L554 479 L554 0 L689 0 Z M554 561 L432 561 C429 578 427 632 427 652 C427 688 439 700 480 700 C520 700 554 673 554 616 C554 598 554 561 554 561 L554 561 Z M304 561 L182 561 C179 578 177 632 177 652 C177 688 189 700 230 700 C270 700 303 674 303 618 C303 600 303 578 304 561 L304 561 Z " />
<glyph glyph-name="twosuperior" unicode="&#xb2;" horiz-adv-x="461" d="M426 352 C426 535 339 684 231 684 C124 684 35 535 35 352 C35 171 124 23 231 23 C339 23 426 171 426 352 L426 352 Z M400 268 L288 261 L237 91 L193 271 L74 289 L166 375 L98 455 L188 468 L227 616 L280 480 L356 488 L317 379 L400 268 Z " />
<glyph glyph-name="threesuperior" unicode="&#xb3;" horiz-adv-x="461" d="M426 352 C426 535 339 684 231 684 C124 684 35 535 35 352 C35 171 124 23 231 23 C339 23 426 171 426 352 L426 352 Z M400 268 L288 261 L237 91 L193 271 L74 289 L166 375 L98 455 L188 468 L227 616 L280 480 L356 488 L317 379 L400 268 Z " />
<glyph glyph-name="acute" unicode="&#xb4;" horiz-adv-x="370" d="M300 730 L137 730 L76 605 L153 605 L300 730 Z " />
<glyph glyph-name="mu" unicode="&#xb5;" horiz-adv-x="461" d="M426 352 C426 535 339 684 231 684 C124 684 35 535 35 352 C35 171 124 23 231 23 C339 23 426 171 426 352 L426 352 Z M400 268 L288 261 L237 91 L193 271 L74 289 L166 375 L98 455 L188 468 L227 616 L280 480 L356 488 L317 379 L400 268 Z " />
<glyph glyph-name="paragraph" unicode="&#xb6;" horiz-adv-x="546" d="M490 -24 L490 768 L228 768 C130 768 30 709 30 517 C30 346 127 274 274 274 L274 -24 L359 -24 L359 701 L405 701 L405 -24 L490 -24 Z M274 342 C227 350 205 370 205 516 C205 673 227 701 274 701 L274 342 Z " />
<glyph glyph-name="periodcentered" unicode="&#xb7;" horiz-adv-x="292" d="M244 398 C244 454 200 500 146 500 C92 500 48 454 48 398 C48 342 92 296 146 296 C200 296 244 342 244 398 L244 398 Z " />
<glyph glyph-name="cedilla" unicode="&#xb8;" horiz-adv-x="370" d="M308 -106 C308 -57 267 -20 197 -20 C190 -20 156 -20 156 -20 L137 -85 C152 -80 166 -78 178 -78 C200 -78 214 -89 214 -109 C214 -128 205 -138 180 -138 C133 -138 107 -127 79 -108 L45 -160 C68 -179 121 -196 183 -196 C262 -196 308 -160 308 -106 L308 -106 Z " />
<glyph glyph-name="onesuperior" unicode="&#xb9;" horiz-adv-x="461" d="M426 352 C426 535 339 684 231 684 C124 684 35 535 35 352 C35 171 124 23 231 23 C339 23 426 171 426 352 L426 352 Z M400 268 L288 261 L237 91 L193 271 L74 289 L166 375 L98 455 L188 468 L227 616 L280 480 L356 488 L317 379 L400 268 Z " />
<glyph glyph-name="ordmasculine" unicode="&#xba;" horiz-adv-x="430" d="M356 579 C356 712 312 780 207 780 C101 780 59 716 59 579 C59 440 106 390 207 390 C311 390 356 439 356 579 L356 579 Z M366 308 L366 356 L48 356 L48 308 L366 308 Z M253 580 C253 465 243 445 207 445 C174 445 162 466 162 580 C162 701 174 724 207 724 C242 724 253 701 253 580 L253 580 Z " />
<glyph glyph-name="guillemotright" unicode="&#xbb;" horiz-adv-x="557" d="M515 205 L515 337 L289 505 L289 385 L435 271 L289 157 L289 37 L515 205 Z M274 205 L274 337 L48 505 L48 385 L194 271 L48 157 L48 37 L274 205 Z " />
<glyph glyph-name="onequarter" unicode="&#xbc;" horiz-adv-x="461" d="M426 352 C426 535 339 684 231 684 C124 684 35 535 35 352 C35 171 124 23 231 23 C339 23 426 171 426 352 L426 352 Z M400 268 L288 261 L237 91 L193 271 L74 289 L166 375 L98 455 L188 468 L227 616 L280 480 L356 488 L317 379 L400 268 Z " />
<glyph glyph-name="onehalf" unicode="&#xbd;" horiz-adv-x="461" d="M426 352 C426 535 339 684 231 684 C124 684 35 535 35 352 C35 171 124 23 231 23 C339 23 426 171 426 352 L426 352 Z M400 268 L288 261 L237 91 L193 271 L74 289 L166 375 L98 455 L188 468 L227 616 L280 480 L356 488 L317 379 L400 268 Z " />
<glyph glyph-name="threequarters" unicode="&#xbe;" horiz-adv-x="461" d="M426 352 C426 535 339 684 231 684 C124 684 35 535 35 352 C35 171 124 23 231 23 C339 23 426 171 426 352 L426 352 Z M400 268 L288 261 L237 91 L193 271 L74 289 L166 375 L98 455 L188 468 L227 616 L280 480 L356 488 L317 379 L400 268 Z " />
<glyph glyph-name="questiondown" unicode="&#xbf;" horiz-adv-x="439" d="M383 598 L383 768 L234 768 L234 598 L383 598 Z M404 139 C404 170 401 189 395 206 L268 207 C271 196 274 177 274 157 C274 111 262 92 233 92 C195 92 182 114 182 235 C182 340 193 358 220 358 C248 358 260 344 271 290 L365 290 L365 534 L262 534 L262 429 C245 452 220 471 174 471 C93 471 35 423 35 234 C35 57 104 -12 222 -12 C350 -12 404 54 404 139 L404 139 Z " />
<glyph glyph-name="Agrave" unicode="&#xc0;" horiz-adv-x="454" d="M454 0 L295 771 L147 771 L0 0 L139 0 L163 141 L274 141 L300 0 L454 0 Z M255 247 L181 247 C181 247 194 352 206 447 C212 493 215 538 217 564 C219 538 223 493 229 446 C241 352 255 247 255 247 L255 247 Z M277 794 L216 919 L53 919 L200 794 L277 794 Z " />
<glyph glyph-name="Aacute" unicode="&#xc1;" horiz-adv-x="454" d="M454 0 L295 771 L147 771 L0 0 L139 0 L163 141 L274 141 L300 0 L454 0 Z M255 247 L181 247 C181 247 194 352 206 447 C212 493 215 538 217 564 C219 538 223 493 229 446 C241 352 255 247 255 247 L255 247 Z M389 919 L226 919 L165 794 L242 794 L389 919 Z " />
<glyph glyph-name="Acircumflex" unicode="&#xc2;" horiz-adv-x="454" d="M454 0 L295 771 L147 771 L0 0 L139 0 L163 141 L274 141 L300 0 L454 0 Z M255 247 L181 247 C181 247 194 352 206 447 C212 493 215 538 217 564 C219 538 223 493 229 446 C241 352 255 247 255 247 L255 247 Z M365 794 L283 908 L161 908 L78 794 L156 794 L221 843 L288 794 L365 794 Z " />
<glyph glyph-name="Atilde" unicode="&#xc3;" horiz-adv-x="454" d="M454 0 L295 771 L147 771 L0 0 L139 0 L163 141 L274 141 L300 0 L454 0 Z M255 247 L181 247 C181 247 194 352 206 447 C212 493 215 538 217 564 C219 538 223 493 229 446 C241 352 255 247 255 247 L255 247 Z M363 862 C363 884 355 902 352 907 L303 907 C307 895 311 866 280 866 C268 866 257 870 247 876 C242 879 230 887 227 889 C201 906 183 914 150 914 C88 914 73 880 73 846 C73 822 80 808 83 802 L132 802 C129 815 124 840 155 840 C168 840 179 835 189 828 C193 825 203 819 207 816 C233 801 247 794 280 794 C343 794 363 828 363 862 L363 862 Z " />
<glyph glyph-name="Adieresis" unicode="&#xc4;" horiz-adv-x="454" d="M454 0 L295 771 L147 771 L0 0 L139 0 L163 141 L274 141 L300 0 L454 0 Z M255 247 L181 247 C181 247 194 352 206 447 C212 493 215 538 217 564 C219 538 223 493 229 446 C241 352 255 247 255 247 L255 247 Z M389 794 L389 915 L272 915 L272 794 L389 794 Z M172 794 L172 915 L57 915 L57 794 L172 794 Z " />
<glyph glyph-name="Aring" unicode="&#xc5;" horiz-adv-x="454" d="M454 0 L301 740 C328 761 345 799 345 834 C345 903 289 958 221 958 C152 958 97 903 97 834 C97 799 113 759 141 741 L0 0 L139 0 L163 141 L274 141 L300 0 L454 0 Z M283 834 C283 800 255 771 221 771 C186 771 158 800 158 834 C158 869 186 898 221 898 C255 898 283 869 283 834 L283 834 Z M255 247 L181 247 C181 247 194 352 206 447 C212 493 215 538 217 564 C219 538 223 493 229 446 C241 352 255 247 255 247 L255 247 Z " />
<glyph glyph-name="AE" unicode="&#xc6;" horiz-adv-x="699" d="M681 0 L681 121 L464 121 L464 332 L637 332 L637 455 L464 455 L464 648 L659 648 L659 768 L249 768 L-3 0 L144 0 L184 141 L318 141 L318 0 L681 0 Z M320 625 C318 595 318 583 318 561 C318 433 318 252 318 252 L219 252 C219 252 284 498 304 567 C308 582 313 597 320 625 L320 625 Z " />
<glyph glyph-name="Ccedilla" unicode="&#xc7;" horiz-adv-x="469" d="M451 248 C451 268 450 293 447 313 L314 317 C317 291 318 259 318 238 C318 147 309 86 253 86 C185 86 178 136 178 377 C178 632 190 684 248 684 C296 684 307 634 307 539 C307 525 306 499 304 479 L440 483 C442 498 444 521 444 545 C444 669 422 780 248 780 C75 780 27 669 27 371 C27 81 79 -14 254 -14 C405 -14 451 73 451 248 L451 248 Z M366 -106 C366 -57 325 -20 255 -20 C248 -20 214 -20 214 -20 L195 -85 C210 -80 224 -78 236 -78 C258 -78 272 -89 272 -109 C272 -128 263 -138 238 -138 C191 -138 165 -127 137 -108 L103 -160 C126 -179 179 -196 241 -196 C320 -196 366 -160 366 -106 L366 -106 Z " />
<glyph glyph-name="Egrave" unicode="&#xc8;" horiz-adv-x="419" d="M401 0 L401 121 L194 121 L194 332 L357 332 L357 455 L194 455 L194 648 L379 648 L379 768 L48 768 L48 0 L401 0 Z M326 791 L265 916 L102 916 L249 791 L326 791 Z " />
<glyph glyph-name="Eacute" unicode="&#xc9;" horiz-adv-x="419" d="M401 0 L401 121 L194 121 L194 332 L357 332 L357 455 L194 455 L194 648 L379 648 L379 768 L48 768 L48 0 L401 0 Z M327 916 L164 916 L103 791 L180 791 L327 916 Z " />
<glyph glyph-name="Ecircumflex" unicode="&#xca;" horiz-adv-x="419" d="M401 0 L401 121 L194 121 L194 332 L357 332 L357 455 L194 455 L194 648 L379 648 L379 768 L48 768 L48 0 L401 0 Z M357 791 L275 905 L153 905 L70 791 L148 791 L213 840 L280 791 L357 791 Z " />
<glyph glyph-name="Edieresis" unicode="&#xcb;" horiz-adv-x="419" d="M401 0 L401 121 L194 121 L194 332 L357 332 L357 455 L194 455 L194 648 L379 648 L379 768 L48 768 L48 0 L401 0 Z M380 791 L380 912 L263 912 L263 791 L380 791 Z M163 791 L163 912 L48 912 L48 791 L163 791 Z " />
<glyph glyph-name="Igrave" unicode="&#xcc;" horiz-adv-x="242" d="M194 0 L194 768 L48 768 L48 0 L194 0 Z M184 791 L123 916 L-40 916 L107 791 L184 791 Z " />
<glyph glyph-name="Iacute" unicode="&#xcd;" horiz-adv-x="242" d="M194 0 L194 768 L48 768 L48 0 L194 0 Z M282 916 L119 916 L58 791 L135 791 L282 916 Z " />
<glyph glyph-name="Icircumflex" unicode="&#xce;" horiz-adv-x="242" d="M194 0 L194 768 L48 768 L48 0 L194 0 Z M264 791 L182 905 L60 905 L-23 791 L55 791 L120 840 L187 791 L264 791 Z " />
<glyph glyph-name="Idieresis" unicode="&#xcf;" horiz-adv-x="242" d="M194 0 L194 768 L48 768 L48 0 L194 0 Z M286 791 L286 912 L169 912 L169 791 L286 791 Z M69 791 L69 912 L-46 912 L-46 791 L69 791 Z " />
<glyph glyph-name="Eth" unicode="&#xd0;" horiz-adv-x="497" d="M473 354 C473 664 399 768 234 768 C161 768 48 768 48 768 L48 453 L7 453 L7 334 L48 334 L48 0 C48 0 167 0 243 0 C411 0 473 95 473 354 L473 354 Z M322 356 C322 143 301 106 221 106 C207 106 192 106 192 106 L192 334 L259 334 L259 453 L192 453 L192 666 C192 666 202 666 214 666 C292 666 322 604 322 356 L322 356 Z " />
<glyph glyph-name="Ntilde" unicode="&#xd1;" horiz-adv-x="501" d="M456 0 L456 768 L323 768 C323 768 323 593 323 484 C323 424 324 373 328 323 C318 370 310 393 299 422 C249 553 176 768 176 768 L48 768 L48 0 L181 0 C181 0 181 203 181 308 C181 360 179 405 175 459 C187 409 196 385 207 355 C258 211 332 0 332 0 L456 0 Z M401 859 C401 881 393 899 390 904 L341 904 C345 892 349 863 318 863 C306 863 295 867 285 873 C280 876 268 884 265 886 C239 903 221 911 188 911 C126 911 111 877 111 843 C111 819 118 805 121 799 L170 799 C167 812 162 837 193 837 C206 837 217 832 227 825 C231 822 241 816 245 813 C271 798 285 791 318 791 C381 791 401 825 401 859 L401 859 Z " />
<glyph glyph-name="Ograve" unicode="&#xd2;" horiz-adv-x="501" d="M474 383 C474 695 405 780 250 780 C95 780 27 698 27 383 C27 57 95 -14 250 -14 C405 -14 474 64 474 383 L474 383 Z M323 383 C323 149 317 86 250 86 C185 86 178 149 178 383 C178 609 183 684 250 684 C317 684 323 609 323 383 L323 383 Z M308 800 L247 925 L84 925 L231 800 L308 800 Z " />
<glyph glyph-name="Oacute" unicode="&#xd3;" horiz-adv-x="501" d="M474 383 C474 695 405 780 250 780 C95 780 27 698 27 383 C27 57 95 -14 250 -14 C405 -14 474 64 474 383 L474 383 Z M323 383 C323 149 317 86 250 86 C185 86 178 149 178 383 C178 609 183 684 250 684 C317 684 323 609 323 383 L323 383 Z M416 925 L253 925 L192 800 L269 800 L416 925 Z " />
<glyph glyph-name="Ocircumflex" unicode="&#xd4;" horiz-adv-x="501" d="M474 383 C474 695 405 780 250 780 C95 780 27 698 27 383 C27 57 95 -14 250 -14 C405 -14 474 64 474 383 L474 383 Z M323 383 C323 149 317 86 250 86 C185 86 178 149 178 383 C178 609 183 684 250 684 C317 684 323 609 323 383 L323 383 Z M393 800 L311 914 L189 914 L106 800 L184 800 L249 849 L316 800 L393 800 Z " />
<glyph glyph-name="Otilde" unicode="&#xd5;" horiz-adv-x="501" d="M474 383 C474 695 405 780 250 780 C95 780 27 698 27 383 C27 57 95 -14 250 -14 C405 -14 474 64 474 383 L474 383 Z M323 383 C323 149 317 86 250 86 C185 86 178 149 178 383 C178 609 183 684 250 684 C317 684 323 609 323 383 L323 383 Z M393 868 C393 890 385 908 382 913 L333 913 C337 901 341 872 310 872 C298 872 287 876 277 882 C272 885 260 893 257 895 C231 912 213 920 180 920 C118 920 103 886 103 852 C103 828 110 814 113 808 L162 808 C159 821 154 846 185 846 C198 846 209 841 219 834 C223 831 233 825 237 822 C263 807 277 800 310 800 C373 800 393 834 393 868 L393 868 Z " />
<glyph glyph-name="Odieresis" unicode="&#xd6;" horiz-adv-x="501" d="M474 383 C474 695 405 780 250 780 C95 780 27 698 27 383 C27 57 95 -14 250 -14 C405 -14 474 64 474 383 L474 383 Z M323 383 C323 149 317 86 250 86 C185 86 178 149 178 383 C178 609 183 684 250 684 C317 684 323 609 323 383 L323 383 Z M418 800 L418 921 L301 921 L301 800 L418 800 Z M201 800 L201 921 L86 921 L86 800 L201 800 Z " />
<glyph glyph-name="multiply" unicode="&#xd7;" horiz-adv-x="461" d="M426 352 C426 535 339 684 231 684 C124 684 35 535 35 352 C35 171 124 23 231 23 C339 23 426 171 426 352 L426 352 Z M400 268 L288 261 L237 91 L193 271 L74 289 L166 375 L98 455 L188 468 L227 616 L280 480 L356 488 L317 379 L400 268 Z " />
<glyph glyph-name="Oslash" unicode="&#xd8;" horiz-adv-x="501" d="M491 780 L430 780 L400 725 C364 767 313 780 250 780 C95 780 27 698 27 383 C27 240 39 154 65 93 L10 -11 L71 -11 L98 39 C134 -1 185 -14 250 -14 C405 -14 474 64 474 383 C474 522 463 608 433 672 L491 780 Z M319 570 L177 303 C176 331 178 348 178 383 C178 609 183 684 250 684 C292 684 313 652 319 570 L319 570 Z M323 383 C323 149 315 86 250 86 C207 86 190 117 183 199 L323 463 C324 434 323 419 323 383 L323 383 Z " />
<glyph glyph-name="Ugrave" unicode="&#xd9;" horiz-adv-x="498" d="M453 204 C453 428 453 768 453 768 L307 768 C307 768 307 433 307 213 C307 144 299 99 249 99 C197 99 191 141 191 213 C191 433 191 768 191 768 L45 768 C45 768 45 428 45 204 C45 72 91 -14 249 -14 C407 -14 453 72 453 204 L453 204 Z M350 791 L289 916 L126 916 L273 791 L350 791 Z " />
<glyph glyph-name="Uacute" unicode="&#xda;" horiz-adv-x="498" d="M453 204 C453 428 453 768 453 768 L307 768 C307 768 307 433 307 213 C307 144 299 99 249 99 C197 99 191 141 191 213 C191 433 191 768 191 768 L45 768 C45 768 45 428 45 204 C45 72 91 -14 249 -14 C407 -14 453 72 453 204 L453 204 Z M369 916 L206 916 L145 791 L222 791 L369 916 Z " />
<glyph glyph-name="Ucircumflex" unicode="&#xdb;" horiz-adv-x="498" d="M453 204 C453 428 453 768 453 768 L307 768 C307 768 307 433 307 213 C307 144 299 99 249 99 C197 99 191 141 191 213 C191 433 191 768 191 768 L45 768 C45 768 45 428 45 204 C45 72 91 -14 249 -14 C407 -14 453 72 453 204 L453 204 Z M392 791 L310 905 L188 905 L105 791 L183 791 L248 840 L315 791 L392 791 Z " />
<glyph glyph-name="Udieresis" unicode="&#xdc;" horiz-adv-x="498" d="M453 204 C453 428 453 768 453 768 L307 768 C307 768 307 433 307 213 C307 144 299 99 249 99 C197 99 191 141 191 213 C191 433 191 768 191 768 L45 768 C45 768 45 428 45 204 C45 72 91 -14 249 -14 C407 -14 453 72 453 204 L453 204 Z M417 791 L417 912 L300 912 L300 791 L417 791 Z M200 791 L200 912 L85 912 L85 791 L200 791 Z " />
<glyph glyph-name="Yacute" unicode="&#xdd;" horiz-adv-x="453" d="M453 768 L316 768 L235 471 L151 768 L0 768 L155 303 L155 0 L301 0 L301 303 L453 768 Z M396 916 L233 916 L172 791 L249 791 L396 916 Z " />
<glyph glyph-name="Thorn" unicode="&#xde;" horiz-adv-x="471" d="M449 391 C449 561 381 626 241 626 C224 626 194 626 194 626 L194 768 L48 768 L48 0 L194 0 L194 153 C194 153 227 153 255 153 C386 153 449 212 449 391 L449 391 Z M298 389 C298 296 288 259 234 259 C215 259 194 259 194 259 L194 524 C194 524 204 524 217 524 C280 524 298 489 298 389 L298 389 Z " />
<glyph glyph-name="germandbls" unicode="&#xdf;" horiz-adv-x="476" d="M452 217 C452 349 404 400 329 414 C392 427 424 478 424 574 C424 696 375 780 241 780 C105 780 48 720 48 581 C48 355 48 0 48 0 L183 0 C183 0 183 367 183 602 C183 655 196 682 237 682 C279 682 292 659 292 578 C292 488 277 456 228 456 L228 356 C282 356 307 323 307 228 C307 111 293 91 228 91 L228 0 C228 0 244 0 254 0 C394 0 452 53 452 217 L452 217 Z " />
<glyph glyph-name="agrave" unicode="&#xe0;" horiz-adv-x="436" d="M434 11 L434 90 C429 88 420 87 415 87 C385 87 381 103 381 126 C381 242 381 318 381 422 C381 532 330 573 205 573 C88 573 37 524 37 441 C37 411 43 393 47 382 L163 387 C160 399 157 413 157 432 C157 469 160 491 201 491 C249 491 248 454 248 407 C248 368 230 346 177 331 C170 329 150 324 144 322 C68 303 21 258 21 158 C21 34 71 -11 158 -11 C211 -11 246 7 272 48 C280 8 306 -8 353 -8 C386 -8 413 1 434 11 L434 11 Z M247 156 C247 117 240 78 199 78 C169 78 157 98 157 151 C157 207 161 230 210 251 C228 259 238 264 247 272 C247 272 247 202 247 156 L247 156 Z M299 626 L238 751 L75 751 L222 626 L299 626 Z " />
<glyph glyph-name="aacute" unicode="&#xe1;" horiz-adv-x="436" d="M434 11 L434 90 C429 88 420 87 415 87 C385 87 381 103 381 126 C381 242 381 318 381 422 C381 532 330 573 205 573 C88 573 37 524 37 441 C37 411 43 393 47 382 L163 387 C160 399 157 413 157 432 C157 469 160 491 201 491 C249 491 248 454 248 407 C248 368 230 346 177 331 C170 329 150 324 144 322 C68 303 21 258 21 158 C21 34 71 -11 158 -11 C211 -11 246 7 272 48 C280 8 306 -8 353 -8 C386 -8 413 1 434 11 L434 11 Z M247 156 C247 117 240 78 199 78 C169 78 157 98 157 151 C157 207 161 230 210 251 C228 259 238 264 247 272 C247 272 247 202 247 156 L247 156 Z M373 751 L210 751 L149 626 L226 626 L373 751 Z " />
<glyph glyph-name="acircumflex" unicode="&#xe2;" horiz-adv-x="436" d="M434 11 L434 90 C429 88 420 87 415 87 C385 87 381 103 381 126 C381 242 381 318 381 422 C381 532 330 573 205 573 C88 573 37 524 37 441 C37 411 43 393 47 382 L163 387 C160 399 157 413 157 432 C157 469 160 491 201 491 C249 491 248 454 248 407 C248 368 230 346 177 331 C170 329 150 324 144 322 C68 303 21 258 21 158 C21 34 71 -11 158 -11 C211 -11 246 7 272 48 C280 8 306 -8 353 -8 C386 -8 413 1 434 11 L434 11 Z M247 156 C247 117 240 78 199 78 C169 78 157 98 157 151 C157 207 161 230 210 251 C228 259 238 264 247 272 C247 272 247 202 247 156 L247 156 Z M356 626 L274 740 L152 740 L69 626 L147 626 L212 675 L279 626 L356 626 Z " />
<glyph glyph-name="atilde" unicode="&#xe3;" horiz-adv-x="436" d="M434 11 L434 90 C429 88 420 87 415 87 C385 87 381 103 381 126 C381 242 381 318 381 422 C381 532 330 573 205 573 C88 573 37 524 37 441 C37 411 43 393 47 382 L163 387 C160 399 157 413 157 432 C157 469 160 491 201 491 C249 491 248 454 248 407 C248 368 230 346 177 331 C170 329 150 324 144 322 C68 303 21 258 21 158 C21 34 71 -11 158 -11 C211 -11 246 7 272 48 C280 8 306 -8 353 -8 C386 -8 413 1 434 11 L434 11 Z M247 156 C247 117 240 78 199 78 C169 78 157 98 157 151 C157 207 161 230 210 251 C228 259 238 264 247 272 C247 272 247 202 247 156 L247 156 Z M359 694 C359 716 351 734 348 739 L299 739 C303 727 307 698 276 698 C264 698 253 702 243 708 C238 711 226 719 223 721 C197 738 179 746 146 746 C84 746 69 712 69 678 C69 654 76 640 79 634 L128 634 C125 647 120 672 151 672 C164 672 175 667 185 660 C189 657 199 651 203 648 C229 633 243 626 276 626 C339 626 359 660 359 694 L359 694 Z " />
<glyph glyph-name="adieresis" unicode="&#xe4;" horiz-adv-x="436" d="M434 11 L434 90 C429 88 420 87 415 87 C385 87 381 103 381 126 C381 242 381 318 381 422 C381 532 330 573 205 573 C88 573 37 524 37 441 C37 411 43 393 47 382 L163 387 C160 399 157 413 157 432 C157 469 160 491 201 491 C249 491 248 454 248 407 C248 368 230 346 177 331 C170 329 150 324 144 322 C68 303 21 258 21 158 C21 34 71 -11 158 -11 C211 -11 246 7 272 48 C280 8 306 -8 353 -8 C386 -8 413 1 434 11 L434 11 Z M247 156 C247 117 240 78 199 78 C169 78 157 98 157 151 C157 207 161 230 210 251 C228 259 238 264 247 272 C247 272 247 202 247 156 L247 156 Z M378 626 L378 747 L261 747 L261 626 L378 626 Z M161 626 L161 747 L46 747 L46 626 L161 626 Z " />
<glyph glyph-name="aring" unicode="&#xe5;" horiz-adv-x="436" d="M434 11 L434 90 C429 88 420 87 415 87 C385 87 381 103 381 126 C381 242 381 318 381 422 C381 532 330 573 205 573 C88 573 37 524 37 441 C37 411 43 393 47 382 L163 387 C160 399 157 413 157 432 C157 469 160 491 201 491 C249 491 248 454 248 407 C248 368 230 346 177 331 C170 329 150 324 144 322 C68 303 21 258 21 158 C21 34 71 -11 158 -11 C211 -11 246 7 272 48 C280 8 306 -8 353 -8 C386 -8 413 1 434 11 L434 11 Z M247 156 C247 117 240 78 199 78 C169 78 157 98 157 151 C157 207 161 230 210 251 C228 259 238 264 247 272 C247 272 247 202 247 156 L247 156 Z M332 720 C332 789 276 844 208 844 C139 844 84 789 84 720 C84 652 139 596 208 596 C276 596 332 652 332 720 L332 720 Z M270 720 C270 686 242 657 208 657 C173 657 145 686 145 720 C145 755 173 784 208 784 C242 784 270 755 270 720 L270 720 Z " />
<glyph glyph-name="ae" unicode="&#xe6;" horiz-adv-x="640" d="M617 141 C617 156 616 179 613 193 L496 199 C497 191 497 178 497 167 C497 99 486 80 448 80 C400 80 385 117 385 225 C385 236 385 248 385 254 L612 254 C614 266 616 288 616 308 C616 486 563 573 445 573 C403 573 358 562 332 529 C309 562 263 573 205 573 C88 573 37 524 37 441 C37 411 43 393 47 382 L163 387 C160 399 157 413 157 432 C157 469 160 491 201 491 C249 491 258 454 258 407 C258 368 230 346 177 331 C170 329 150 324 144 322 C68 303 21 258 21 158 C21 34 71 -11 158 -11 C247 -11 283 32 297 61 C327 6 374 -11 450 -11 C577 -11 617 57 617 141 L617 141 Z M491 363 C491 355 491 342 490 335 L385 335 C388 436 398 483 444 483 C485 483 491 448 491 363 L491 363 Z M257 156 C257 117 240 78 199 78 C169 78 157 98 157 151 C157 207 161 230 210 251 C228 259 250 270 257 279 C257 279 257 202 257 156 L257 156 Z " />
<glyph glyph-name="ccedilla" unicode="&#xe7;" horiz-adv-x="400" d="M380 155 C380 183 376 216 371 235 L252 240 C254 222 256 196 256 181 C256 115 249 80 213 80 C165 80 159 114 159 286 C159 449 172 485 210 485 C243 485 247 455 247 396 C247 380 245 358 243 349 L366 353 C369 367 369 389 369 408 C369 511 330 573 214 573 C96 573 23 517 23 273 C23 64 69 -11 210 -11 C336 -11 380 55 380 155 L380 155 Z M330 -106 C330 -57 289 -20 219 -20 C212 -20 178 -20 178 -20 L159 -85 C174 -80 188 -78 200 -78 C222 -78 236 -89 236 -109 C236 -128 227 -138 202 -138 C155 -138 129 -127 101 -108 L67 -160 C90 -179 143 -196 205 -196 C284 -196 330 -160 330 -106 L330 -106 Z " />
<glyph glyph-name="egrave" unicode="&#xe8;" horiz-adv-x="404" d="M381 141 C381 156 380 179 377 193 L260 199 C261 191 261 178 261 167 C261 111 256 80 212 80 C164 80 159 119 159 225 C159 236 159 248 159 254 L376 254 C378 266 380 288 380 308 C380 486 331 573 209 573 C90 573 23 506 23 264 C23 56 75 -11 214 -11 C341 -11 381 57 381 141 L381 141 Z M255 363 C255 355 255 342 254 335 L159 335 C162 436 166 483 208 483 C249 483 255 440 255 363 L255 363 Z M290 626 L229 751 L66 751 L213 626 L290 626 Z " />
<glyph glyph-name="eacute" unicode="&#xe9;" horiz-adv-x="404" d="M381 141 C381 156 380 179 377 193 L260 199 C261 191 261 178 261 167 C261 111 256 80 212 80 C164 80 159 119 159 225 C159 236 159 248 159 254 L376 254 C378 266 380 288 380 308 C380 486 331 573 209 573 C90 573 23 506 23 264 C23 56 75 -11 214 -11 C341 -11 381 57 381 141 L381 141 Z M255 363 C255 355 255 342 254 335 L159 335 C162 436 166 483 208 483 C249 483 255 440 255 363 L255 363 Z M348 751 L185 751 L124 626 L201 626 L348 751 Z " />
<glyph glyph-name="ecircumflex" unicode="&#xea;" horiz-adv-x="404" d="M381 141 C381 156 380 179 377 193 L260 199 C261 191 261 178 261 167 C261 111 256 80 212 80 C164 80 159 119 159 225 C159 236 159 248 159 254 L376 254 C378 266 380 288 380 308 C380 486 331 573 209 573 C90 573 23 506 23 264 C23 56 75 -11 214 -11 C341 -11 381 57 381 141 L381 141 Z M255 363 C255 355 255 342 254 335 L159 335 C162 436 166 483 208 483 C249 483 255 440 255 363 L255 363 Z M348 626 L266 740 L144 740 L61 626 L139 626 L204 675 L271 626 L348 626 Z " />
<glyph glyph-name="edieresis" unicode="&#xeb;" horiz-adv-x="404" d="M381 141 C381 156 380 179 377 193 L260 199 C261 191 261 178 261 167 C261 111 256 80 212 80 C164 80 159 119 159 225 C159 236 159 248 159 254 L376 254 C378 266 380 288 380 308 C380 486 331 573 209 573 C90 573 23 506 23 264 C23 56 75 -11 214 -11 C341 -11 381 57 381 141 L381 141 Z M255 363 C255 355 255 342 254 335 L159 335 C162 436 166 483 208 483 C249 483 255 440 255 363 L255 363 Z M373 626 L373 747 L256 747 L256 626 L373 626 Z M156 626 L156 747 L41 747 L41 626 L156 626 Z " />
<glyph glyph-name="igrave" unicode="&#xec;" horiz-adv-x="215" d="M175 0 L175 561 L40 561 L40 0 L175 0 Z M165 610 L104 735 L-59 735 L88 610 L165 610 Z " />
<glyph glyph-name="iacute" unicode="&#xed;" horiz-adv-x="215" d="M175 0 L175 561 L40 561 L40 0 L175 0 Z M274 735 L111 735 L50 610 L127 610 L274 735 Z " />
<glyph glyph-name="icircumflex" unicode="&#xee;" horiz-adv-x="215" d="M175 0 L175 561 L40 561 L40 0 L175 0 Z M251 610 L169 724 L47 724 L-36 610 L42 610 L107 659 L174 610 L251 610 Z " />
<glyph glyph-name="idieresis" unicode="&#xef;" horiz-adv-x="215" d="M175 0 L175 561 L40 561 L40 0 L175 0 Z M275 610 L275 731 L158 731 L158 610 L275 610 Z M58 610 L58 731 L-57 731 L-57 610 L58 610 Z " />
<glyph glyph-name="eth" unicode="&#xf0;" horiz-adv-x="431" d="M429 708 C429 747 401 772 390 777 L354 759 C363 753 376 736 376 719 C376 708 371 704 360 701 C353 699 347 702 343 705 C305 779 250 797 191 797 C129 797 83 776 56 755 L101 687 C125 707 152 718 178 718 C198 718 222 715 236 687 C228 692 217 693 206 691 C181 686 160 666 160 642 C160 613 170 594 192 579 L234 600 C226 606 219 614 219 625 C219 635 225 641 237 644 C240 645 249 644 255 641 C263 625 276 573 276 528 C261 540 234 546 213 546 C74 546 23 458 23 263 C23 61 72 -11 213 -11 C357 -11 403 59 403 290 C403 447 393 576 363 651 C406 651 429 676 429 708 L429 708 Z M267 263 C267 109 257 80 213 80 C170 80 159 111 159 263 C159 424 168 458 213 458 C259 458 267 421 267 263 L267 263 Z " />
<glyph glyph-name="ntilde" unicode="&#xf1;" horiz-adv-x="435" d="M397 0 C397 0 397 274 397 447 C397 529 363 573 283 573 C219 573 190 538 171 492 L171 561 L40 561 L40 0 L175 0 C175 0 175 217 175 354 C175 433 189 471 225 471 C263 471 262 450 262 397 C262 243 262 0 262 0 L397 0 Z M364 678 C364 700 356 718 353 723 L304 723 C308 711 312 682 281 682 C269 682 258 686 248 692 C243 695 231 703 228 705 C202 722 184 730 151 730 C89 730 74 696 74 662 C74 638 81 624 84 618 L133 618 C130 631 125 656 156 656 C169 656 180 651 190 644 C194 641 204 635 208 632 C234 617 248 610 281 610 C344 610 364 644 364 678 L364 678 Z " />
<glyph glyph-name="ograve" unicode="&#xf2;" horiz-adv-x="426" d="M403 272 C403 487 351 573 213 573 C75 573 23 486 23 272 C23 57 75 -11 213 -11 C351 -11 403 57 403 272 L403 272 Z M267 272 C267 107 255 80 213 80 C167 80 159 107 159 272 C159 452 167 485 213 485 C259 485 267 452 267 272 L267 272 Z M303 626 L242 751 L79 751 L226 626 L303 626 Z " />
<glyph glyph-name="oacute" unicode="&#xf3;" horiz-adv-x="426" d="M403 272 C403 487 351 573 213 573 C75 573 23 486 23 272 C23 57 75 -11 213 -11 C351 -11 403 57 403 272 L403 272 Z M267 272 C267 107 255 80 213 80 C167 80 159 107 159 272 C159 452 167 485 213 485 C259 485 267 452 267 272 L267 272 Z M354 751 L191 751 L130 626 L207 626 L354 751 Z " />
<glyph glyph-name="ocircumflex" unicode="&#xf4;" horiz-adv-x="426" d="M403 272 C403 487 351 573 213 573 C75 573 23 486 23 272 C23 57 75 -11 213 -11 C351 -11 403 57 403 272 L403 272 Z M267 272 C267 107 255 80 213 80 C167 80 159 107 159 272 C159 452 167 485 213 485 C259 485 267 452 267 272 L267 272 Z M358 626 L276 740 L154 740 L71 626 L149 626 L214 675 L281 626 L358 626 Z " />
<glyph glyph-name="otilde" unicode="&#xf5;" horiz-adv-x="426" d="M403 272 C403 487 351 573 213 573 C75 573 23 486 23 272 C23 57 75 -11 213 -11 C351 -11 403 57 403 272 L403 272 Z M267 272 C267 107 255 80 213 80 C167 80 159 107 159 272 C159 452 167 485 213 485 C259 485 267 452 267 272 L267 272 Z M357 694 C357 716 349 734 346 739 L297 739 C301 727 305 698 274 698 C262 698 251 702 241 708 C236 711 224 719 221 721 C195 738 177 746 144 746 C82 746 67 712 67 678 C67 654 74 640 77 634 L126 634 C123 647 118 672 149 672 C162 672 173 667 183 660 C187 657 197 651 201 648 C227 633 241 626 274 626 C337 626 357 660 357 694 L357 694 Z " />
<glyph glyph-name="odieresis" unicode="&#xf6;" horiz-adv-x="426" d="M403 272 C403 487 351 573 213 573 C75 573 23 486 23 272 C23 57 75 -11 213 -11 C351 -11 403 57 403 272 L403 272 Z M267 272 C267 107 255 80 213 80 C167 80 159 107 159 272 C159 452 167 485 213 485 C259 485 267 452 267 272 L267 272 Z M379 626 L379 747 L262 747 L262 626 L379 626 Z M162 626 L162 747 L47 747 L47 626 L162 626 Z " />
<glyph glyph-name="divide" unicode="&#xf7;" horiz-adv-x="461" d="M426 352 C426 535 339 684 231 684 C124 684 35 535 35 352 C35 171 124 23 231 23 C339 23 426 171 426 352 L426 352 Z M400 268 L288 261 L237 91 L193 271 L74 289 L166 375 L98 455 L188 468 L227 616 L280 480 L356 488 L317 379 L400 268 Z " />
<glyph glyph-name="oslash" unicode="&#xf8;" horiz-adv-x="426" d="M410 573 L350 573 L330 539 C300 562 261 573 213 573 C75 573 23 486 23 272 C23 174 32 114 56 69 L10 -11 L70 -11 L91 22 C122 -1 162 -11 213 -11 C351 -11 403 57 403 272 C403 377 393 442 364 493 L410 573 Z M262 423 L159 245 C159 258 159 257 159 272 C159 452 168 485 213 485 C242 485 253 472 262 423 L262 423 Z M267 272 C267 107 256 80 213 80 C182 80 167 96 163 146 L266 326 C267 306 267 298 267 272 L267 272 Z " />
<glyph glyph-name="ugrave" unicode="&#xf9;" horiz-adv-x="431" d="M394 0 L394 561 L259 561 C259 561 259 335 259 205 C259 131 246 91 208 91 C167 91 172 118 172 167 C172 306 172 561 172 561 L37 561 C37 561 37 269 37 122 C37 26 76 -11 151 -11 C214 -11 244 16 265 69 L265 0 L394 0 Z M325 610 L264 735 L101 735 L248 610 L325 610 Z " />
<glyph glyph-name="uacute" unicode="&#xfa;" horiz-adv-x="431" d="M394 0 L394 561 L259 561 C259 561 259 335 259 205 C259 131 246 91 208 91 C167 91 172 118 172 167 C172 306 172 561 172 561 L37 561 C37 561 37 269 37 122 C37 26 76 -11 151 -11 C214 -11 244 16 265 69 L265 0 L394 0 Z M336 735 L173 735 L112 610 L189 610 L336 735 Z " />
<glyph glyph-name="ucircumflex" unicode="&#xfb;" horiz-adv-x="431" d="M394 0 L394 561 L259 561 C259 561 259 335 259 205 C259 131 246 91 208 91 C167 91 172 118 172 167 C172 306 172 561 172 561 L37 561 C37 561 37 269 37 122 C37 26 76 -11 151 -11 C214 -11 244 16 265 69 L265 0 L394 0 Z M357 610 L275 724 L153 724 L70 610 L148 610 L213 659 L280 610 L357 610 Z " />
<glyph glyph-name="udieresis" unicode="&#xfc;" horiz-adv-x="431" d="M394 0 L394 561 L259 561 C259 561 259 335 259 205 C259 131 246 91 208 91 C167 91 172 118 172 167 C172 306 172 561 172 561 L37 561 C37 561 37 269 37 122 C37 26 76 -11 151 -11 C214 -11 244 16 265 69 L265 0 L394 0 Z M382 610 L382 731 L265 731 L265 610 L382 610 Z M165 610 L165 731 L50 731 L50 610 L165 610 Z " />
<glyph glyph-name="yacute" unicode="&#xfd;" horiz-adv-x="414" d="M414 561 L284 561 C284 561 245 303 235 250 C231 227 225 194 221 165 C216 194 212 208 204 249 C184 348 142 561 142 561 L0 561 L154 -9 C160 -57 146 -83 115 -83 C89 -83 80 -70 80 -51 C80 -44 81 -32 84 -22 L-24 -27 C-27 -40 -28 -53 -28 -65 C-28 -134 27 -178 114 -178 C211 -178 254 -138 287 -3 C316 115 414 561 414 561 L414 561 Z M366 735 L203 735 L142 610 L219 610 L366 735 Z " />
<glyph glyph-name="thorn" unicode="&#xfe;" horiz-adv-x="440" d="M417 280 C417 518 343 573 261 573 C211 573 183 537 172 494 L172 768 L40 768 L40 -170 L172 -170 L172 43 C184 15 206 -11 248 -11 C351 -11 417 51 417 280 L417 280 Z M281 280 C281 101 267 76 226 76 C182 76 170 131 170 280 C170 432 185 475 223 475 C267 475 281 447 281 280 L281 280 Z " />
<glyph glyph-name="ydieresis" unicode="&#xff;" horiz-adv-x="414" d="M414 561 L284 561 C284 561 245 303 235 250 C231 227 225 194 221 165 C216 194 212 208 204 249 C184 348 142 561 142 561 L0 561 L154 -9 C160 -57 146 -83 115 -83 C89 -83 80 -70 80 -51 C80 -44 81 -32 84 -22 L-24 -27 C-27 -40 -28 -53 -28 -65 C-28 -134 27 -178 114 -178 C211 -178 254 -138 287 -3 C316 115 414 561 414 561 L414 561 Z M372 610 L372 731 L255 731 L255 610 L372 610 Z M155 610 L155 731 L40 731 L40 610 L155 610 Z " />
<glyph glyph-name="dotlessi" unicode="&#x131;" horiz-adv-x="215" d="M175 0 L175 561 L40 561 L40 0 L175 0 Z " />
<glyph glyph-name="Lslash" unicode="&#x141;" horiz-adv-x="411" d="M399 0 L399 124 L210 124 L210 307 L369 436 L310 509 L210 428 L210 768 L64 768 L64 310 L-29 235 L30 161 L64 188 L64 0 L399 0 Z " />
<glyph glyph-name="lslash" unicode="&#x142;" horiz-adv-x="241" d="M277 382 L219 456 L188 431 L188 768 L53 768 L53 324 L-34 255 L24 181 L53 204 L53 0 L188 0 L188 311 L277 382 Z " />
<glyph glyph-name="OE" unicode="&#x152;" horiz-adv-x="703" d="M685 0 L685 121 L468 121 L468 332 L641 332 L641 455 L468 455 L468 648 L663 648 L663 768 L336 768 C311 776 282 780 250 780 C95 780 27 698 27 383 C27 57 95 -14 250 -14 C285 -14 317 -10 344 0 L685 0 Z M322 167 C311 107 289 86 250 86 C181 86 178 149 178 383 C178 609 181 684 250 684 C289 684 311 660 322 596 L322 167 Z " />
<glyph glyph-name="oe" unicode="&#x153;" horiz-adv-x="668" d="M645 141 C645 156 644 179 641 193 L524 199 C525 191 525 178 525 167 C525 99 515 80 476 80 C428 80 413 117 413 225 C413 236 413 248 413 254 L640 254 C642 266 644 288 644 308 C644 486 595 573 473 573 C421 573 378 560 345 522 C314 557 269 573 213 573 C75 573 23 486 23 272 C23 57 75 -11 213 -11 C269 -11 314 1 345 33 C375 1 421 -11 478 -11 C605 -11 645 57 645 141 L645 141 Z M519 363 C519 355 519 342 518 335 L413 335 C416 436 426 483 472 483 C513 483 519 448 519 363 L519 363 Z M277 272 C277 111 263 80 213 80 C169 80 159 117 159 272 C159 444 169 485 213 485 C263 485 277 450 277 272 L277 272 Z " />
<glyph glyph-name="Scaron" unicode="&#x160;" horiz-adv-x="470" d="M442 214 C442 329 409 400 321 446 C294 460 264 473 242 484 C185 512 171 536 171 604 C171 654 179 683 221 683 C264 683 275 660 275 587 C275 568 272 540 269 527 L396 535 C401 556 406 581 406 601 C406 713 344 780 225 780 C91 780 32 700 32 572 C32 484 51 409 130 372 C157 359 185 347 199 340 C283 299 297 267 297 187 C297 111 280 89 233 89 C182 89 172 120 172 190 C172 215 176 249 181 269 L49 264 C42 242 36 209 36 180 C36 47 100 -14 232 -14 C382 -14 442 64 442 214 L442 214 Z M363 914 L286 914 L219 865 L154 914 L76 914 L159 800 L281 800 L363 914 Z " />
<glyph glyph-name="scaron" unicode="&#x161;" horiz-adv-x="387" d="M373 163 C373 260 343 312 261 342 C238 350 224 355 201 363 C165 376 153 395 153 432 C153 467 160 490 191 490 C225 490 231 473 231 432 C231 418 228 399 225 390 L342 395 C345 404 349 422 349 440 C349 525 300 573 189 573 C90 573 22 517 22 415 C22 322 50 284 114 259 C135 251 155 244 171 238 C222 219 233 193 233 143 C233 99 226 78 193 78 C146 78 141 100 141 144 C141 157 143 177 148 197 L31 193 C25 178 20 154 20 129 C20 43 79 -11 194 -11 C324 -11 373 54 373 163 L373 163 Z M331 724 L254 724 L187 675 L122 724 L44 724 L127 610 L249 610 L331 724 Z " />
<glyph glyph-name="Ydieresis" unicode="&#x178;" horiz-adv-x="453" d="M453 768 L316 768 L235 471 L151 768 L0 768 L155 303 L155 0 L301 0 L301 303 L453 768 Z M397 791 L397 912 L280 912 L280 791 L397 791 Z M180 791 L180 912 L65 912 L65 791 L180 791 Z " />
<glyph glyph-name="Zcaron" unicode="&#x17d;" horiz-adv-x="431" d="M404 0 L404 121 L167 121 L404 653 L404 768 L41 768 L41 648 L253 648 L17 119 L17 0 L404 0 Z M366 905 L289 905 L222 856 L157 905 L79 905 L162 791 L284 791 L366 905 Z " />
<glyph glyph-name="zcaron" unicode="&#x17e;" horiz-adv-x="365" d="M344 457 L344 561 L36 561 L36 463 L211 463 L17 100 L17 0 L343 0 L343 102 L154 102 L344 457 Z M329 724 L252 724 L185 675 L120 724 L42 724 L125 610 L247 610 L329 724 Z " />
<glyph glyph-name="florin" unicode="&#x192;" horiz-adv-x="312" d="M360 678 C360 742 314 780 218 780 C124 780 71 728 71 650 C71 615 71 515 72 503 L7 503 L7 421 L72 421 C72 421 72 193 72 76 C72 45 76 15 79 -1 C82 -19 84 -42 84 -56 C84 -83 72 -99 54 -99 C32 -99 22 -89 22 -57 C22 -41 25 -26 28 -16 L-61 -11 C-65 -22 -71 -50 -71 -78 C-71 -142 -27 -180 71 -180 C169 -180 218 -128 218 -50 L218 421 L298 421 L298 503 L210 503 C207 520 205 636 205 656 C205 683 217 699 235 699 C257 699 267 689 267 657 C267 641 264 626 261 616 L350 611 C354 622 360 650 360 678 L360 678 Z " />
<glyph glyph-name="circumflex" unicode="&#x2c6;" horiz-adv-x="370" d="M327 605 L245 719 L123 719 L40 605 L118 605 L183 654 L250 605 L327 605 Z " />
<glyph glyph-name="caron" unicode="&#x2c7;" horiz-adv-x="370" d="M327 719 L250 719 L183 670 L118 719 L40 719 L123 605 L245 605 L327 719 Z " />
<glyph glyph-name="breve" unicode="&#x2d8;" horiz-adv-x="370" d="M333 720 L256 720 C257 695 227 671 184 671 C141 671 113 695 113 720 L35 720 C35 641 78 605 184 605 C289 605 333 642 333 720 L333 720 Z " />
<glyph glyph-name="dotaccent" unicode="&#x2d9;" horiz-adv-x="370" d="M252 605 L252 726 L126 726 L126 605 L252 605 Z " />
<glyph glyph-name="ring" unicode="&#x2da;" horiz-adv-x="370" d="M309 710 C309 779 253 834 185 834 C116 834 61 779 61 710 C61 642 116 586 185 586 C253 586 309 642 309 710 L309 710 Z M247 710 C247 676 219 647 185 647 C150 647 122 676 122 710 C122 745 150 774 185 774 C219 774 247 745 247 710 L247 710 Z " />
<glyph glyph-name="ogonek" unicode="&#x2db;" horiz-adv-x="370" d="M288 -110 C288 -103 286 -93 285 -90 L221 -81 C222 -85 222 -91 222 -95 C222 -117 211 -132 189 -132 C171 -132 160 -120 160 -96 C160 -59 197 -27 248 0 L187 0 C124 -25 86 -65 86 -108 C86 -149 116 -179 183 -179 C257 -179 288 -148 288 -110 L288 -110 Z " />
<glyph glyph-name="tilde" unicode="&#x2dc;" horiz-adv-x="370" d="M329 673 C329 695 321 713 318 718 L269 718 C273 706 277 677 246 677 C234 677 223 681 213 687 C208 690 196 698 193 700 C167 717 149 725 116 725 C54 725 39 691 39 657 C39 633 46 619 49 613 L98 613 C95 626 90 651 121 651 C134 651 145 646 155 639 C159 636 169 630 173 627 C199 612 213 605 246 605 C309 605 329 639 329 673 L329 673 Z " />
<glyph glyph-name="hungarumlaut" unicode="&#x2dd;" horiz-adv-x="370" d="M358 730 L235 730 L169 605 L226 605 L358 730 Z M203 730 L80 730 L14 605 L71 605 L203 730 Z " />
<glyph glyph-name="pi" unicode="&#x3c0;" horiz-adv-x="695" d="M660 447 C660 619 520 761 348 761 C175 761 35 619 35 447 C35 275 175 132 348 132 C519 132 660 275 660 447 L660 447 Z M613 447 C613 297 495 175 348 175 C199 175 81 297 81 447 C81 595 200 719 348 719 C495 719 613 595 613 447 L613 447 Z M481 524 C481 624 434 649 370 649 C323 649 243 649 243 649 L243 245 L320 245 L320 403 C320 403 351 402 371 402 C435 402 481 433 481 524 L481 524 Z M397 523 C397 481 385 462 360 462 C345 462 320 462 320 462 L320 593 C320 593 344 593 355 593 C380 593 397 585 397 523 L397 523 Z " />
<glyph glyph-name="endash" unicode="&#x2013;" horiz-adv-x="556" d="M528 275 L528 384 L28 384 L28 275 L528 275 Z " />
<glyph glyph-name="emdash" unicode="&#x2014;" horiz-adv-x="945" d="M917 274 L917 383 L28 383 L28 274 L917 274 Z " />
<glyph glyph-name="quoteleft" unicode="&#x2018;" horiz-adv-x="255" d="M203 468 L203 633 L130 633 C125 665 131 697 151 716 C166 731 185 740 203 746 L183 791 C160 787 128 774 117 766 C74 735 48 701 48 633 C48 569 48 468 48 468 L203 468 Z " />
<glyph glyph-name="quoteright" unicode="&#x2019;" horiz-adv-x="255" d="M207 603 C207 667 207 768 207 768 L52 768 L52 603 L125 603 C130 571 124 539 104 520 C89 505 70 496 52 490 L72 445 C95 449 127 462 138 470 C181 501 207 535 207 603 L207 603 Z " />
<glyph glyph-name="quotesinglbase" unicode="&#x201a;" horiz-adv-x="255" d="M207 0 C207 64 207 165 207 165 L52 165 L52 0 L125 0 C130 -32 124 -64 104 -83 C89 -98 70 -107 52 -113 L72 -158 C95 -154 127 -141 138 -133 C181 -102 207 -68 207 0 L207 0 Z " />
<glyph glyph-name="quotedblleft" unicode="&#x201c;" horiz-adv-x="472" d="M420 468 L420 633 L347 633 C342 665 348 697 368 716 C383 731 402 740 420 746 L400 791 C377 787 345 774 334 766 C291 735 265 701 265 633 C265 569 265 468 265 468 L420 468 Z M203 468 L203 633 L130 633 C125 665 131 697 151 716 C166 731 185 740 203 746 L183 791 C160 787 128 774 117 766 C74 735 48 701 48 633 C48 569 48 468 48 468 L203 468 Z " />
<glyph glyph-name="quotedblright" unicode="&#x201d;" horiz-adv-x="472" d="M424 603 C424 667 424 768 424 768 L269 768 L269 603 L342 603 C347 571 341 539 321 520 C306 505 287 496 269 490 L289 445 C312 449 344 462 355 470 C398 501 424 535 424 603 L424 603 Z M207 603 C207 667 207 768 207 768 L52 768 L52 603 L125 603 C130 571 124 539 104 520 C89 505 70 496 52 490 L72 445 C95 449 127 462 138 470 C181 501 207 535 207 603 L207 603 Z " />
<glyph glyph-name="quotedblbase" unicode="&#x201e;" horiz-adv-x="472" d="M424 0 C424 64 424 165 424 165 L269 165 L269 0 L342 0 C347 -32 341 -64 321 -83 C306 -98 287 -107 269 -113 L289 -158 C312 -154 344 -141 355 -133 C398 -102 424 -68 424 0 L424 0 Z M207 0 C207 64 207 165 207 165 L52 165 L52 0 L125 0 C130 -32 124 -64 104 -83 C89 -98 70 -107 52 -113 L72 -158 C95 -154 127 -141 138 -133 C181 -102 207 -68 207 0 L207 0 Z " />
<glyph glyph-name="dagger" unicode="&#x2020;" horiz-adv-x="469" d="M423 501 L423 614 L302 614 L302 768 L167 768 L167 614 L46 614 L46 501 L167 501 L167 -79 L302 -79 L302 501 L423 501 Z " />
<glyph glyph-name="daggerdbl" unicode="&#x2021;" horiz-adv-x="469" d="M423 135 L423 248 L302 248 L302 501 L423 501 L423 614 L302 614 L302 768 L167 768 L167 614 L46 614 L46 501 L167 501 L167 248 L46 248 L46 135 L167 135 L167 -79 L302 -79 L302 135 L423 135 Z " />
<glyph glyph-name="bullet" unicode="&#x2022;" horiz-adv-x="551" d="M511 367 C511 501 406 611 277 611 C147 611 40 501 40 367 C40 232 147 123 277 123 C406 123 511 232 511 367 L511 367 Z " />
<glyph glyph-name="ellipsis" unicode="&#x2026;" horiz-adv-x="759" d="M714 0 L714 170 L555 170 L555 0 L714 0 Z M459 0 L459 170 L300 170 L300 0 L459 0 Z M204 0 L204 170 L45 170 L45 0 L204 0 Z " />
<glyph glyph-name="perthousand" unicode="&#x2030;" horiz-adv-x="1245" d="M1212 213 C1212 397 1165 465 1050 465 C935 465 888 397 888 213 C888 52 935 -8 1050 -8 C1165 -8 1212 52 1212 213 L1212 213 Z M828 213 C828 397 781 465 666 465 C551 465 504 397 504 213 C504 52 551 -8 666 -8 C781 -8 828 52 828 213 L828 213 Z M673 768 L604 768 L184 -8 L253 -8 L673 768 Z M357 528 C357 712 310 780 195 780 C80 780 33 712 33 528 C33 367 80 307 195 307 C310 307 357 367 357 528 L357 528 Z M1097 226 C1097 102 1089 77 1050 77 C1014 77 1003 102 1003 227 C1003 350 1013 380 1050 380 C1086 380 1097 350 1097 226 L1097 226 Z M713 226 C713 102 705 77 666 77 C630 77 619 102 619 227 C619 350 629 380 666 380 C702 380 713 350 713 226 L713 226 Z M242 541 C242 417 234 392 195 392 C159 392 148 417 148 542 C148 665 158 695 195 695 C231 695 242 665 242 541 L242 541 Z " />
<glyph glyph-name="guilsinglleft" unicode="&#x2039;" horiz-adv-x="316" d="M268 37 L268 157 L122 271 L268 385 L268 505 L42 337 L42 205 L268 37 Z " />
<glyph glyph-name="guilsinglright" unicode="&#x203a;" horiz-adv-x="316" d="M274 205 L274 337 L48 505 L48 385 L194 271 L48 157 L48 37 L274 205 Z " />
<glyph glyph-name="fraction" unicode="&#x2044;" horiz-adv-x="312" d="M482 780 L386 780 L-170 -8 L-74 -8 L482 780 Z " />
<glyph glyph-name="trademark" unicode="&#x2122;" horiz-adv-x="571" d="M515 537 L515 768 L426 768 C426 768 407 687 396 640 C394 630 392 623 391 614 C390 623 388 630 385 640 C373 687 351 768 351 768 L263 768 L263 537 L320 537 L320 706 L366 537 L414 537 L456 706 L456 537 L515 537 Z M232 722 L232 768 L46 768 L46 722 L106 722 L106 537 L171 537 L171 722 L232 722 Z " />
<glyph glyph-name="Omega" unicode="&#x2126;" horiz-adv-x="461" d="M426 352 C426 535 339 684 231 684 C124 684 35 535 35 352 C35 171 124 23 231 23 C339 23 426 171 426 352 L426 352 Z M400 268 L288 261 L237 91 L193 271 L74 289 L166 375 L98 455 L188 468 L227 616 L280 480 L356 488 L317 379 L400 268 Z " />
<glyph glyph-name="partialdiff" unicode="&#x2202;" horiz-adv-x="461" d="M426 352 C426 535 339 684 231 684 C124 684 35 535 35 352 C35 171 124 23 231 23 C339 23 426 171 426 352 L426 352 Z M400 268 L288 261 L237 91 L193 271 L74 289 L166 375 L98 455 L188 468 L227 616 L280 480 L356 488 L317 379 L400 268 Z " />
<glyph glyph-name="Delta" unicode="&#x2206;" horiz-adv-x="461" d="M426 352 C426 535 339 684 231 684 C124 684 35 535 35 352 C35 171 124 23 231 23 C339 23 426 171 426 352 L426 352 Z M400 268 L288 261 L237 91 L193 271 L74 289 L166 375 L98 455 L188 468 L227 616 L280 480 L356 488 L317 379 L400 268 Z " />
<glyph glyph-name="product" unicode="&#x220f;" horiz-adv-x="461" d="M426 352 C426 535 339 684 231 684 C124 684 35 535 35 352 C35 171 124 23 231 23 C339 23 426 171 426 352 L426 352 Z M400 268 L288 261 L237 91 L193 271 L74 289 L166 375 L98 455 L188 468 L227 616 L280 480 L356 488 L317 379 L400 268 Z " />
<glyph glyph-name="summation" unicode="&#x2211;" horiz-adv-x="461" d="M426 352 C426 535 339 684 231 684 C124 684 35 535 35 352 C35 171 124 23 231 23 C339 23 426 171 426 352 L426 352 Z M400 268 L288 261 L237 91 L193 271 L74 289 L166 375 L98 455 L188 468 L227 616 L280 480 L356 488 L317 379 L400 268 Z " />
<glyph glyph-name="minus" unicode="&#x2212;" horiz-adv-x="461" d="M426 352 C426 535 339 684 231 684 C124 684 35 535 35 352 C35 171 124 23 231 23 C339 23 426 171 426 352 L426 352 Z M400 268 L288 261 L237 91 L193 271 L74 289 L166 375 L98 455 L188 468 L227 616 L280 480 L356 488 L317 379 L400 268 Z " />
<glyph glyph-name="radical" unicode="&#x221a;" horiz-adv-x="723" d="M790 920 L643 871 C553 735 493 608 436 471 C384 344 325 166 292 5 L157 337 L15 272 L259 -141 L360 -97 C393 71 449 241 532 446 C591 592 702 813 790 920 L790 920 Z " />
<glyph glyph-name="infinity" unicode="&#x221e;" horiz-adv-x="719" d="M689 0 L689 561 L432 561 C429 578 427 636 427 656 C427 683 439 699 457 699 C479 699 489 689 489 657 C489 641 486 626 483 616 L572 611 C576 622 582 650 582 678 C582 742 535 780 445 780 C401 780 358 766 335 738 C311 765 267 780 208 780 C113 780 53 738 53 650 C53 615 53 573 54 561 L-1 561 L-1 479 L54 479 L54 0 L189 0 L189 479 L304 479 L304 0 L439 0 L439 479 L554 479 L554 0 L689 0 Z M304 561 L182 561 C179 578 177 632 177 652 C177 688 189 700 230 700 C270 700 303 674 303 618 C303 600 303 578 304 561 L304 561 Z " />
<glyph glyph-name="integral" unicode="&#x222b;" horiz-adv-x="461" d="M426 352 C426 535 339 684 231 684 C124 684 35 535 35 352 C35 171 124 23 231 23 C339 23 426 171 426 352 L426 352 Z M400 268 L288 261 L237 91 L193 271 L74 289 L166 375 L98 455 L188 468 L227 616 L280 480 L356 488 L317 379 L400 268 Z " />
<glyph glyph-name="approxequal" unicode="&#x2248;" horiz-adv-x="461" d="M426 352 C426 535 339 684 231 684 C124 684 35 535 35 352 C35 171 124 23 231 23 C339 23 426 171 426 352 L426 352 Z M400 268 L288 261 L237 91 L193 271 L74 289 L166 375 L98 455 L188 468 L227 616 L280 480 L356 488 L317 379 L400 268 Z " />
<glyph glyph-name="notequal" unicode="&#x2260;" horiz-adv-x="516" d="M582 678 C582 742 535 780 445 780 C401 780 358 766 335 738 C311 765 267 780 208 780 C113 780 53 738 53 650 C53 615 53 573 54 561 L-1 561 L-1 479 L54 479 L54 0 L189 0 L189 479 L304 479 L304 0 L439 0 L439 479 L510 479 L510 561 L432 561 C429 578 427 636 427 656 C427 683 439 699 457 699 C479 699 489 689 489 657 C489 641 486 626 483 616 L572 611 C576 622 582 650 582 678 L582 678 Z M304 561 L182 561 C179 578 177 632 177 652 C177 688 189 700 230 700 C270 700 303 674 303 618 C303 600 303 578 304 561 L304 561 Z " />
<glyph glyph-name="lessequal" unicode="&#x2264;" horiz-adv-x="461" d="M426 352 C426 535 339 684 231 684 C124 684 35 535 35 352 C35 171 124 23 231 23 C339 23 426 171 426 352 L426 352 Z M400 268 L288 261 L237 91 L193 271 L74 289 L166 375 L98 455 L188 468 L227 616 L280 480 L356 488 L317 379 L400 268 Z " />
<glyph glyph-name="greaterequal" unicode="&#x2265;" horiz-adv-x="461" d="M426 352 C426 535 339 684 231 684 C124 684 35 535 35 352 C35 171 124 23 231 23 C339 23 426 171 426 352 L426 352 Z M400 268 L288 261 L237 91 L193 271 L74 289 L166 375 L98 455 L188 468 L227 616 L280 480 L356 488 L317 379 L400 268 Z " />
<glyph glyph-name="lozenge" unicode="&#x25ca;" horiz-adv-x="461" d="M426 352 C426 535 339 684 231 684 C124 684 35 535 35 352 C35 171 124 23 231 23 C339 23 426 171 426 352 L426 352 Z M400 268 L288 261 L237 91 L193 271 L74 289 L166 375 L98 455 L188 468 L227 616 L280 480 L356 488 L317 379 L400 268 Z " />
<glyph glyph-name="fi" unicode="&#xfb01;" horiz-adv-x="469" d="M439 0 L439 561 L182 561 C179 578 177 636 177 656 C177 683 189 699 207 699 C229 699 239 689 239 657 C239 641 236 626 233 616 L322 611 C326 622 332 650 332 678 C332 742 285 780 195 780 C107 780 53 728 53 650 C53 615 53 573 54 561 L-1 561 L-1 479 L54 479 L54 0 L189 0 L189 479 L304 479 L304 0 L439 0 Z " />
<glyph glyph-name="fl" unicode="&#xfb02;" horiz-adv-x="469" d="M439 0 L439 768 L288 768 C269 774 246 780 208 780 C113 780 53 738 53 650 C53 615 53 573 54 561 L-1 561 L-1 479 L54 479 L54 0 L189 0 L189 479 L304 479 L304 0 L439 0 Z M304 561 L182 561 C179 578 177 632 177 652 C177 688 189 700 230 700 C270 700 304 673 304 616 C304 598 304 561 304 561 L304 561 Z " />
</font>
</svg>
