<?xml version="1.0" encoding="UTF-8"?>
<svg xmlns="http://www.w3.org/2000/svg" xmlns:xlink="http://www.w3.org/1999/xlink" version="1.2" >
<font id="BureauGrotesque-SevenNine">
<font-face  font-family="BureauGrotesque" units-per-em="1000" ascent="750" descent="-250" font-style="normal" font-weight="400" font-stretch="normal" cap-height="750" x-height="500" underline-position="-120.5" underline-thickness="25" />
<missing-glyph  horiz-adv-x="500" d="" />
<glyph glyph-name="CR" unicode="&#xd;" horiz-adv-x="250" d="" />
<glyph glyph-name="space" unicode="&#x20;" horiz-adv-x="450" d="" />
<glyph glyph-name="exclam" unicode="&#x21;" horiz-adv-x="342" d="M269 494 L269 768 L73 768 L73 494 L114 244 L228 244 L269 494 Z M259 0 L259 167 L83 167 L83 0 L259 0 Z " />
<glyph glyph-name="quotedbl" unicode="&#x22;" horiz-adv-x="557" d="M506 768 L309 768 L345 456 L464 456 L506 768 Z M250 768 L53 768 L89 456 L208 456 L250 768 Z " />
<glyph glyph-name="numbersign" unicode="&#x23;" horiz-adv-x="1006" d="M1011 630 L778 630 L846 808 L734 808 L666 630 L511 630 L578 808 L466 808 L399 630 L196 630 L129 462 L336 462 L275 301 L62 301 L-5 133 L212 133 L148 -41 L260 -41 L323 133 L480 133 L416 -41 L528 -41 L592 133 L809 133 L877 301 L654 301 L715 462 L943 462 L1011 630 Z M603 462 L542 301 L386 301 L448 462 L603 462 Z " />
<glyph glyph-name="dollar" unicode="&#x24;" horiz-adv-x="848" d="M788 233 C788 388 660 429 523 466 L501 472 L501 645 C501 645 537 635 557 608 C570 591 574 575 574 561 C574 553 573 546 572 540 L751 566 C752 571 752 577 752 584 C752 617 741 672 680 719 C639 751 556 776 501 779 L501 829 L361 829 L361 781 C242 773 90 715 90 565 C90 369 361 313 361 313 L361 134 C304 145 257 179 257 240 C257 244 257 248 258 251 L65 226 C64 222 64 215 64 207 C64 115 143 12 361 -10 C361 -30 361 -73 361 -73 L501 -73 L501 -13 C601 -16 788 34 788 233 L788 233 Z M361 505 C328 516 292 538 292 579 C292 620 326 637 361 649 L361 505 Z M581 200 C581 156 549 135 501 129 L501 277 C558 261 581 240 581 200 L581 200 Z " />
<glyph glyph-name="percent" unicode="&#x25;" horiz-adv-x="1225" d="M1194 193 C1194 353 1075 430 939 430 C803 430 682 353 682 193 C682 64 793 -16 939 -16 C1082 -16 1194 64 1194 193 L1194 193 Z M917 768 L774 768 L311 0 L454 0 L917 768 Z M543 546 C543 707 424 784 288 784 C152 784 31 707 31 546 C31 418 142 338 288 338 C431 338 543 418 543 546 L543 546 Z M1033 202 C1033 139 1002 69 939 69 C867 69 843 138 843 202 C843 278 871 347 939 347 C1006 347 1033 278 1033 202 L1033 202 Z M382 556 C382 492 351 423 288 423 C217 423 192 491 192 556 C192 631 220 701 288 701 C355 701 382 631 382 556 L382 556 Z " />
<glyph glyph-name="ampersand" unicode="&#x26;" horiz-adv-x="964" d="M915 181 C915 230 907 269 907 269 L838 269 C839 255 840 242 840 230 C840 163 820 134 784 134 C753 134 717 168 701 190 C720 208 759 255 798 324 C844 404 883 494 883 494 L779 494 C779 494 745 415 718 368 C692 324 643 261 643 261 C643 261 608 307 578 357 C542 418 522 461 522 461 C522 461 727 504 727 631 C727 723 658 784 532 784 C382 784 292 721 292 600 C292 546 311 495 311 495 C311 495 36 446 37 235 C37 74 173 -17 330 -16 C460 -16 538 44 568 70 C617 14 666 -16 761 -16 C891 -16 915 97 915 181 L915 181 Z M621 636 C621 587 572 562 494 535 C487 550 480 576 480 624 C480 657 509 691 557 691 C603 691 621 665 621 636 L621 636 Z M493 145 C493 145 451 124 397 124 C320 124 268 168 268 266 C268 385 342 408 342 408 C342 408 365 338 412 260 C443 208 493 145 493 145 L493 145 Z " />
<glyph glyph-name="quotesingle" unicode="&#x27;" horiz-adv-x="315" d="M256 768 L59 768 L96 456 L215 456 L256 768 Z " />
<glyph glyph-name="parenleft" unicode="&#x28;" horiz-adv-x="386" d="M376 -218 C255 -50 217 90 217 290 C217 494 261 610 376 770 L340 795 C173 694 49 512 49 290 C49 69 159 -132 340 -241 L376 -218 Z " />
<glyph glyph-name="parenright" unicode="&#x29;" horiz-adv-x="386" d="M341 290 C341 512 217 694 50 795 L13 770 C129 610 173 494 173 290 C173 90 135 -50 13 -218 L50 -241 C231 -132 341 69 341 290 L341 290 Z " />
<glyph glyph-name="asterisk" unicode="&#x2a;" horiz-adv-x="561" d="M501 508 L372 565 L499 622 L439 727 L326 644 L340 782 L220 782 L235 644 L121 724 L62 622 L190 565 L63 508 L121 403 L235 486 L223 347 L344 347 L326 486 L440 405 L501 508 Z " />
<glyph glyph-name="plus" unicode="&#x2b;" horiz-adv-x="619" d="M567 269 L567 417 L387 417 L387 600 L229 600 L229 417 L52 417 L52 269 L229 269 L229 85 L387 85 L387 269 L567 269 Z " />
<glyph glyph-name="comma" unicode="&#x2c;" horiz-adv-x="342" d="M259 0 L259 167 L62 167 L62 0 L170 0 C170 0 172 -11 172 -24 C172 -64 148 -80 121 -80 C113 -80 106 -78 98 -75 L79 -141 C97 -149 116 -153 133 -153 C168 -153 200 -139 226 -111 C255 -79 259 -47 259 0 L259 0 Z " />
<glyph glyph-name="hyphen" unicode="&#x2d;" horiz-adv-x="557" d="M484 259 L484 427 L73 427 L73 259 L484 259 Z " />
<glyph glyph-name="period" unicode="&#x2e;" horiz-adv-x="342" d="M269 0 L269 167 L73 167 L73 0 L269 0 Z " />
<glyph glyph-name="slash" unicode="&#x2f;" horiz-adv-x="444" d="M437 809 L325 809 L7 -41 L119 -41 L437 809 Z " />
<glyph glyph-name="zero" unicode="0" horiz-adv-x="891" d="M845 369 C846 634 667 784 446 784 C224 784 46 634 47 369 C47 152 186 -16 447 -16 C708 -16 845 153 845 369 L845 369 Z M609 382 C610 238 563 133 447 133 C331 133 283 238 283 382 C283 501 327 638 446 638 C564 638 609 501 609 382 L609 382 Z " />
<glyph glyph-name="one" unicode="1" horiz-adv-x="590" d="M497 0 L497 774 L363 774 C363 748 350 714 312 688 C244 642 83 634 25 634 L25 507 L264 507 L264 0 L497 0 Z " />
<glyph glyph-name="two" unicode="2" horiz-adv-x="864" d="M803 0 L803 188 L401 175 C625 250 802 403 802 545 C802 712 626 785 446 784 C232 782 64 720 64 545 C64 459 97 400 97 400 L304 425 C304 425 277 485 277 522 C277 588 315 646 404 646 C515 646 559 589 559 516 C559 338 66 146 66 146 L78 0 L803 0 Z " />
<glyph glyph-name="three" unicode="3" horiz-adv-x="822" d="M786 223 C786 339 697 375 602 392 C685 415 760 446 760 565 C760 702 626 784 416 784 C246 784 62 739 62 580 C62 560 72 528 72 528 L277 512 C277 512 269 538 269 554 C269 615 316 646 396 646 C495 646 519 593 519 546 C519 499 487 451 389 451 C337 451 257 455 257 455 L257 322 C257 322 339 326 392 326 C490 326 545 292 545 234 C545 162 500 131 397 131 C307 131 256 168 256 236 C256 250 261 272 261 272 L56 256 C56 256 46 220 46 198 C46 61 189 -16 412 -16 C626 -16 786 54 786 223 L786 223 Z " />
<glyph glyph-name="four" unicode="4" horiz-adv-x="842" d="M809 126 L809 273 L667 273 L667 768 L480 768 L26 289 L26 126 L455 126 L455 0 L667 0 L667 126 L809 126 Z M455 273 L229 273 L455 522 L455 273 Z " />
<glyph glyph-name="five" unicode="5" horiz-adv-x="843" d="M800 254 C800 438 659 524 469 525 C337 525 303 464 303 464 L334 622 L723 622 L738 768 L138 768 L84 355 L291 325 C291 325 309 406 414 406 C497 406 562 345 562 251 C562 159 507 111 414 111 C321 111 276 153 276 221 C276 237 281 262 281 262 L57 247 C57 247 46 223 46 192 C46 68 172 -16 414 -16 C629 -16 800 70 800 254 L800 254 Z " />
<glyph glyph-name="six" unicode="6" horiz-adv-x="841" d="M794 263 C794 412 662 500 482 500 C389 500 325 473 281 432 C281 436 281 447 281 447 C281 549 312 657 439 657 C509 657 542 626 544 573 C544 562 541 544 541 544 L760 560 C760 560 797 786 453 784 C194 783 43 596 43 369 C43 120 200 -15 446 -16 C627 -16 794 75 794 263 L794 263 Z M570 247 C568 172 499 122 424 122 C338 122 278 171 276 247 C274 335 337 381 424 381 C501 381 572 331 570 247 L570 247 Z " />
<glyph glyph-name="seven" unicode="7" horiz-adv-x="748" d="M710 602 L710 768 L27 768 L27 590 L479 590 C479 590 375 492 328 418 C239 276 210 171 217 0 L463 0 C460 26 458 53 458 80 C458 195 484 304 534 394 C579 475 654 560 710 602 L710 602 Z " />
<glyph glyph-name="eight" unicode="8" horiz-adv-x="789" d="M758 206 C758 375 592 402 592 402 C592 402 716 420 716 565 C716 689 608 786 398 784 C188 782 80 689 80 565 C80 420 204 402 204 402 C204 402 38 375 38 206 C38 41 218 -15 398 -16 C578 -17 758 41 758 206 L758 206 Z M507 548 C507 486 453 457 398 457 C343 457 289 486 289 548 C289 600 331 646 398 646 C460 646 507 600 507 548 L507 548 Z M533 232 C533 166 480 125 398 125 C322 125 263 166 263 232 C263 301 319 343 397 343 C472 343 533 301 533 232 L533 232 Z " />
<glyph glyph-name="nine" unicode="9" horiz-adv-x="817" d="M773 397 C773 646 633 783 388 784 C212 785 50 688 50 505 C50 355 173 272 325 272 C454 272 512 317 541 348 C542 339 542 329 542 318 C542 229 524 111 390 111 C296 111 265 156 265 219 L62 203 C61 195 61 191 61 188 C61 72 157 -16 380 -16 C639 -16 773 146 773 397 L773 397 Z M542 515 C542 440 479 380 404 380 C318 380 263 439 263 515 C263 588 332 638 404 638 C476 638 542 587 542 515 L542 515 Z " />
<glyph glyph-name="colon" unicode="&#x3a;" horiz-adv-x="342" d="M269 321 L269 488 L73 488 L73 321 L269 321 Z M269 0 L269 167 L73 167 L73 0 L269 0 Z " />
<glyph glyph-name="semicolon" unicode="&#x3b;" horiz-adv-x="342" d="M269 321 L269 488 L73 488 L73 321 L269 321 Z M269 0 L269 167 L73 167 L73 0 L180 0 C180 0 182 -11 182 -24 C182 -64 158 -80 131 -80 C123 -80 116 -78 108 -75 L89 -141 C107 -149 126 -153 143 -153 C178 -153 210 -139 236 -111 C265 -79 269 -47 269 0 L269 0 Z " />
<glyph glyph-name="less" unicode="&#x3c;" horiz-adv-x="469" d="M414 72 L414 237 L199 359 L414 484 L414 650 L41 404 L41 304 L414 72 Z " />
<glyph glyph-name="equal" unicode="&#x3d;" horiz-adv-x="619" d="M546 391 L546 538 L73 538 L73 391 L546 391 Z M546 148 L546 295 L73 295 L73 148 L546 148 Z " />
<glyph glyph-name="greater" unicode="&#x3e;" horiz-adv-x="469" d="M428 304 L428 404 L56 650 L56 484 L270 359 L56 237 L56 72 L428 304 Z " />
<glyph glyph-name="question" unicode="&#x3f;" horiz-adv-x="678" d="M648 565 C648 702 530 784 327 784 C113 784 38 718 38 597 C38 568 51 521 51 521 L256 499 C246 514 236 546 236 573 C236 620 271 653 342 653 C398 653 432 630 432 595 C432 555 419 537 338 485 C302 461 267 441 242 414 C219 389 204 358 204 313 C204 281 213 257 228 244 L399 244 C399 244 393 265 393 281 C393 298 403 313 417 328 C442 353 481 375 514 398 C577 443 648 481 648 565 L648 565 Z M396 0 L396 167 L220 167 L220 0 L396 0 Z " />
<glyph glyph-name="at" unicode="&#x40;" horiz-adv-x="1080" d="M1033 370 C1033 626 831 784 557 784 C264 784 47 565 47 288 C47 6 273 -193 557 -193 C684 -193 760 -169 866 -87 L824 -35 C718 -115 671 -123 563 -123 C322 -123 132 45 132 287 C132 520 312 718 545 718 C754 718 956 596 956 369 C956 189 867 110 803 110 C771 110 744 122 750 156 L795 411 C808 485 753 580 587 580 C362 580 336 459 336 404 C336 386 338 374 338 374 L484 395 C484 395 482 403 482 416 C482 440 492 484 568 484 C620 484 635 448 630 412 L624 371 C623 367 622 365 613 364 C560 360 517 356 495 353 C356 331 267 272 267 155 C267 66 341 35 427 35 C546 35 609 130 609 130 C609 130 629 35 762 35 C905 35 1033 161 1033 370 L1033 370 Z M610 302 C606 277 596 216 596 216 C594 204 573 136 483 136 C442 136 426 158 426 189 C426 259 503 302 610 302 L610 302 Z " />
<glyph glyph-name="A" unicode="A" horiz-adv-x="869" d="M839 0 L568 768 L315 768 L30 0 L260 0 L292 102 L557 102 L587 0 L839 0 Z M522 238 L329 238 L429 554 L522 238 Z " />
<glyph glyph-name="B" unicode="B" horiz-adv-x="931" d="M884 203 C884 393 660 389 660 389 C660 389 835 400 835 565 C835 697 704 768 575 768 L93 768 L93 0 L603 0 C738 0 884 57 884 203 L884 203 Z M606 528 C606 481 568 451 524 451 L326 451 L326 606 L524 606 C569 606 606 576 606 528 L606 528 Z M630 244 C630 187 588 162 541 162 L326 162 L326 323 L541 323 C588 323 630 288 630 244 L630 244 Z " />
<glyph glyph-name="C" unicode="C" horiz-adv-x="898" d="M849 245 C849 275 845 294 837 322 L656 339 C659 321 659 311 659 292 C659 199 611 125 484 127 C361 128 298 238 298 382 C298 508 360 643 484 644 C607 644 640 574 640 510 C640 498 639 486 637 475 L824 506 C826 517 827 530 827 544 C827 641 763 784 494 784 C249 784 46 637 47 372 C47 144 222 -16 483 -16 C715 -16 849 69 849 245 L849 245 Z " />
<glyph glyph-name="D" unicode="D" horiz-adv-x="939" d="M892 358 C892 623 730 768 511 768 L93 768 L93 0 L557 0 C747 0 892 167 892 358 L892 358 Z M647 382 C648 238 582 167 475 167 L326 167 L326 606 L475 606 C585 606 647 513 647 382 L647 382 Z " />
<glyph glyph-name="E" unicode="E" horiz-adv-x="860" d="M815 0 L815 167 L326 167 L326 311 L711 311 L711 463 L326 463 L326 606 L769 606 L769 768 L93 768 L93 0 L815 0 Z " />
<glyph glyph-name="F" unicode="F" horiz-adv-x="795" d="M752 606 L752 768 L93 768 L93 0 L326 0 L326 304 L677 304 L677 465 L326 465 L326 606 L752 606 Z " />
<glyph glyph-name="G" unicode="G" horiz-adv-x="933" d="M859 0 L859 407 L531 407 L531 280 L656 280 L656 263 C656 183 598 135 496 136 C365 137 298 205 298 382 C298 535 360 644 484 644 C610 644 635 562 645 486 L849 510 C840 612 762 784 494 784 C207 784 47 591 47 372 C47 138 180 -16 458 -16 C661 -16 746 112 746 112 L787 0 L859 0 Z " />
<glyph glyph-name="H" unicode="H" horiz-adv-x="981" d="M888 0 L888 768 L655 768 L655 486 L326 486 L326 768 L93 768 L93 0 L326 0 L326 324 L655 324 L655 0 L888 0 Z " />
<glyph glyph-name="I" unicode="I" horiz-adv-x="419" d="M326 0 L326 768 L93 768 L93 0 L326 0 Z " />
<glyph glyph-name="J" unicode="J" horiz-adv-x="737" d="M650 251 L650 768 L416 768 L416 223 C416 157 381 131 335 131 C274 131 240 167 240 287 C240 329 252 385 260 415 L56 393 C56 393 36 310 36 257 C36 109 112 -16 353 -16 C539 -16 650 58 650 251 L650 251 Z " />
<glyph glyph-name="K" unicode="K" horiz-adv-x="920" d="M878 0 L628 483 L871 768 L610 768 L326 392 L326 768 L93 768 L93 0 L326 0 L326 127 L476 306 L623 0 L878 0 Z " />
<glyph glyph-name="L" unicode="L" horiz-adv-x="776" d="M744 0 L744 167 L326 167 L326 768 L93 768 L93 0 L744 0 Z " />
<glyph glyph-name="M" unicode="M" horiz-adv-x="1157" d="M1064 0 L1064 768 L738 768 L580 318 L424 768 L93 768 L93 0 L309 0 L309 568 L490 0 L667 0 L849 568 L849 0 L1064 0 Z " />
<glyph glyph-name="N" unicode="N" horiz-adv-x="964" d="M871 0 L871 768 L655 768 L655 316 L358 768 L93 768 L93 0 L309 0 L309 467 L625 0 L871 0 Z " />
<glyph glyph-name="O" unicode="O" horiz-adv-x="964" d="M917 369 C917 634 704 784 482 784 C260 784 47 634 47 369 C47 142 222 -16 483 -16 C744 -16 917 143 917 369 L917 369 Z M666 382 C667 238 605 127 483 127 C361 127 298 238 298 382 C298 507 358 644 482 644 C606 644 666 507 666 382 L666 382 Z " />
<glyph glyph-name="P" unicode="P" horiz-adv-x="890" d="M850 497 C850 652 759 768 572 768 L93 768 L93 0 L326 0 L326 238 L561 238 C758 238 850 347 850 497 L850 497 Z M624 504 C624 435 581 400 509 400 L326 400 L326 606 L521 606 C594 606 624 562 624 504 L624 504 Z " />
<glyph glyph-name="Q" unicode="Q" horiz-adv-x="964" d="M920 -27 C920 -2 913 16 913 16 L761 16 C761 16 764 7 764 -6 C764 -35 746 -80 649 -81 C552 -82 536 -49 536 -28 C536 -19 539 -12 539 -12 L567 -9 C768 13 917 168 917 369 C918 634 704 784 482 784 C260 784 46 634 47 369 C47 180 177 38 360 -1 C360 -1 356 -14 356 -33 C356 -87 390 -192 644 -192 C887 -192 920 -88 920 -27 L920 -27 Z M666 374 C667 230 608 110 483 110 C358 110 298 230 298 374 C298 501 355 644 482 644 C609 644 666 502 666 374 L666 374 Z " />
<glyph glyph-name="R" unicode="R" horiz-adv-x="931" d="M882 0 C847 25 825 107 819 139 C802 223 770 329 677 335 C798 347 877 418 877 535 C877 670 772 768 592 768 L93 768 L93 0 L326 0 L326 273 L498 273 C531 273 546 262 554 231 C563 196 568 176 574 145 C588 78 601 33 623 0 L882 0 Z M632 514 C632 454 594 425 521 425 L326 425 L326 606 L521 606 C600 606 632 572 632 514 L632 514 Z " />
<glyph glyph-name="S" unicode="S" horiz-adv-x="901" d="M851 233 C851 377 738 434 530 479 L456 495 C362 515 319 530 319 579 C319 607 345 652 438 652 C558 652 590 602 603 539 L811 566 C784 663 721 784 445 784 C243 784 77 714 77 565 C77 416 213 352 357 319 L419 305 C579 269 601 243 601 200 C601 162 569 126 466 126 C334 126 271 179 259 274 L46 249 C56 113 155 -16 491 -16 C758 -16 851 97 851 233 L851 233 Z " />
<glyph glyph-name="T" unicode="T" horiz-adv-x="803" d="M787 601 L787 768 L16 768 L16 601 L285 601 L285 0 L517 0 L517 601 L787 601 Z " />
<glyph glyph-name="U" unicode="U" horiz-adv-x="953" d="M866 275 L866 768 L633 768 L633 307 C633 187 566 140 477 140 C389 140 320 167 320 303 L320 768 L87 768 L87 275 C87 85 216 -16 477 -16 C738 -16 866 85 866 275 L866 275 Z " />
<glyph glyph-name="V" unicode="V" horiz-adv-x="889" d="M859 768 L626 768 L447 252 L274 768 L30 768 L310 0 L563 0 L859 768 Z " />
<glyph glyph-name="W" unicode="W" horiz-adv-x="1337" d="M1307 768 L1074 768 L932 294 L790 768 L558 768 L416 292 L274 768 L30 768 L315 0 L549 0 L674 442 L798 0 L1022 0 L1307 768 Z " />
<glyph glyph-name="X" unicode="X" horiz-adv-x="936" d="M906 0 L611 404 L898 768 L629 768 L480 560 L345 768 L62 768 L322 400 L30 0 L293 0 L459 241 L635 0 L906 0 Z " />
<glyph glyph-name="Y" unicode="Y" horiz-adv-x="906" d="M881 768 L618 768 L457 455 L303 768 L25 768 L336 251 L336 0 L569 0 L569 251 L881 768 Z " />
<glyph glyph-name="Z" unicode="Z" horiz-adv-x="845" d="M786 0 L786 175 L372 175 L772 632 L772 768 L82 768 L82 593 L480 593 L54 137 L54 0 L786 0 Z " />
<glyph glyph-name="bracketleft" unicode="&#x5b;" horiz-adv-x="411" d="M353 -180 L353 -61 L248 -61 L248 649 L353 649 L353 768 L73 768 L73 -180 L353 -180 Z " />
<glyph glyph-name="backslash" unicode="&#x5c;" horiz-adv-x="444" d="M437 -41 L119 809 L7 809 L325 -41 L437 -41 Z " />
<glyph glyph-name="bracketright" unicode="&#x5d;" horiz-adv-x="411" d="M338 -180 L338 768 L57 768 L57 649 L163 649 L163 -61 L57 -61 L57 -180 L338 -180 Z " />
<glyph glyph-name="asciicircum" unicode="&#x5e;" horiz-adv-x="615" d="M507 543 L383 780 L220 780 L96 543 L225 543 L302 691 L378 543 L507 543 Z " />
<glyph glyph-name="underscore" unicode="&#x5f;" horiz-adv-x="518" d="M518 -207 L518 -70 L0 -70 L0 -207 L518 -207 Z " />
<glyph glyph-name="grave" unicode="&#x60;" horiz-adv-x="732" d="M458 602 L352 768 L174 768 L348 602 L458 602 Z " />
<glyph glyph-name="a" unicode="a" horiz-adv-x="712" d="M703 29 L695 69 C695 69 687 65 673 65 C644 65 621 84 621 119 L621 376 C621 480 546 551 347 551 C175 551 91 515 91 403 C91 373 105 338 105 338 L265 359 C265 359 258 381 258 396 C258 431 285 452 345 452 C404 452 430 423 430 377 L430 333 C421 332 390 329 352 325 C143 302 44 246 44 131 C44 31 121 -12 255 -12 C398 -12 434 43 462 87 C468 57 482 -6 583 -6 C651 -6 689 19 703 29 L703 29 Z M430 175 C430 139 399 91 317 91 C268 91 240 117 240 154 C240 222 310 257 401 263 L430 265 L430 175 Z " />
<glyph glyph-name="b" unicode="b" horiz-adv-x="733" d="M692 251 C692 459 597 551 437 551 C344 551 298 507 269 461 C269 495 269 768 269 768 L73 768 L73 0 L127 0 L202 115 L210 97 C244 20 316 -12 431 -12 C602 -12 692 107 692 251 L692 251 Z M478 248 C478 158 444 76 369 74 C294 73 263 148 263 248 C263 333 288 440 369 440 C453 440 478 342 478 248 L478 248 Z " />
<glyph glyph-name="c" unicode="c" horiz-adv-x="679" d="M639 177 C639 198 629 229 629 229 L519 237 C519 237 520 225 520 217 C520 145 479 98 376 98 C300 98 256 156 256 255 C256 349 290 440 376 440 C450 440 473 380 473 327 C473 322 472 317 472 312 L622 330 C623 338 623 347 623 355 C623 446 574 551 376 551 C187 551 41 446 41 243 C41 70 179 -12 376 -12 C552 -12 639 66 639 177 L639 177 Z " />
<glyph glyph-name="d" unicode="d" horiz-adv-x="734" d="M661 0 L661 768 L464 768 L464 461 C438 510 394 551 303 551 C147 551 41 453 41 251 C41 110 107 -12 289 -12 C333 -12 400 0 447 50 L464 68 L464 0 L661 0 Z M471 258 C471 158 439 92 365 92 C290 92 256 169 256 258 C256 352 281 440 365 440 C442 440 471 342 471 258 L471 258 Z " />
<glyph glyph-name="e" unicode="e" horiz-adv-x="692" d="M644 143 C644 156 640 181 640 181 L520 190 C517 137 483 99 388 99 C257 99 251 191 251 237 C276 237 629 237 629 237 C629 237 643 293 643 328 C643 453 561 551 376 551 C187 551 41 446 41 243 C41 80 175 -12 376 -12 C580 -12 644 64 644 143 L644 143 Z M463 348 C463 333 458 313 458 313 L255 313 C257 374 282 440 369 440 C436 440 463 401 463 348 L463 348 Z " />
<glyph glyph-name="f" unicode="f" horiz-adv-x="459" d="M450 437 L450 532 L290 532 C290 532 254 582 254 644 C254 677 266 695 294 695 C325 695 334 665 334 635 C334 614 329 580 329 580 L435 593 C435 593 445 622 445 657 C445 734 403 784 289 784 C169 784 104 722 104 632 C104 577 119 548 129 532 L21 532 L21 437 L122 437 L122 0 L314 0 L314 437 L450 437 Z " />
<glyph glyph-name="g" unicode="g" horiz-adv-x="712" d="M699 -31 C699 98 591 144 408 135 C222 126 188 133 188 169 C188 184 199 199 217 212 C255 199 295 196 354 196 C491 196 643 246 643 366 C643 427 606 471 551 501 L680 663 L543 663 L501 523 C467 536 411 547 354 547 C227 547 66 499 66 366 C66 302 97 263 173 231 C101 211 34 168 34 102 C34 31 77 -1 135 -11 C84 -26 26 -58 26 -98 C26 -198 153 -206 375 -207 C588 -208 699 -145 699 -31 L699 -31 Z M448 366 C448 319 401 290 354 290 C307 290 259 318 258 366 C257 416 305 449 354 449 C403 449 448 414 448 366 L448 366 Z M512 -76 C512 -108 479 -122 326 -122 C200 -122 160 -107 160 -68 C160 -40 187 -21 187 -21 C187 -21 251 -29 293 -30 C356 -32 407 -32 457 -32 C487 -32 512 -41 512 -76 L512 -76 Z " />
<glyph glyph-name="h" unicode="h" horiz-adv-x="750" d="M688 0 L688 348 C688 491 591 547 471 547 C371 547 299 506 269 418 C269 460 269 768 269 768 L73 768 L73 0 L269 0 L269 286 C269 363 315 405 385 405 C460 405 491 357 491 286 L491 0 L688 0 Z " />
<glyph glyph-name="i" unicode="i" horiz-adv-x="342" d="M269 601 L269 768 L73 768 L73 601 L269 601 Z M269 0 L269 532 L73 532 L73 0 L269 0 Z " />
<glyph glyph-name="j" unicode="j" horiz-adv-x="353" d="M280 601 L280 768 L83 768 L83 601 L280 601 Z M280 -20 L280 532 L83 532 L83 114 C83 68 93 39 102 12 C111 -14 120 -38 120 -76 C120 -111 103 -119 81 -119 C48 -119 40 -83 40 -54 C40 -37 45 -11 45 -11 L-60 -24 C-60 -24 -70 -51 -70 -83 C-70 -160 -20 -207 86 -207 C210 -207 280 -139 280 -20 L280 -20 Z " />
<glyph glyph-name="k" unicode="k" horiz-adv-x="745" d="M721 0 L520 344 L702 532 L474 532 L269 321 L269 768 L73 768 L73 0 L269 0 L269 113 L376 220 L505 0 L721 0 Z " />
<glyph glyph-name="l" unicode="l" horiz-adv-x="342" d="M269 0 L269 768 L73 768 L73 0 L269 0 Z " />
<glyph glyph-name="m" unicode="m" horiz-adv-x="1129" d="M1067 0 L1067 348 C1067 497 964 547 866 547 C760 547 705 513 654 418 C639 490 599 547 477 547 C364 547 290 472 269 410 L269 532 L73 532 L73 0 L269 0 L269 286 C269 353 301 405 370 405 C446 405 472 357 472 286 L472 0 L668 0 L668 286 C668 363 700 405 769 405 C845 405 871 357 871 286 L871 0 L1067 0 Z " />
<glyph glyph-name="n" unicode="n" horiz-adv-x="750" d="M688 0 L688 348 C688 491 592 547 471 547 C364 547 297 501 269 417 C269 448 269 532 269 532 L73 532 L73 0 L269 0 L269 286 C269 363 315 405 385 405 C460 405 491 357 491 286 L491 0 L688 0 Z " />
<glyph glyph-name="o" unicode="o" horiz-adv-x="731" d="M690 251 C690 453 538 551 366 551 C194 551 41 453 41 251 C41 88 183 -12 366 -12 C548 -12 690 88 690 251 L690 251 Z M486 262 C486 181 447 94 366 94 C279 94 246 181 246 262 C246 356 281 446 366 446 C451 446 486 356 486 262 L486 262 Z " />
<glyph glyph-name="p" unicode="p" horiz-adv-x="728" d="M687 247 C687 460 599 547 439 547 C319 547 264 440 264 440 L264 532 L73 532 L73 -200 L264 -200 L264 77 C264 77 311 -9 439 -9 C571 -9 687 58 687 247 L687 247 Z M473 259 C473 170 438 91 364 90 C298 90 258 160 258 259 C258 362 295 435 364 435 C447 435 473 353 473 259 L473 259 Z " />
<glyph glyph-name="q" unicode="q" horiz-adv-x="734" d="M661 -200 L661 532 L605 532 L530 416 C500 479 453 548 310 548 C126 548 41 409 41 247 C41 73 159 -9 303 -9 C418 -9 464 83 464 83 L464 -200 L661 -200 Z M471 269 C471 170 440 90 365 90 C276 90 256 180 256 269 C256 364 281 453 365 453 C455 453 471 372 471 269 L471 269 Z " />
<glyph glyph-name="r" unicode="r" horiz-adv-x="619" d="M601 369 C601 459 570 547 445 547 C367 547 301 505 269 410 C269 430 269 532 269 532 L73 532 L73 0 L269 0 L269 260 C269 343 297 405 369 405 C415 405 427 372 427 341 C427 303 412 255 412 255 L589 274 C596 298 601 320 601 369 L601 369 Z " />
<glyph glyph-name="s" unicode="s" horiz-adv-x="660" d="M632 166 C631 263 578 326 422 346 C277 365 240 376 240 405 C240 434 261 452 336 452 C409 452 435 425 455 379 L593 400 C593 400 594 409 593 414 C583 492 517 551 348 551 C139 551 56 470 56 384 C56 281 121 222 273 202 C405 184 447 174 447 142 C447 111 419 93 337 93 C245 93 199 117 191 176 L52 155 C51 150 51 144 51 140 C51 48 155 -11 344 -11 C562 -11 633 70 632 166 L632 166 Z " />
<glyph glyph-name="t" unicode="t" horiz-adv-x="510" d="M478 64 L444 118 C444 118 424 99 390 99 C334 99 311 127 311 181 L311 437 L458 437 L458 532 L311 532 L311 717 L114 717 L114 532 L2 532 L2 437 L114 437 L114 178 C114 44 174 -9 289 -9 C422 -9 478 64 478 64 L478 64 Z " />
<glyph glyph-name="u" unicode="u" horiz-adv-x="751" d="M678 0 L678 532 L481 532 L481 254 C481 177 435 134 366 134 C290 134 259 183 259 254 L259 532 L62 532 L62 191 C62 48 160 -8 280 -8 C379 -8 454 34 481 122 C481 114 481 0 481 0 L678 0 Z " />
<glyph glyph-name="v" unicode="v" horiz-adv-x="696" d="M686 532 L493 532 L361 190 L230 532 L10 532 L259 0 L437 0 L686 532 Z " />
<glyph glyph-name="w" unicode="w" horiz-adv-x="1119" d="M1109 532 L919 532 L789 197 L669 532 L477 532 L356 197 L230 532 L10 532 L254 0 L431 0 L564 319 L679 0 L865 0 L1109 532 Z " />
<glyph glyph-name="x" unicode="x" horiz-adv-x="734" d="M709 0 L502 273 L697 532 L484 532 L371 344 L261 532 L38 532 L232 273 L25 0 L236 0 L363 190 L489 0 L709 0 Z " />
<glyph glyph-name="y" unicode="y" horiz-adv-x="697" d="M687 532 L488 532 L356 212 L236 532 L10 532 L262 15 C262 15 245 -23 238 -38 C217 -84 207 -93 186 -93 C163 -93 158 -78 158 -60 C158 -41 166 -11 166 -11 L52 -21 C52 -21 40 -60 40 -85 C40 -162 92 -207 195 -207 C285 -207 350 -183 394 -90 L687 532 Z " />
<glyph glyph-name="z" unicode="z" horiz-adv-x="673" d="M623 0 L623 125 L304 125 L623 422 L623 532 L70 532 L70 402 L364 402 L46 114 L46 0 L623 0 Z " />
<glyph glyph-name="braceleft" unicode="&#x7b;" horiz-adv-x="474" d="M429 -180 L429 -62 L365 -62 C345 -62 332 -47 332 -18 C332 52 332 159 332 236 C332 273 312 304 281 304 L248 304 L248 324 L281 324 C310 324 332 343 332 393 C332 458 332 544 332 604 C332 631 344 648 365 648 L429 648 L429 768 L310 768 C192 768 147 714 147 603 C147 548 147 485 147 432 C147 389 132 371 89 371 L27 371 L27 257 L91 257 C127 257 147 240 147 201 C147 137 147 51 147 -15 C147 -145 221 -180 302 -180 L429 -180 Z " />
<glyph glyph-name="bar" unicode="&#x7c;" horiz-adv-x="354" d="M261 -200 L261 800 L93 800 L93 -200 L261 -200 Z " />
<glyph glyph-name="braceright" unicode="&#x7d;" horiz-adv-x="474" d="M446 257 L446 371 L383 371 C341 371 325 389 325 432 C325 485 325 548 325 603 C325 714 281 768 163 768 L44 768 L44 648 L108 648 C129 648 141 631 141 604 C141 544 141 458 141 393 C141 343 163 324 192 324 L225 324 L225 304 L192 304 C161 304 141 273 141 236 C141 159 141 52 141 -18 C141 -47 127 -62 108 -62 L44 -62 L44 -180 L171 -180 C252 -180 325 -145 325 -15 C325 51 325 137 325 201 C325 240 345 257 381 257 L446 257 Z " />
<glyph glyph-name="asciitilde" unicode="&#x7e;" horiz-adv-x="750" d="M593 701 C593 723 583 743 572 757 L486 757 C489 746 491 737 491 730 C491 713 482 704 451 704 C406 704 354 767 260 767 C180 767 155 722 155 683 C155 663 159 645 166 635 L256 635 C253 661 259 677 296 677 C342 677 403 615 462 615 C564 615 593 659 593 701 L593 701 Z " />
<glyph glyph-name="nbspace" unicode="&#xa0;" horiz-adv-x="225" d="" />
<glyph glyph-name="exclamdown" unicode="&#xa1;" horiz-adv-x="342" d="M259 602 L259 768 L83 768 L83 602 L259 602 Z M269 0 L269 274 L228 525 L114 525 L73 274 L73 0 L269 0 Z " />
<glyph glyph-name="cent" unicode="&#xa2;" horiz-adv-x="679" d="M642 287 C642 306 636 332 632 342 L519 350 C519 350 520 337 520 329 C518 257 472 211 376 212 C297 212 256 282 256 368 C256 462 290 553 376 553 C449 553 472 503 472 449 C472 439 471 425 471 425 L622 444 C622 444 626 464 626 478 C626 562 567 648 439 662 L439 768 L300 768 L300 658 C196 641 41 568 41 357 C41 166 202 115 300 107 L300 0 L439 0 L439 106 C570 115 642 193 642 287 L642 287 Z " />
<glyph glyph-name="sterling" unicode="&#xa3;" horiz-adv-x="1034" d="M978 183 C978 226 971 247 968 256 L763 272 C767 259 770 240 770 234 C770 196 753 149 650 149 C609 149 545 169 513 181 C520 197 534 237 534 275 C534 293 533 306 530 323 L756 323 L756 431 L505 431 C497 446 485 493 485 524 C485 597 510 646 614 646 C697 646 717 605 717 568 C717 539 711 522 705 508 L900 484 C914 505 937 558 937 603 C937 686 879 784 598 784 C367 784 241 681 241 545 C241 485 261 439 265 431 L82 431 L82 323 L321 323 C328 310 333 294 333 274 C333 264 332 247 331 238 C308 243 256 250 217 250 C125 250 37 210 37 112 C37 24 123 -16 213 -16 C322 -16 404 44 431 74 C475 50 602 -16 728 -16 C942 -16 978 103 978 183 L978 183 Z M306 135 C293 109 273 78 219 78 C178 78 150 91 150 118 C150 148 179 158 211 158 C240 158 290 143 306 135 L306 135 Z " />
<glyph glyph-name="currency" unicode="&#xa4;" horiz-adv-x="792" d="M764 381 C764 583 599 748 397 748 C195 748 30 583 30 381 C30 179 195 15 397 15 C599 15 764 179 764 381 L764 381 Z M719 496 L614 390 L623 159 L578 135 L443 231 L225 147 L161 186 L244 320 L111 390 L112 443 L271 494 L365 647 L427 647 L501 547 L677 544 L719 496 Z " />
<glyph glyph-name="yen" unicode="&#xa5;" horiz-adv-x="851" d="M814 750 L574 750 L428 431 L287 750 L34 750 L160 521 L48 521 L48 403 L221 403 L276 298 L48 298 L48 180 L313 180 L313 0 L533 0 L533 180 L803 180 L803 298 L571 298 L627 403 L803 403 L803 521 L691 521 L814 750 Z " />
<glyph glyph-name="brokenbar" unicode="&#xa6;" horiz-adv-x="792" d="M764 381 C764 583 599 748 397 748 C195 748 30 583 30 381 C30 179 195 15 397 15 C599 15 764 179 764 381 L764 381 Z M719 496 L614 390 L623 159 L578 135 L443 231 L225 147 L161 186 L244 320 L111 390 L112 443 L271 494 L365 647 L427 647 L501 547 L677 544 L719 496 Z " />
<glyph glyph-name="section" unicode="&#xa7;" horiz-adv-x="704" d="M650 91 C650 196 583 235 583 235 C583 235 650 265 650 367 C650 473 585 548 414 567 C374 571 338 574 321 577 C279 584 259 598 259 621 C259 643 275 677 367 677 C483 677 473 598 473 598 L610 621 C610 621 643 784 366 784 C158 784 75 695 75 603 C75 491 144 454 144 454 C144 454 75 419 75 327 C75 216 138 150 291 131 C382 120 464 120 464 74 C464 40 443 12 354 12 C274 12 215 40 209 103 L70 80 C70 80 69 73 69 63 C69 19 97 -94 362 -94 C579 -94 650 -11 650 91 L650 91 Z M475 340 C475 311 455 288 443 280 C429 281 392 285 344 291 C295 297 259 311 259 349 C259 380 278 398 291 409 C310 407 340 404 390 398 C445 391 475 373 475 340 L475 340 Z " />
<glyph glyph-name="dieresis" unicode="&#xa8;" horiz-adv-x="732" d="M605 610 L605 768 L427 768 L427 610 L605 610 Z M296 610 L296 768 L118 768 L118 610 L296 610 Z " />
<glyph glyph-name="copyright" unicode="&#xa9;" horiz-adv-x="921" d="M880 378 C880 609 692 798 460 798 C228 798 40 609 40 378 C40 147 228 -41 460 -41 C692 -41 880 147 880 378 L880 378 Z M799 378 C799 188 651 34 460 34 C269 34 119 188 119 378 C119 568 269 723 460 723 C651 723 799 568 799 378 L799 378 Z M671 321 C671 330 670 338 669 345 L565 354 C566 346 567 337 567 328 C567 293 552 251 472 251 C410 251 372 300 372 377 C372 471 409 519 472 519 C542 519 552 475 555 428 L655 445 C660 515 620 607 477 607 C329 607 236 515 236 372 C236 247 331 152 472 152 C634 152 671 257 671 321 L671 321 Z " />
<glyph glyph-name="ordfeminine" unicode="&#xaa;" horiz-adv-x="600" d="M581 389 L575 419 C575 419 568 416 557 416 C537 416 514 428 514 456 L514 653 C514 736 453 784 289 784 C113 784 80 719 80 672 C80 645 90 624 90 624 L222 640 C222 640 216 654 216 666 C216 685 228 710 288 709 C336 709 358 688 358 653 L358 618 C347 613 281 610 248 606 C139 594 41 559 41 466 C41 380 125 358 213 358 C330 358 369 406 383 435 C383 435 400 362 483 362 C536 362 570 378 581 389 L581 389 Z M541 244 L541 310 L61 310 L61 244 L541 244 Z M358 502 C358 474 337 438 264 438 C225 438 202 458 202 486 C202 549 287 569 358 569 C358 550 358 502 358 502 L358 502 Z " />
<glyph glyph-name="guillemotleft" unicode="&#xab;" horiz-adv-x="699" d="M642 37 L642 177 L452 286 L642 394 L642 534 L357 357 L357 217 L642 37 Z M326 37 L326 177 L135 286 L326 394 L326 534 L41 357 L41 217 L326 37 Z " />
<glyph glyph-name="logicalnot" unicode="&#xac;" horiz-adv-x="792" d="M764 381 C764 583 599 748 397 748 C195 748 30 583 30 381 C30 179 195 15 397 15 C599 15 764 179 764 381 L764 381 Z M719 496 L614 390 L623 159 L578 135 L443 231 L225 147 L161 186 L244 320 L111 390 L112 443 L271 494 L365 647 L427 647 L501 547 L677 544 L719 496 Z " />
<glyph glyph-name="registered" unicode="&#xae;" horiz-adv-x="921" d="M880 378 C880 609 692 798 460 798 C228 798 40 609 40 378 C40 147 228 -41 460 -41 C692 -41 880 147 880 378 L880 378 Z M799 378 C799 188 651 34 460 34 C269 34 119 188 119 378 C119 568 269 723 460 723 C651 723 799 568 799 378 L799 378 Z M684 174 C668 189 658 212 651 250 C643 292 621 353 574 354 C639 367 672 407 672 467 C672 526 612 589 518 589 L258 589 L258 174 L397 174 L397 321 L470 321 C484 321 496 314 500 301 C505 286 522 223 526 198 C528 187 531 178 538 174 C543 174 684 174 684 174 L684 174 Z M537 454 C537 421 513 403 477 403 L397 403 L397 502 L472 502 C514 502 537 479 537 454 L537 454 Z " />
<glyph glyph-name="macron" unicode="&#xaf;" horiz-adv-x="732" d="M558 617 L558 744 L165 744 L165 617 L558 617 Z " />
<glyph glyph-name="degree" unicode="&#xb0;" horiz-adv-x="331" d="M291 637 C291 707 235 763 165 763 C96 763 40 707 40 637 C40 568 96 512 165 512 C235 512 291 568 291 637 L291 637 Z M219 636 C219 607 194 582 165 582 C136 582 111 607 111 636 C111 665 136 690 165 690 C194 690 219 665 219 636 L219 636 Z " />
<glyph glyph-name="plusminus" unicode="&#xb1;" horiz-adv-x="1240" d="M1167 0 L1167 768 L970 768 L970 0 L1167 0 Z M909 437 L909 532 L749 532 C749 532 713 582 713 644 C713 677 725 695 753 695 C784 695 793 665 793 635 C793 614 788 580 788 580 L894 593 C894 594 904 622 904 657 C904 734 862 784 748 784 C628 784 563 722 563 632 C563 577 578 548 588 532 L480 532 L480 437 L581 437 L581 0 L773 0 L773 437 L909 437 Z M450 437 L450 532 L290 532 C290 532 254 582 254 644 C254 677 266 695 294 695 C325 695 334 665 334 635 C334 614 329 580 329 580 L435 593 C435 593 445 622 445 657 C445 734 403 784 289 784 C169 784 104 722 104 632 C104 577 119 548 129 532 L21 532 L21 437 L122 437 L122 0 L314 0 L314 437 L450 437 Z " />
<glyph glyph-name="twosuperior" unicode="&#xb2;" horiz-adv-x="792" d="M764 381 C764 583 599 748 397 748 C195 748 30 583 30 381 C30 179 195 15 397 15 C599 15 764 179 764 381 L764 381 Z M719 496 L614 390 L623 159 L578 135 L443 231 L225 147 L161 186 L244 320 L111 390 L112 443 L271 494 L365 647 L427 647 L501 547 L677 544 L719 496 Z " />
<glyph glyph-name="threesuperior" unicode="&#xb3;" horiz-adv-x="792" d="M764 381 C764 583 599 748 397 748 C195 748 30 583 30 381 C30 179 195 15 397 15 C599 15 764 179 764 381 L764 381 Z M719 496 L614 390 L623 159 L578 135 L443 231 L225 147 L161 186 L244 320 L111 390 L112 443 L271 494 L365 647 L427 647 L501 547 L677 544 L719 496 Z " />
<glyph glyph-name="acute" unicode="&#xb4;" horiz-adv-x="732" d="M538 784 L359 784 L254 618 L363 618 L538 784 Z " />
<glyph glyph-name="mu" unicode="&#xb5;" horiz-adv-x="792" d="M764 381 C764 583 599 748 397 748 C195 748 30 583 30 381 C30 179 195 15 397 15 C599 15 764 179 764 381 L764 381 Z M719 496 L614 390 L623 159 L578 135 L443 231 L225 147 L161 186 L244 320 L111 390 L112 443 L271 494 L365 647 L427 647 L501 547 L677 544 L719 496 Z " />
<glyph glyph-name="paragraph" unicode="&#xb6;" horiz-adv-x="892" d="M819 -87 L819 768 L338 768 C184 768 41 664 41 510 C41 314 181 253 332 253 L466 253 L466 -87 L606 -87 L606 662 L680 662 L680 -87 L819 -87 Z M466 400 L411 400 C344 400 296 437 296 529 C296 626 343 662 411 662 L466 662 L466 400 Z " />
<glyph glyph-name="periodcentered" unicode="&#xb7;" horiz-adv-x="342" d="M269 287 L269 454 L73 454 L73 287 L269 287 Z " />
<glyph glyph-name="cedilla" unicode="&#xb8;" horiz-adv-x="732" d="M475 -123 C475 -92 451 -74 428 -57 C403 -39 390 -28 390 -15 C390 -9 393 0 393 0 L337 0 C332 -5 329 -12 329 -25 C329 -58 350 -75 370 -88 C388 -100 405 -109 405 -124 C405 -134 399 -156 371 -156 C346 -156 333 -151 333 -123 C333 -118 333 -114 333 -108 L265 -115 C265 -115 264 -120 264 -128 C264 -173 297 -206 370 -206 C436 -206 475 -174 475 -123 L475 -123 Z " />
<glyph glyph-name="onesuperior" unicode="&#xb9;" horiz-adv-x="792" d="M764 381 C764 583 599 748 397 748 C195 748 30 583 30 381 C30 179 195 15 397 15 C599 15 764 179 764 381 L764 381 Z M719 496 L614 390 L623 159 L578 135 L443 231 L225 147 L161 186 L244 320 L111 390 L112 443 L271 494 L365 647 L427 647 L501 547 L677 544 L719 496 Z " />
<glyph glyph-name="ordmasculine" unicode="&#xba;" horiz-adv-x="615" d="M573 559 C573 710 443 784 307 784 C171 784 41 710 41 559 C41 430 158 362 307 362 C457 362 573 430 573 559 L573 559 Z M563 244 L563 310 L52 310 L52 244 L563 244 Z M406 567 C406 505 369 440 307 440 C236 440 208 505 208 567 C208 637 240 705 307 705 C373 705 406 637 406 567 L406 567 Z " />
<glyph glyph-name="guillemotright" unicode="&#xbb;" horiz-adv-x="699" d="M658 217 L658 357 L373 534 L373 394 L564 286 L373 177 L373 37 L658 217 Z M342 217 L342 357 L57 534 L57 394 L248 286 L57 177 L57 37 L342 217 Z " />
<glyph glyph-name="onequarter" unicode="&#xbc;" horiz-adv-x="792" d="M764 381 C764 583 599 748 397 748 C195 748 30 583 30 381 C30 179 195 15 397 15 C599 15 764 179 764 381 L764 381 Z M719 496 L614 390 L623 159 L578 135 L443 231 L225 147 L161 186 L244 320 L111 390 L112 443 L271 494 L365 647 L427 647 L501 547 L677 544 L719 496 Z " />
<glyph glyph-name="onehalf" unicode="&#xbd;" horiz-adv-x="792" d="M764 381 C764 583 599 748 397 748 C195 748 30 583 30 381 C30 179 195 15 397 15 C599 15 764 179 764 381 L764 381 Z M719 496 L614 390 L623 159 L578 135 L443 231 L225 147 L161 186 L244 320 L111 390 L112 443 L271 494 L365 647 L427 647 L501 547 L677 544 L719 496 Z " />
<glyph glyph-name="threequarters" unicode="&#xbe;" horiz-adv-x="792" d="M764 381 C764 583 599 748 397 748 C195 748 30 583 30 381 C30 179 195 15 397 15 C599 15 764 179 764 381 L764 381 Z M719 496 L614 390 L623 159 L578 135 L443 231 L225 147 L161 186 L244 320 L111 390 L112 443 L271 494 L365 647 L427 647 L501 547 L677 544 L719 496 Z " />
<glyph glyph-name="questiondown" unicode="&#xbf;" horiz-adv-x="678" d="M446 601 L446 768 L270 768 L270 601 L446 601 Z M628 171 C628 200 615 247 615 247 L410 269 C420 254 430 222 430 195 C430 148 395 115 324 115 C268 115 234 138 234 173 C234 213 247 231 328 283 C364 307 399 327 424 354 C447 379 462 410 462 455 C462 487 453 511 438 524 L267 524 C267 524 273 503 273 487 C273 470 263 455 249 440 C224 415 185 393 152 370 C89 325 18 287 18 203 C18 66 136 -16 339 -16 C553 -16 628 50 628 171 L628 171 Z " />
<glyph glyph-name="Agrave" unicode="&#xc0;" horiz-adv-x="869" d="M508 808 L402 974 L224 974 L398 808 L508 808 Z M839 0 L568 768 L315 768 L30 0 L260 0 L292 102 L557 102 L587 0 L839 0 Z M522 238 L329 238 L429 554 L522 238 Z " />
<glyph glyph-name="Aacute" unicode="&#xc1;" horiz-adv-x="869" d="M839 0 L568 768 L315 768 L30 0 L260 0 L292 102 L557 102 L587 0 L839 0 Z M522 238 L329 238 L429 554 L522 238 Z M630 974 L451 974 L346 808 L455 808 L630 974 Z " />
<glyph glyph-name="Acircumflex" unicode="&#xc2;" horiz-adv-x="869" d="M839 0 L568 768 L315 768 L30 0 L260 0 L292 102 L557 102 L587 0 L839 0 Z M522 238 L329 238 L429 554 L522 238 Z M643 808 L520 974 L356 974 L233 808 L361 808 L438 888 L515 808 L643 808 Z " />
<glyph glyph-name="Atilde" unicode="&#xc3;" horiz-adv-x="869" d="M839 0 L568 768 L315 768 L30 0 L260 0 L292 102 L557 102 L587 0 L839 0 Z M522 238 L329 238 L429 554 L522 238 Z M651 886 C651 908 641 929 630 943 L544 943 C547 932 549 923 549 916 C549 899 540 890 509 890 C487 890 464 904 436 919 C405 936 367 953 318 953 C238 953 213 908 213 869 C213 849 217 831 224 821 L314 821 C314 824 313 829 313 832 C313 849 321 863 354 863 C376 863 401 849 428 834 C458 818 489 801 520 801 C621 801 651 845 651 886 L651 886 Z " />
<glyph glyph-name="Adieresis" unicode="&#xc4;" horiz-adv-x="869" d="M839 0 L568 768 L315 768 L30 0 L260 0 L292 102 L557 102 L587 0 L839 0 Z M522 238 L329 238 L429 554 L522 238 Z M675 808 L675 966 L497 966 L497 808 L675 808 Z M366 808 L366 966 L188 966 L188 808 L366 808 Z " />
<glyph glyph-name="Aring" unicode="&#xc5;" horiz-adv-x="869" d="M839 0 L568 768 L490 768 C535 786 556 831 556 881 C556 946 505 997 435 997 C364 997 314 946 314 881 C314 831 335 785 380 768 L315 768 L30 0 L260 0 L292 102 L557 102 L587 0 L839 0 Z M487 874 C487 846 464 824 436 824 C408 824 386 846 386 874 C386 902 408 923 436 923 C464 923 487 902 487 874 L487 874 Z M522 238 L329 238 L429 554 L522 238 Z " />
<glyph glyph-name="AE" unicode="&#xc6;" horiz-adv-x="1256" d="M1211 0 L1211 167 L758 167 L758 311 L1107 311 L1107 463 L758 463 L758 606 L1165 606 L1165 768 L435 768 L0 0 L230 0 L283 102 L541 102 L541 0 L1211 0 Z M541 238 L355 238 L541 599 L541 238 Z " />
<glyph glyph-name="Ccedilla" unicode="&#xc7;" horiz-adv-x="898" d="M849 232 C849 279 840 310 837 322 L656 339 C657 332 659 315 659 293 C659 230 637 127 484 127 C361 127 298 238 298 382 C298 508 360 644 484 644 C597 644 639 589 641 517 C641 503 640 489 637 475 L824 506 C825 516 826 527 826 538 C826 646 766 784 494 784 C249 784 46 637 47 372 C47 261 93 142 199 67 C317 -16 445 -15 445 -15 C440 -46 459 -66 480 -80 C515 -103 521 -110 521 -120 C521 -130 516 -154 488 -154 C451 -154 450 -124 449 -104 L379 -111 C379 -111 378 -116 378 -124 C378 -169 410 -205 487 -205 C553 -205 594 -171 594 -119 C594 -95 576 -73 536 -50 C513 -37 510 -23 510 -15 C601 -14 718 10 788 78 C836 124 849 183 849 232 L849 232 Z " />
<glyph glyph-name="Egrave" unicode="&#xc8;" horiz-adv-x="860" d="M533 808 L427 974 L249 974 L423 808 L533 808 Z M815 0 L815 167 L326 167 L326 311 L711 311 L711 463 L326 463 L326 606 L769 606 L769 768 L93 768 L93 0 L815 0 Z " />
<glyph glyph-name="Eacute" unicode="&#xc9;" horiz-adv-x="860" d="M815 0 L815 167 L326 167 L326 311 L711 311 L711 463 L326 463 L326 606 L769 606 L769 768 L93 768 L93 0 L815 0 Z M639 974 L460 974 L355 808 L464 808 L639 974 Z " />
<glyph glyph-name="Ecircumflex" unicode="&#xca;" horiz-adv-x="860" d="M815 0 L815 167 L326 167 L326 311 L711 311 L711 463 L326 463 L326 606 L769 606 L769 768 L93 768 L93 0 L815 0 Z M650 808 L527 974 L363 974 L240 808 L368 808 L445 888 L522 808 L650 808 Z " />
<glyph glyph-name="Edieresis" unicode="&#xcb;" horiz-adv-x="860" d="M815 0 L815 167 L326 167 L326 311 L711 311 L711 463 L326 463 L326 606 L769 606 L769 768 L93 768 L93 0 L815 0 Z M686 808 L686 966 L508 966 L508 808 L686 808 Z M377 808 L377 966 L199 966 L199 808 L377 808 Z " />
<glyph glyph-name="Igrave" unicode="&#xcc;" horiz-adv-x="419" d="M281 808 L176 974 L-3 974 L171 808 L281 808 Z M326 0 L326 768 L93 768 L93 0 L326 0 Z " />
<glyph glyph-name="Iacute" unicode="&#xcd;" horiz-adv-x="419" d="M326 0 L326 768 L93 768 L93 0 L326 0 Z M421 974 L242 974 L137 808 L246 808 L421 974 Z " />
<glyph glyph-name="Icircumflex" unicode="&#xce;" horiz-adv-x="419" d="M326 0 L326 768 L93 768 L93 0 L326 0 Z M415 808 L292 974 L128 974 L5 808 L133 808 L210 888 L287 808 L415 808 Z " />
<glyph glyph-name="Idieresis" unicode="&#xcf;" horiz-adv-x="419" d="M440 807 L440 964 L262 964 L262 807 L440 807 Z M152 807 L152 964 L-26 964 L-26 807 L152 807 Z M326 0 L326 768 L93 768 L93 0 L326 0 Z " />
<glyph glyph-name="Eth" unicode="&#xd0;" horiz-adv-x="939" d="M892 358 C892 623 730 768 511 768 L93 768 L93 459 L19 459 L19 291 L93 291 L93 0 L557 0 C747 0 892 167 892 358 L892 358 Z M647 382 C647 238 582 167 475 167 L326 167 L326 291 L498 291 L498 459 L326 459 L326 606 L475 606 C585 606 647 513 647 382 L647 382 Z " />
<glyph glyph-name="Ntilde" unicode="&#xd1;" horiz-adv-x="964" d="M871 0 L871 768 L655 768 L655 316 L358 768 L93 768 L93 0 L309 0 L309 467 L625 0 L871 0 Z M698 878 C698 900 688 921 677 935 L591 935 C594 924 596 915 596 908 C596 891 587 882 556 882 C534 882 511 896 483 911 C452 928 414 945 365 945 C285 945 260 900 260 861 C260 841 264 823 271 813 L361 813 C361 816 360 821 360 824 C360 841 368 855 401 855 C423 855 448 841 475 826 C505 810 536 793 567 793 C668 793 698 837 698 878 L698 878 Z " />
<glyph glyph-name="Ograve" unicode="&#xd2;" horiz-adv-x="964" d="M548 808 L443 974 L264 974 L439 808 L548 808 Z M917 369 C917 634 704 784 482 784 C260 784 47 634 47 369 C47 142 222 -16 483 -16 C744 -16 917 143 917 369 L917 369 Z M666 382 C667 238 605 127 483 127 C361 127 298 238 298 382 C298 507 358 644 482 644 C606 644 666 507 666 382 L666 382 Z " />
<glyph glyph-name="Oacute" unicode="&#xd3;" horiz-adv-x="964" d="M917 369 C917 634 704 784 482 784 C260 784 47 634 47 369 C47 142 222 -16 483 -16 C744 -16 917 143 917 369 L917 369 Z M666 382 C667 238 605 127 483 127 C361 127 298 238 298 382 C298 507 358 644 482 644 C606 644 666 507 666 382 L666 382 Z M701 974 L522 974 L417 808 L526 808 L701 974 Z " />
<glyph glyph-name="Ocircumflex" unicode="&#xd4;" horiz-adv-x="964" d="M917 369 C917 634 704 784 482 784 C260 784 47 634 47 369 C47 142 222 -16 483 -16 C744 -16 917 143 917 369 L917 369 Z M666 382 C667 238 605 127 483 127 C361 127 298 238 298 382 C298 507 358 644 482 644 C606 644 666 507 666 382 L666 382 Z M687 808 L564 974 L400 974 L277 808 L405 808 L482 888 L559 808 L687 808 Z " />
<glyph glyph-name="Otilde" unicode="&#xd5;" horiz-adv-x="964" d="M917 369 C917 634 704 784 482 784 C260 784 47 634 47 369 C47 142 222 -16 483 -16 C744 -16 917 143 917 369 L917 369 Z M666 382 C667 238 605 127 483 127 C361 127 298 238 298 382 C298 507 358 644 482 644 C606 644 666 507 666 382 L666 382 Z M693 882 C693 904 683 925 672 939 L586 939 C589 928 591 919 591 912 C591 895 582 886 551 886 C529 886 506 900 478 915 C447 932 409 949 360 949 C280 949 255 904 255 865 C255 845 259 827 266 817 L356 817 C356 820 355 825 355 828 C355 845 363 859 396 859 C418 859 443 845 470 830 C500 814 531 797 562 797 C663 797 693 841 693 882 L693 882 Z " />
<glyph glyph-name="Odieresis" unicode="&#xd6;" horiz-adv-x="964" d="M917 369 C917 634 704 784 482 784 C260 784 47 634 47 369 C47 142 222 -16 483 -16 C744 -16 917 143 917 369 L917 369 Z M666 382 C667 238 605 127 483 127 C361 127 298 238 298 382 C298 507 358 644 482 644 C606 644 666 507 666 382 L666 382 Z M719 808 L719 966 L541 966 L541 808 L719 808 Z M410 808 L410 966 L232 966 L232 808 L410 808 Z " />
<glyph glyph-name="multiply" unicode="&#xd7;" horiz-adv-x="792" d="M764 381 C764 583 599 748 397 748 C195 748 30 583 30 381 C30 179 195 15 397 15 C599 15 764 179 764 381 L764 381 Z M719 496 L614 390 L623 159 L578 135 L443 231 L225 147 L161 186 L244 320 L111 390 L112 443 L271 494 L365 647 L427 647 L501 547 L677 544 L719 496 Z " />
<glyph glyph-name="Oslash" unicode="&#xd8;" horiz-adv-x="964" d="M917 369 C917 467 889 569 807 655 L917 767 L805 767 L743 705 C656 764 574 784 482 784 C267 784 46 634 47 369 C47 259 78 189 150 107 L47 0 L159 0 L216 57 C306 0 394 -16 483 -16 C744 -16 917 143 917 369 L917 369 Z M611 574 L313 269 C300 311 298 337 298 382 C298 507 356 644 482 644 C539 644 576 619 611 574 L611 574 Z M666 382 C666 234 602 127 483 127 C425 127 387 150 350 193 L649 495 C663 454 666 427 666 382 L666 382 Z " />
<glyph glyph-name="Ugrave" unicode="&#xd9;" horiz-adv-x="953" d="M551 808 L445 974 L267 974 L441 808 L551 808 Z M866 275 L866 768 L633 768 L633 307 C633 187 566 140 477 140 C389 140 320 167 320 303 L320 768 L87 768 L87 275 C87 85 216 -16 477 -16 C738 -16 866 85 866 275 L866 275 Z " />
<glyph glyph-name="Uacute" unicode="&#xda;" horiz-adv-x="953" d="M866 275 L866 768 L633 768 L633 307 C633 187 566 140 477 140 C389 140 320 167 320 303 L320 768 L87 768 L87 275 C87 85 216 -16 477 -16 C738 -16 866 85 866 275 L866 275 Z M680 974 L501 974 L396 808 L505 808 L680 974 Z " />
<glyph glyph-name="Ucircumflex" unicode="&#xdb;" horiz-adv-x="953" d="M866 275 L866 768 L633 768 L633 307 C633 187 566 140 477 140 C389 140 320 167 320 303 L320 768 L87 768 L87 275 C87 85 216 -16 477 -16 C738 -16 866 85 866 275 L866 275 Z M681 808 L558 974 L394 974 L271 808 L399 808 L476 888 L553 808 L681 808 Z " />
<glyph glyph-name="Udieresis" unicode="&#xdc;" horiz-adv-x="953" d="M866 275 L866 768 L633 768 L633 307 C633 187 566 140 477 140 C389 140 320 167 320 303 L320 768 L87 768 L87 275 C87 85 216 -16 477 -16 C738 -16 866 85 866 275 L866 275 Z M715 808 L715 966 L537 966 L537 808 L715 808 Z M406 808 L406 966 L228 966 L228 808 L406 808 Z " />
<glyph glyph-name="Yacute" unicode="&#xdd;" horiz-adv-x="906" d="M881 768 L618 768 L457 455 L303 768 L25 768 L336 251 L336 0 L569 0 L569 251 L881 768 Z M638 974 L459 974 L354 808 L463 808 L638 974 Z " />
<glyph glyph-name="Thorn" unicode="&#xde;" horiz-adv-x="890" d="M850 371 C850 526 759 642 572 642 L326 642 L326 768 L93 768 L93 0 L326 0 L326 112 L561 112 C758 112 850 221 850 371 L850 371 Z M624 378 C624 309 581 274 509 274 L326 274 L326 480 L521 480 C594 480 624 436 624 378 L624 378 Z " />
<glyph glyph-name="germandbls" unicode="&#xdf;" horiz-adv-x="787" d="M758 167 C758 291 695 343 557 371 C481 386 457 399 440 430 C549 440 641 484 641 595 C641 695 541 784 366 784 C208 784 73 712 73 580 L73 0 L264 0 L264 594 C264 661 303 695 367 695 C421 695 462 664 462 592 C462 544 447 519 408 480 C404 476 324 406 317 399 C317 291 384 246 455 231 C559 209 583 193 583 148 C583 121 550 95 502 95 C458 95 409 103 374 129 L316 51 C339 16 429 -12 536 -12 C663 -12 758 57 758 167 L758 167 Z " />
<glyph glyph-name="agrave" unicode="&#xe0;" horiz-adv-x="712" d="M703 29 L695 69 C695 69 687 65 673 65 C644 65 621 84 621 119 L621 376 C621 480 546 551 347 551 C175 551 91 515 91 403 C91 373 105 338 105 338 L265 359 C265 359 258 381 258 396 C258 431 285 452 345 452 C404 452 430 423 430 377 L430 333 C421 332 390 329 352 325 C143 302 44 246 44 131 C44 31 121 -12 255 -12 C398 -12 434 43 462 87 C468 57 482 -6 583 -6 C651 -6 689 19 703 29 L703 29 Z M430 175 C430 139 399 91 317 91 C268 91 240 117 240 154 C240 222 310 257 401 263 L430 265 L430 175 Z M454 586 L348 752 L170 752 L344 586 L454 586 Z " />
<glyph glyph-name="aacute" unicode="&#xe1;" horiz-adv-x="712" d="M703 29 L695 69 C695 69 687 65 673 65 C644 65 621 84 621 119 L621 376 C621 480 546 551 347 551 C175 551 91 515 91 403 C91 373 105 338 105 338 L265 359 C265 359 258 381 258 396 C258 431 285 452 345 452 C404 452 430 423 430 377 L430 333 C421 332 390 329 352 325 C143 302 44 246 44 131 C44 31 121 -12 255 -12 C398 -12 434 43 462 87 C468 57 482 -6 583 -6 C651 -6 689 19 703 29 L703 29 Z M430 175 C430 139 399 91 317 91 C268 91 240 117 240 154 C240 222 310 257 401 263 L430 265 L430 175 Z M540 751 L361 751 L256 585 L365 585 L540 751 Z " />
<glyph glyph-name="acircumflex" unicode="&#xe2;" horiz-adv-x="712" d="M703 29 L695 69 C695 69 687 65 673 65 C644 65 621 84 621 119 L621 376 C621 480 546 551 347 551 C175 551 91 515 91 403 C91 373 105 338 105 338 L265 359 C265 359 258 381 258 396 C258 431 285 452 345 452 C404 452 430 423 430 377 L430 333 C421 332 390 329 352 325 C143 302 44 246 44 131 C44 31 121 -12 255 -12 C398 -12 434 43 462 87 C468 57 482 -6 583 -6 C651 -6 689 19 703 29 L703 29 Z M430 175 C430 139 399 91 317 91 C268 91 240 117 240 154 C240 222 310 257 401 263 L430 265 L430 175 Z M552 585 L429 751 L265 751 L142 585 L270 585 L347 665 L424 585 L552 585 Z " />
<glyph glyph-name="atilde" unicode="&#xe3;" horiz-adv-x="712" d="M703 29 L695 69 C695 69 687 65 673 65 C644 65 621 84 621 119 L621 376 C621 480 546 551 347 551 C175 551 91 515 91 403 C91 373 105 338 105 338 L265 359 C265 359 258 381 258 396 C258 431 285 452 345 452 C404 452 430 423 430 377 L430 333 C421 332 390 329 352 325 C143 302 44 246 44 131 C44 31 121 -12 255 -12 C398 -12 434 43 462 87 C468 57 482 -6 583 -6 C651 -6 689 19 703 29 L703 29 Z M430 175 C430 139 399 91 317 91 C268 91 240 117 240 154 C240 222 310 257 401 263 L430 265 L430 175 Z M562 665 C562 687 552 708 541 722 L455 722 C458 711 460 702 460 695 C460 678 451 669 420 669 C398 669 375 683 347 698 C316 715 278 732 229 732 C149 732 124 687 124 648 C124 628 128 610 135 600 L225 600 C225 603 224 608 224 611 C224 628 232 642 265 642 C287 642 312 628 339 613 C369 597 400 580 431 580 C532 580 562 624 562 665 L562 665 Z " />
<glyph glyph-name="adieresis" unicode="&#xe4;" horiz-adv-x="712" d="M585 586 L585 728 L415 728 L415 586 L585 586 Z M291 586 L291 728 L121 728 L121 586 L291 586 Z M703 29 L695 69 C695 69 687 65 673 65 C644 65 621 84 621 119 L621 376 C621 480 546 551 347 551 C175 551 91 515 91 403 C91 373 105 338 105 338 L265 359 C265 359 258 381 258 396 C258 431 285 452 345 452 C404 452 430 423 430 377 L430 333 C421 332 390 329 352 325 C143 302 44 246 44 131 C44 31 121 -12 255 -12 C398 -12 434 43 462 87 C468 57 482 -6 583 -6 C651 -6 689 19 703 29 L703 29 Z M430 175 C430 139 399 91 317 91 C268 91 240 117 240 154 C240 222 310 257 401 263 L430 265 L430 175 Z " />
<glyph glyph-name="aring" unicode="&#xe5;" horiz-adv-x="712" d="M478 711 C478 781 422 837 352 837 C283 837 227 781 227 711 C227 642 283 586 352 586 C422 586 478 642 478 711 L478 711 Z M703 29 L695 69 C695 69 687 65 673 65 C644 65 621 84 621 119 L621 376 C621 480 546 551 347 551 C175 551 91 515 91 403 C91 373 105 338 105 338 L265 359 C265 359 258 381 258 396 C258 431 285 452 345 452 C404 452 430 423 430 377 L430 333 C421 332 390 329 352 325 C143 302 44 246 44 131 C44 31 121 -12 255 -12 C398 -12 434 43 462 87 C468 57 482 -6 583 -6 C651 -6 689 19 703 29 L703 29 Z M430 175 C430 139 399 91 317 91 C268 91 240 117 240 154 C240 222 310 257 401 263 L430 265 L430 175 Z M406 710 C406 680 382 656 352 656 C322 656 298 680 298 710 C298 740 322 764 352 764 C382 764 406 740 406 710 L406 710 Z " />
<glyph glyph-name="ae" unicode="&#xe6;" horiz-adv-x="1051" d="M1003 138 C1003 161 999 170 995 177 L882 186 C883 145 858 95 736 95 C624 95 605 187 610 233 L989 233 C996 250 1002 283 1002 320 C1002 413 963 547 736 547 C618 547 560 507 529 479 C518 505 476 547 347 547 C133 547 91 461 91 398 C91 369 99 344 105 334 L265 355 C261 364 258 381 258 393 C258 419 274 448 345 448 C404 448 430 419 430 373 L430 329 C328 327 215 319 138 279 C81 249 44 202 44 124 C44 9 140 -16 262 -16 C407 -16 477 64 488 83 C498 62 551 -16 736 -16 C962 -16 1003 82 1003 138 L1003 138 Z M823 343 C823 324 821 317 818 309 L614 309 C614 354 637 436 728 436 C806 436 823 381 823 343 L823 343 Z M430 171 C430 128 400 87 317 87 C268 87 240 113 240 150 C240 227 329 260 430 260 C430 260 430 200 430 171 L430 171 Z " />
<glyph glyph-name="ccedilla" unicode="&#xe7;" horiz-adv-x="679" d="M641 169 C641 202 632 225 632 225 L519 233 C519 233 520 226 520 215 C520 177 508 94 376 95 C297 96 256 165 256 251 C256 345 290 436 376 436 C451 436 472 385 472 308 L622 326 C623 331 624 341 624 355 C624 417 596 547 376 547 C187 547 41 442 41 239 C41 -18 340 -17 340 -17 C340 -20 339 -24 339 -27 C339 -49 353 -67 367 -77 C405 -105 410 -111 410 -121 C410 -141 401 -155 380 -155 C344 -155 353 -122 355 -104 L275 -112 C275 -112 274 -118 274 -127 C274 -154 287 -206 382 -206 C449 -206 489 -172 489 -120 C489 -96 473 -76 431 -51 C418 -43 405 -27 405 -16 C471 -11 532 0 580 41 C629 82 641 132 641 169 L641 169 Z " />
<glyph glyph-name="egrave" unicode="&#xe8;" horiz-adv-x="692" d="M644 143 C644 156 640 181 640 181 L520 190 C517 137 483 99 388 99 C257 99 251 191 251 237 C276 237 629 237 629 237 C629 237 643 293 643 328 C643 453 561 551 376 551 C187 551 41 446 41 243 C41 80 175 -12 376 -12 C580 -12 644 64 644 143 L644 143 Z M463 348 C463 333 458 313 458 313 L255 313 C257 374 282 440 369 440 C436 440 463 401 463 348 L463 348 Z M487 586 L381 752 L203 752 L377 586 L487 586 Z " />
<glyph glyph-name="eacute" unicode="&#xe9;" horiz-adv-x="692" d="M644 143 C644 156 640 181 640 181 L520 190 C517 137 483 99 388 99 C257 99 251 191 251 237 C276 237 629 237 629 237 C629 237 643 293 643 328 C643 453 561 551 376 551 C187 551 41 446 41 243 C41 80 175 -12 376 -12 C580 -12 644 64 644 143 L644 143 Z M463 348 C463 333 458 313 458 313 L255 313 C257 374 282 440 369 440 C436 440 463 401 463 348 L463 348 Z M558 751 L379 751 L274 585 L383 585 L558 751 Z " />
<glyph glyph-name="ecircumflex" unicode="&#xea;" horiz-adv-x="692" d="M644 143 C644 156 640 181 640 181 L520 190 C517 137 483 99 388 99 C257 99 251 191 251 237 C276 237 629 237 629 237 C629 237 643 293 643 328 C643 453 561 551 376 551 C187 551 41 446 41 243 C41 80 175 -12 376 -12 C580 -12 644 64 644 143 L644 143 Z M463 348 C463 333 458 313 458 313 L255 313 C257 374 282 440 369 440 C436 440 463 401 463 348 L463 348 Z M563 585 L440 751 L276 751 L153 585 L281 585 L358 665 L435 585 L563 585 Z " />
<glyph glyph-name="edieresis" unicode="&#xeb;" horiz-adv-x="692" d="M589 586 L589 728 L419 728 L419 586 L589 586 Z M295 586 L295 728 L125 728 L125 586 L295 586 Z M644 143 C644 156 640 181 640 181 L520 190 C517 137 483 99 388 99 C257 99 251 191 251 237 C276 237 629 237 629 237 C629 237 643 293 643 328 C643 453 561 551 376 551 C187 551 41 446 41 243 C41 80 175 -12 376 -12 C580 -12 644 64 644 143 L644 143 Z M463 348 C463 333 458 313 458 313 L255 313 C257 374 282 440 369 440 C436 440 463 401 463 348 L463 348 Z " />
<glyph glyph-name="igrave" unicode="&#xec;" horiz-adv-x="342" d="M269 0 L269 532 L73 532 L73 0 L269 0 Z M243 585 L137 751 L-41 751 L133 585 L243 585 Z " />
<glyph glyph-name="iacute" unicode="&#xed;" horiz-adv-x="342" d="M269 0 L269 532 L73 532 L73 0 L269 0 Z M376 751 L197 751 L92 585 L201 585 L376 751 Z " />
<glyph glyph-name="icircumflex" unicode="&#xee;" horiz-adv-x="342" d="M269 0 L269 532 L73 532 L73 0 L269 0 Z M376 585 L253 751 L89 751 L-34 585 L94 585 L171 665 L248 585 L376 585 Z " />
<glyph glyph-name="idieresis" unicode="&#xef;" horiz-adv-x="342" d="M388 586 L388 728 L218 728 L218 586 L388 586 Z M127 586 L127 728 L-42 728 L-42 586 L127 586 Z M269 0 L269 532 L73 532 L73 0 L269 0 Z " />
<glyph glyph-name="eth" unicode="&#xf0;" horiz-adv-x="734" d="M690 267 C690 493 611 601 540 662 L645 698 L523 803 L407 741 C336 771 248 792 148 792 L112 676 C162 670 194 664 243 653 L172 615 L221 552 L371 604 C410 579 437 547 450 521 C423 528 395 531 366 531 C171 531 41 443 41 241 C41 78 183 -12 366 -12 C548 -12 690 67 690 267 L690 267 Z M486 252 C486 171 447 94 366 94 C279 94 246 171 246 252 C246 346 281 426 366 426 C410 426 454 412 476 385 C480 343 486 298 486 252 L486 252 Z " />
<glyph glyph-name="ntilde" unicode="&#xf1;" horiz-adv-x="750" d="M688 0 L688 348 C688 491 592 547 471 547 C364 547 297 501 269 417 C269 448 269 532 269 532 L73 532 L73 0 L269 0 L269 286 C269 363 315 405 385 405 C460 405 491 357 491 286 L491 0 L688 0 Z M595 659 C595 681 585 702 574 716 L488 716 C491 705 493 696 493 689 C493 672 484 663 453 663 C431 663 408 677 380 692 C349 709 311 726 262 726 C182 726 157 681 157 642 C157 622 161 604 168 594 L258 594 C258 597 257 602 257 605 C257 622 265 636 298 636 C320 636 345 622 372 607 C402 591 433 574 464 574 C565 574 595 618 595 659 L595 659 Z " />
<glyph glyph-name="ograve" unicode="&#xf2;" horiz-adv-x="731" d="M690 251 C690 453 538 551 366 551 C194 551 41 453 41 251 C41 88 183 -12 366 -12 C548 -12 690 88 690 251 L690 251 Z M486 262 C486 181 447 94 366 94 C279 94 246 181 246 262 C246 356 281 446 366 446 C451 446 486 356 486 262 L486 262 Z M458 585 L352 751 L174 751 L348 585 L458 585 Z " />
<glyph glyph-name="oacute" unicode="&#xf3;" horiz-adv-x="731" d="M690 251 C690 453 538 551 366 551 C194 551 41 453 41 251 C41 88 183 -12 366 -12 C548 -12 690 88 690 251 L690 251 Z M486 262 C486 181 447 94 366 94 C279 94 246 181 246 262 C246 356 281 446 366 446 C451 446 486 356 486 262 L486 262 Z M547 751 L368 751 L263 585 L372 585 L547 751 Z " />
<glyph glyph-name="ocircumflex" unicode="&#xf4;" horiz-adv-x="731" d="M690 251 C690 453 538 551 366 551 C194 551 41 453 41 251 C41 88 183 -12 366 -12 C548 -12 690 88 690 251 L690 251 Z M486 262 C486 181 447 94 366 94 C279 94 246 181 246 262 C246 356 281 446 366 446 C451 446 486 356 486 262 L486 262 Z M566 585 L443 751 L279 751 L156 585 L284 585 L361 665 L438 585 L566 585 Z " />
<glyph glyph-name="otilde" unicode="&#xf5;" horiz-adv-x="731" d="M690 251 C690 453 538 551 366 551 C194 551 41 453 41 251 C41 88 183 -12 366 -12 C548 -12 690 88 690 251 L690 251 Z M486 262 C486 181 447 94 366 94 C279 94 246 181 246 262 C246 356 281 446 366 446 C451 446 486 356 486 262 L486 262 Z M574 671 C574 693 564 714 553 728 L467 728 C470 717 472 708 472 701 C472 684 463 675 432 675 C410 675 387 689 359 704 C328 721 290 738 241 738 C161 738 136 693 136 654 C136 634 140 616 147 606 L237 606 C237 609 236 614 236 617 C236 634 244 648 277 648 C299 648 324 634 351 619 C381 603 412 586 443 586 C544 586 574 630 574 671 L574 671 Z " />
<glyph glyph-name="odieresis" unicode="&#xf6;" horiz-adv-x="731" d="M590 585 L590 727 L420 727 L420 585 L590 585 Z M297 585 L297 727 L127 727 L127 585 L297 585 Z M690 251 C690 453 538 551 366 551 C194 551 41 453 41 251 C41 88 183 -12 366 -12 C548 -12 690 88 690 251 L690 251 Z M486 262 C486 181 447 94 366 94 C279 94 246 181 246 262 C246 356 281 446 366 446 C451 446 486 356 486 262 L486 262 Z " />
<glyph glyph-name="divide" unicode="&#xf7;" horiz-adv-x="792" d="M764 381 C764 583 599 748 397 748 C195 748 30 583 30 381 C30 179 195 15 397 15 C599 15 764 179 764 381 L764 381 Z M719 496 L614 390 L623 159 L578 135 L443 231 L225 147 L161 186 L244 320 L111 390 L112 443 L271 494 L365 647 L427 647 L501 547 L677 544 L719 496 Z " />
<glyph glyph-name="oslash" unicode="&#xf8;" horiz-adv-x="742" d="M719 532 L604 532 L567 494 C510 531 446 547 371 547 C198 547 47 449 47 247 C47 168 78 117 124 67 L52 0 L164 0 L191 24 C235 1 296 -16 371 -16 C553 -16 695 84 695 247 C695 329 672 393 628 444 L719 532 Z M459 391 L257 201 C252 222 251 236 251 258 C251 373 287 442 371 442 C414 442 437 422 459 391 L459 391 Z M491 258 C491 140 452 90 371 90 C339 90 317 103 294 123 L487 310 C487 310 491 290 491 258 L491 258 Z " />
<glyph glyph-name="ugrave" unicode="&#xf9;" horiz-adv-x="751" d="M678 0 L678 532 L481 532 L481 254 C481 177 435 134 366 134 C290 134 259 183 259 254 L259 532 L62 532 L62 191 C62 48 160 -8 280 -8 C379 -8 454 34 481 122 C481 114 481 0 481 0 L678 0 Z M476 585 L370 751 L192 751 L366 585 L476 585 Z " />
<glyph glyph-name="uacute" unicode="&#xfa;" horiz-adv-x="751" d="M678 0 L678 532 L481 532 L481 254 C481 177 435 134 366 134 C290 134 259 183 259 254 L259 532 L62 532 L62 191 C62 48 160 -8 280 -8 C379 -8 454 34 481 122 C481 114 481 0 481 0 L678 0 Z M554 751 L375 751 L270 585 L379 585 L554 751 Z " />
<glyph glyph-name="ucircumflex" unicode="&#xfb;" horiz-adv-x="751" d="M678 0 L678 532 L481 532 L481 254 C481 177 435 134 366 134 C290 134 259 183 259 254 L259 532 L62 532 L62 191 C62 48 160 -8 280 -8 C379 -8 454 34 481 122 C481 114 481 0 481 0 L678 0 Z M575 585 L452 751 L288 751 L165 585 L293 585 L370 665 L447 585 L575 585 Z " />
<glyph glyph-name="udieresis" unicode="&#xfc;" horiz-adv-x="751" d="M601 585 L601 727 L431 727 L431 585 L601 585 Z M308 585 L308 727 L138 727 L138 585 L308 585 Z M678 0 L678 532 L481 532 L481 254 C481 177 435 134 366 134 C290 134 259 183 259 254 L259 532 L62 532 L62 191 C62 48 160 -8 280 -8 C379 -8 454 34 481 122 C481 114 481 0 481 0 L678 0 Z " />
<glyph glyph-name="yacute" unicode="&#xfd;" horiz-adv-x="697" d="M687 532 L488 532 L356 212 L236 532 L10 532 L262 15 C262 15 245 -23 238 -38 C217 -84 207 -93 186 -93 C163 -93 158 -78 158 -60 C158 -41 166 -11 166 -11 L52 -21 C52 -21 40 -60 40 -85 C40 -162 92 -207 195 -207 C285 -207 350 -183 394 -90 L687 532 Z M534 752 L355 752 L250 586 L359 586 L534 752 Z " />
<glyph glyph-name="thorn" unicode="&#xfe;" horiz-adv-x="728" d="M687 247 C687 460 599 547 439 547 C319 547 264 440 264 440 L264 768 L73 768 L73 -200 L264 -200 L264 77 C264 77 311 -9 439 -9 C571 -9 687 58 687 247 L687 247 Z M473 259 C473 170 438 91 364 90 C298 90 258 160 258 259 C258 362 295 435 364 435 C447 435 473 353 473 259 L473 259 Z " />
<glyph glyph-name="ydieresis" unicode="&#xff;" horiz-adv-x="697" d="M596 585 L596 727 L426 727 L426 585 L596 585 Z M302 585 L302 727 L132 727 L132 585 L302 585 Z M687 532 L488 532 L356 212 L236 532 L10 532 L262 15 C262 15 245 -23 238 -38 C217 -84 207 -93 186 -93 C163 -93 158 -78 158 -60 C158 -41 166 -11 166 -11 L52 -21 C52 -21 40 -60 40 -85 C40 -162 92 -207 195 -207 C285 -207 350 -183 394 -90 L687 532 Z " />
<glyph glyph-name="dotlessi" unicode="&#x131;" horiz-adv-x="342" d="M269 0 L269 532 L73 532 L73 0 L269 0 Z " />
<glyph glyph-name="Lslash" unicode="&#x141;" horiz-adv-x="776" d="M744 0 L744 167 L326 167 L326 314 L584 463 L500 608 L326 508 L326 768 L93 768 L93 373 L-25 305 L59 159 L93 179 L93 0 L744 0 Z " />
<glyph glyph-name="lslash" unicode="&#x142;" horiz-adv-x="342" d="M417 391 L333 536 L269 499 L269 768 L73 768 L73 385 L-60 309 L24 163 L73 191 L73 0 L269 0 L269 305 L417 391 Z " />
<glyph glyph-name="OE" unicode="&#x152;" horiz-adv-x="1279" d="M1234 0 L1234 167 L794 167 L794 311 L1131 311 L1131 463 L794 463 L794 606 L1189 606 L1189 768 L608 768 C583 772 541 783 465 784 C262 785 47 630 47 369 C47 147 220 -16 465 -16 C536 -16 593 -7 615 0 C631 0 1234 0 1234 0 L1234 0 Z M577 154 C554 143 512 127 483 127 C361 127 298 238 298 382 C298 507 358 644 482 644 C517 644 559 623 577 613 C577 585 577 168 577 154 L577 154 Z " />
<glyph glyph-name="oe" unicode="&#x153;" horiz-adv-x="1134" d="M1086 136 C1086 160 1082 170 1078 177 L965 186 C966 150 947 95 819 95 C700 95 690 194 693 233 L1072 233 C1078 248 1085 280 1085 328 C1085 420 1039 547 819 547 C683 547 610 489 589 452 C572 485 500 547 366 547 C194 547 41 449 41 247 C41 84 183 -16 366 -16 C499 -16 561 35 580 62 C598 31 666 -16 819 -16 C1041 -16 1086 80 1086 136 L1086 136 Z M905 346 C905 332 904 319 901 309 L697 309 C700 383 739 436 811 436 C885 436 904 387 905 346 L905 346 Z M486 258 C486 177 447 90 366 90 C285 90 246 177 246 258 C246 352 281 442 366 442 C451 442 486 352 486 258 L486 258 Z " />
<glyph glyph-name="Scaron" unicode="&#x160;" horiz-adv-x="901" d="M851 233 C851 377 738 434 530 479 L456 495 C362 515 319 530 319 579 C319 607 345 652 438 652 C558 652 590 602 603 539 L811 566 C784 663 721 784 445 784 C243 784 77 714 77 565 C77 416 213 352 357 319 L419 305 C579 269 601 243 601 200 C601 162 569 126 466 126 C334 126 271 179 259 274 L46 249 C56 113 155 -16 491 -16 C758 -16 851 97 851 233 L851 233 Z M653 974 L525 974 L448 894 L371 974 L243 974 L366 808 L530 808 L653 974 Z " />
<glyph glyph-name="scaron" unicode="&#x161;" horiz-adv-x="660" d="M632 166 C631 263 578 326 422 346 C277 365 240 376 240 405 C240 434 261 452 336 452 C409 452 435 425 455 379 L593 400 C593 400 594 409 593 414 C583 492 517 551 348 551 C139 551 56 470 56 384 C56 281 121 222 273 202 C405 184 447 174 447 142 C447 111 419 93 337 93 C245 93 199 117 191 176 L52 155 C51 150 51 144 51 140 C51 48 155 -11 344 -11 C562 -11 633 70 632 166 L632 166 Z M556 751 L428 751 L351 671 L274 751 L146 751 L269 585 L433 585 L556 751 Z " />
<glyph glyph-name="Ydieresis" unicode="&#x178;" horiz-adv-x="906" d="M881 768 L618 768 L457 455 L303 768 L25 768 L336 251 L336 0 L569 0 L569 251 L881 768 Z M702 808 L702 966 L524 966 L524 808 L702 808 Z M393 808 L393 966 L215 966 L215 808 L393 808 Z " />
<glyph glyph-name="Zcaron" unicode="&#x17d;" horiz-adv-x="845" d="M786 0 L786 175 L372 175 L772 632 L772 768 L82 768 L82 593 L480 593 L54 137 L54 0 L786 0 Z M665 973 L537 973 L460 893 L383 973 L255 973 L378 807 L542 807 L665 973 Z " />
<glyph glyph-name="zcaron" unicode="&#x17e;" horiz-adv-x="673" d="M623 0 L623 125 L304 125 L623 422 L623 532 L70 532 L70 402 L364 402 L46 114 L46 0 L623 0 Z M559 751 L431 751 L354 671 L277 751 L149 751 L272 585 L436 585 L559 751 Z " />
<glyph glyph-name="florin" unicode="&#x192;" horiz-adv-x="628" d="M646 668 C646 722 615 784 474 784 C353 784 291 715 267 597 L238 456 L79 456 L79 362 L221 362 L147 -19 C137 -72 134 -101 96 -101 C58 -101 49 -74 49 -47 C49 -16 60 13 60 13 L-46 -6 C-46 -6 -61 -39 -61 -80 C-61 -138 -26 -208 135 -208 C255 -208 318 -142 341 -22 L416 362 L577 362 L577 456 L434 456 L461 594 C472 651 477 676 512 676 C528 676 535 661 535 640 C535 608 519 562 519 562 L625 581 C625 581 646 625 646 668 L646 668 Z " />
<glyph glyph-name="circumflex" unicode="&#x2c6;" horiz-adv-x="732" d="M571 603 L448 769 L284 769 L161 603 L289 603 L366 683 L443 603 L571 603 Z " />
<glyph glyph-name="caron" unicode="&#x2c7;" horiz-adv-x="732" d="M571 777 L443 777 L366 697 L289 777 L161 777 L284 611 L448 611 L571 777 Z " />
<glyph glyph-name="breve" unicode="&#x2d8;" horiz-adv-x="732" d="M571 777 L443 777 C444 735 423 697 366 697 C303 697 288 735 289 777 L161 777 C174 644 258 593 366 593 C474 593 557 636 571 777 L571 777 Z " />
<glyph glyph-name="dotaccent" unicode="&#x2d9;" horiz-adv-x="732" d="M459 610 L459 768 L272 768 L272 610 L459 610 Z " />
<glyph glyph-name="ring" unicode="&#x2da;" horiz-adv-x="732" d="M492 666 C492 736 436 792 366 792 C297 792 241 736 241 666 C241 597 297 541 366 541 C436 541 492 597 492 666 L492 666 Z M420 666 C420 637 395 613 366 613 C337 613 313 637 313 666 C313 695 337 720 366 720 C395 720 420 695 420 666 L420 666 Z " />
<glyph glyph-name="ogonek" unicode="&#x2db;" horiz-adv-x="732" d="M437 -192 L403 -146 C396 -152 383 -156 372 -156 C354 -156 342 -152 342 -132 C342 -111 360 -95 378 -78 C397 -61 417 -44 417 -25 C417 -10 408 0 408 0 L352 0 C352 0 355 -9 355 -15 C355 -28 333 -43 312 -63 C291 -82 270 -104 270 -133 C270 -178 316 -206 376 -206 C403 -206 423 -199 437 -192 L437 -192 Z " />
<glyph glyph-name="tilde" unicode="&#x2dc;" horiz-adv-x="732" d="M593 700 C593 722 583 743 572 757 L486 757 C489 746 491 737 491 730 C491 713 482 704 451 704 C429 704 406 718 378 733 C347 750 309 767 260 767 C180 767 155 722 155 683 C155 663 159 645 166 635 L256 635 C256 638 255 643 255 646 C255 663 263 677 296 677 C318 677 343 663 370 648 C400 632 431 615 462 615 C563 615 593 659 593 700 L593 700 Z " />
<glyph glyph-name="hungarumlaut" unicode="&#x2dd;" horiz-adv-x="732" d="M593 769 L446 769 L390 603 L464 603 L593 769 Z M363 769 L216 769 L160 603 L234 603 L363 769 Z " />
<glyph glyph-name="pi" unicode="&#x3c0;" horiz-adv-x="921" d="M880 378 C880 609 692 798 460 798 C228 798 40 609 40 378 C40 147 228 -41 460 -41 C692 -41 880 147 880 378 L880 378 Z M799 378 C799 188 651 34 460 34 C269 34 119 188 119 378 C119 568 269 723 460 723 C651 723 799 568 799 378 L799 378 Z M695 461 C695 525 635 589 541 589 L281 589 L281 174 L420 174 L420 321 L538 321 C641 321 695 376 695 461 L695 461 Z M560 454 C560 417 530 403 500 403 L420 403 L420 502 L495 502 C526 502 560 486 560 454 L560 454 Z " />
<glyph glyph-name="endash" unicode="&#x2013;" horiz-adv-x="663" d="M591 259 L591 427 L73 427 L73 259 L591 259 Z " />
<glyph glyph-name="emdash" unicode="&#x2014;" horiz-adv-x="1181" d="M1109 259 L1109 427 L73 427 L73 259 L1109 259 Z " />
<glyph glyph-name="quoteleft" unicode="&#x2018;" horiz-adv-x="309" d="M253 464 L253 631 L145 631 C145 631 143 640 143 652 C143 667 145 682 152 691 C164 705 178 711 194 711 C202 711 209 709 217 706 L236 772 C218 780 200 784 182 784 C148 784 115 770 89 742 C60 710 56 676 56 631 L56 464 L253 464 Z " />
<glyph glyph-name="quoteright" unicode="&#x2019;" horiz-adv-x="309" d="M253 601 L253 768 L56 768 L56 601 L164 601 C164 601 166 592 166 580 C166 565 164 550 157 541 C145 527 131 521 115 521 C107 521 100 523 92 526 L73 460 C91 452 109 448 127 448 C161 448 194 462 220 490 C249 522 253 556 253 601 L253 601 Z " />
<glyph glyph-name="quotesinglbase" unicode="&#x201a;" horiz-adv-x="309" d="M253 0 L253 167 L56 167 L56 0 L164 0 C164 0 166 -9 166 -21 C166 -36 164 -51 157 -60 C145 -74 131 -80 115 -80 C107 -80 100 -78 92 -75 L73 -141 C91 -149 109 -153 127 -153 C161 -153 194 -139 220 -111 C249 -79 253 -45 253 0 L253 0 Z " />
<glyph glyph-name="quotedblleft" unicode="&#x201c;" horiz-adv-x="558" d="M502 464 L502 631 L404 631 C404 631 402 640 402 652 C402 667 404 682 411 691 C423 705 437 711 453 711 C461 711 468 709 476 706 L495 772 C477 780 459 784 441 784 C407 784 374 770 348 742 C319 710 315 676 315 631 L315 464 L502 464 Z M243 464 L243 631 L145 631 C145 631 143 640 143 652 C143 667 145 682 152 691 C164 705 178 711 194 711 C202 711 209 709 217 706 L236 772 C218 780 200 784 182 784 C148 784 115 770 89 742 C60 710 56 676 56 631 L56 464 L243 464 Z " />
<glyph glyph-name="quotedblright" unicode="&#x201d;" horiz-adv-x="558" d="M502 601 L502 768 L315 768 L315 601 L413 601 C413 601 415 592 415 580 C415 565 413 550 406 541 C394 527 380 521 364 521 C356 521 349 523 341 526 L322 460 C340 452 358 448 376 448 C410 448 443 462 469 490 C498 522 502 556 502 601 L502 601 Z M243 601 L243 768 L56 768 L56 601 L154 601 C154 601 156 592 156 580 C156 565 154 550 147 541 C135 527 121 521 105 521 C97 521 90 523 82 526 L63 460 C81 452 99 448 117 448 C151 448 184 462 210 490 C239 522 243 556 243 601 L243 601 Z " />
<glyph glyph-name="quotedblbase" unicode="&#x201e;" horiz-adv-x="558" d="M502 0 L502 167 L315 167 L315 0 L413 0 C413 0 415 -9 415 -21 C415 -36 413 -51 406 -60 C394 -74 380 -80 364 -80 C356 -80 349 -78 341 -75 L322 -141 C340 -149 358 -153 376 -153 C410 -153 443 -139 469 -111 C498 -79 502 -45 502 0 L502 0 Z M243 0 L243 167 L56 167 L56 0 L154 0 C154 0 156 -9 156 -21 C156 -36 154 -51 147 -60 C135 -74 121 -80 105 -80 C97 -80 90 -78 82 -75 L63 -141 C81 -149 99 -153 117 -153 C151 -153 184 -139 210 -111 C239 -79 243 -45 243 0 L243 0 Z " />
<glyph glyph-name="dagger" unicode="&#x2020;" horiz-adv-x="572" d="M520 475 L520 596 L403 596 L315 563 L359 665 L359 768 L210 768 L210 665 L253 563 L164 596 L48 596 L48 475 L164 475 L253 507 L209 393 L264 -121 L302 -121 L357 393 L313 507 L403 475 L520 475 Z " />
<glyph glyph-name="daggerdbl" unicode="&#x2021;" horiz-adv-x="572" d="M520 98 L520 220 L403 220 L313 188 L375 349 L313 507 L403 475 L520 475 L520 596 L403 596 L315 563 L359 665 L359 768 L210 768 L210 665 L253 563 L164 596 L48 596 L48 475 L164 475 L253 507 L191 349 L253 188 L164 220 L48 220 L48 98 L164 98 L253 132 L210 29 L210 -74 L359 -74 L359 29 L315 132 L403 98 L520 98 Z " />
<glyph glyph-name="bullet" unicode="&#x2022;" horiz-adv-x="590" d="M552 331 C552 471 438 585 298 585 C159 585 45 471 45 331 C45 191 159 77 298 77 C438 77 552 191 552 331 L552 331 Z " />
<glyph glyph-name="ellipsis" unicode="&#x2026;" horiz-adv-x="1026" d="M953 0 L953 167 L757 167 L757 0 L953 0 Z M611 0 L611 167 L415 167 L415 0 L611 0 Z M269 0 L269 167 L73 167 L73 0 L269 0 Z " />
<glyph glyph-name="perthousand" unicode="&#x2030;" horiz-adv-x="1776" d="M1745 193 C1745 353 1626 430 1490 430 C1355 430 1233 353 1233 193 C1233 64 1344 -16 1490 -16 C1633 -16 1745 64 1745 193 L1745 193 Z M1194 193 C1194 353 1075 430 939 430 C803 430 682 353 682 193 C682 64 793 -16 939 -16 C1082 -16 1194 64 1194 193 L1194 193 Z M917 768 L774 768 L311 0 L454 0 L917 768 Z M543 546 C543 707 424 784 288 784 C152 784 31 707 31 546 C31 418 142 338 288 338 C431 338 543 418 543 546 L543 546 Z M1585 202 C1585 139 1554 69 1490 69 C1419 69 1394 138 1394 202 C1394 278 1422 347 1490 347 C1558 347 1585 278 1585 202 L1585 202 Z M1033 202 C1033 139 1002 69 939 69 C867 69 843 138 843 202 C843 278 871 347 939 347 C1006 347 1033 278 1033 202 L1033 202 Z M382 556 C382 492 351 423 288 423 C217 423 192 491 192 556 C192 631 220 701 288 701 C355 701 382 631 382 556 L382 556 Z " />
<glyph glyph-name="guilsinglleft" unicode="&#x2039;" horiz-adv-x="410" d="M353 37 L353 177 L162 286 L353 394 L353 534 L41 357 L41 217 L353 37 Z " />
<glyph glyph-name="guilsinglright" unicode="&#x203a;" horiz-adv-x="410" d="M369 217 L369 357 L57 534 L57 394 L247 286 L57 177 L57 37 L369 217 Z " />
<glyph glyph-name="fraction" unicode="&#x2044;" horiz-adv-x="486" d="M691 823 L574 823 L-160 -15 L-43 -15 L691 823 Z " />
<glyph glyph-name="trademark" unicode="&#x2122;" horiz-adv-x="893" d="M851 401 L851 769 L705 769 L639 570 L574 769 L423 769 L423 401 L533 401 L533 602 L601 401 L675 401 L739 602 L739 401 L851 401 Z M381 662 L381 769 L23 769 L23 662 L139 662 L139 401 L264 401 L264 662 L381 662 Z " />
<glyph glyph-name="Omega" unicode="&#x2126;" horiz-adv-x="792" d="M764 381 C764 583 599 748 397 748 C195 748 30 583 30 381 C30 179 195 15 397 15 C599 15 764 179 764 381 L764 381 Z M719 496 L614 390 L623 159 L578 135 L443 231 L225 147 L161 186 L244 320 L111 390 L112 443 L271 494 L365 647 L427 647 L501 547 L677 544 L719 496 Z " />
<glyph glyph-name="partialdiff" unicode="&#x2202;" horiz-adv-x="792" d="M764 381 C764 583 599 748 397 748 C195 748 30 583 30 381 C30 179 195 15 397 15 C599 15 764 179 764 381 L764 381 Z M719 496 L614 390 L623 159 L578 135 L443 231 L225 147 L161 186 L244 320 L111 390 L112 443 L271 494 L365 647 L427 647 L501 547 L677 544 L719 496 Z " />
<glyph glyph-name="Delta" unicode="&#x2206;" horiz-adv-x="792" d="M764 381 C764 583 599 748 397 748 C195 748 30 583 30 381 C30 179 195 15 397 15 C599 15 764 179 764 381 L764 381 Z M719 496 L614 390 L623 159 L578 135 L443 231 L225 147 L161 186 L244 320 L111 390 L112 443 L271 494 L365 647 L427 647 L501 547 L677 544 L719 496 Z " />
<glyph glyph-name="product" unicode="&#x220f;" horiz-adv-x="792" d="M764 381 C764 583 599 748 397 748 C195 748 30 583 30 381 C30 179 195 15 397 15 C599 15 764 179 764 381 L764 381 Z M719 496 L614 390 L623 159 L578 135 L443 231 L225 147 L161 186 L244 320 L111 390 L112 443 L271 494 L365 647 L427 647 L501 547 L677 544 L719 496 Z " />
<glyph glyph-name="summation" unicode="&#x2211;" horiz-adv-x="792" d="M764 381 C764 583 599 748 397 748 C195 748 30 583 30 381 C30 179 195 15 397 15 C599 15 764 179 764 381 L764 381 Z M719 496 L614 390 L623 159 L578 135 L443 231 L225 147 L161 186 L244 320 L111 390 L112 443 L271 494 L365 647 L427 647 L501 547 L677 544 L719 496 Z " />
<glyph glyph-name="minus" unicode="&#x2212;" horiz-adv-x="792" d="M764 381 C764 583 599 748 397 748 C195 748 30 583 30 381 C30 179 195 15 397 15 C599 15 764 179 764 381 L764 381 Z M719 496 L614 390 L623 159 L578 135 L443 231 L225 147 L161 186 L244 320 L111 390 L112 443 L271 494 L365 647 L427 647 L501 547 L677 544 L719 496 Z " />
<glyph glyph-name="radical" unicode="&#x221a;" horiz-adv-x="830" d="M830 941 L645 869 C552 730 489 608 432 473 C382 355 331 204 295 62 L179 355 L0 278 L253 -144 L373 -93 C407 75 463 241 546 441 C606 587 737 842 830 941 L830 941 Z " />
<glyph glyph-name="infinity" unicode="&#x221e;" horiz-adv-x="1240" d="M1167 601 L1167 768 L970 768 L970 601 L1167 601 Z M1167 0 L1167 532 L970 532 L970 0 L1167 0 Z M909 437 L909 532 L749 532 C749 532 713 582 713 644 C713 677 725 695 753 695 C784 695 793 665 793 635 C793 614 788 580 788 580 L894 593 C894 594 904 622 904 657 C904 734 862 784 748 784 C628 784 563 722 563 632 C563 577 578 548 588 532 L480 532 L480 437 L581 437 L581 0 L773 0 L773 437 L909 437 Z M450 437 L450 532 L290 532 C290 532 254 582 254 644 C254 677 266 695 294 695 C325 695 334 665 334 635 C334 614 329 580 329 580 L435 593 C435 593 445 622 445 657 C445 734 403 784 289 784 C169 784 104 722 104 632 C104 577 119 548 129 532 L21 532 L21 437 L122 437 L122 0 L314 0 L314 437 L450 437 Z " />
<glyph glyph-name="integral" unicode="&#x222b;" horiz-adv-x="792" d="M764 381 C764 583 599 748 397 748 C195 748 30 583 30 381 C30 179 195 15 397 15 C599 15 764 179 764 381 L764 381 Z M719 496 L614 390 L623 159 L578 135 L443 231 L225 147 L161 186 L244 320 L111 390 L112 443 L271 494 L365 647 L427 647 L501 547 L677 544 L719 496 Z " />
<glyph glyph-name="approxequal" unicode="&#x2248;" horiz-adv-x="792" d="M764 381 C764 583 599 748 397 748 C195 748 30 583 30 381 C30 179 195 15 397 15 C599 15 764 179 764 381 L764 381 Z M719 496 L614 390 L623 159 L578 135 L443 231 L225 147 L161 186 L244 320 L111 390 L112 443 L271 494 L365 647 L427 647 L501 547 L677 544 L719 496 Z " />
<glyph glyph-name="notequal" unicode="&#x2260;" horiz-adv-x="918" d="M909 437 L909 532 L749 532 C749 532 713 582 713 644 C713 677 725 695 753 695 C784 695 793 665 793 635 C793 614 788 580 788 580 L894 593 C894 593 904 622 904 657 C904 734 862 784 748 784 C628 784 563 722 563 632 C563 577 578 548 588 532 L480 532 L480 437 L581 437 L581 0 L773 0 L773 437 L909 437 Z M450 437 L450 532 L290 532 C290 532 254 582 254 644 C254 677 266 695 294 695 C325 695 334 665 334 635 C334 614 329 580 329 580 L435 593 C435 593 445 622 445 657 C445 734 403 784 289 784 C169 784 104 722 104 632 C104 577 119 548 129 532 L21 532 L21 437 L122 437 L122 0 L314 0 L314 437 L450 437 Z " />
<glyph glyph-name="lessequal" unicode="&#x2264;" horiz-adv-x="792" d="M764 381 C764 583 599 748 397 748 C195 748 30 583 30 381 C30 179 195 15 397 15 C599 15 764 179 764 381 L764 381 Z M719 496 L614 390 L623 159 L578 135 L443 231 L225 147 L161 186 L244 320 L111 390 L112 443 L271 494 L365 647 L427 647 L501 547 L677 544 L719 496 Z " />
<glyph glyph-name="greaterequal" unicode="&#x2265;" horiz-adv-x="792" d="M764 381 C764 583 599 748 397 748 C195 748 30 583 30 381 C30 179 195 15 397 15 C599 15 764 179 764 381 L764 381 Z M719 496 L614 390 L623 159 L578 135 L443 231 L225 147 L161 186 L244 320 L111 390 L112 443 L271 494 L365 647 L427 647 L501 547 L677 544 L719 496 Z " />
<glyph glyph-name="lozenge" unicode="&#x25ca;" horiz-adv-x="792" d="M764 381 C764 583 599 748 397 748 C195 748 30 583 30 381 C30 179 195 15 397 15 C599 15 764 179 764 381 L764 381 Z M719 496 L614 390 L623 159 L578 135 L443 231 L225 147 L161 186 L244 320 L111 390 L112 443 L271 494 L365 647 L427 647 L501 547 L677 544 L719 496 Z " />
<glyph glyph-name="fi" unicode="&#xfb01;" horiz-adv-x="781" d="M708 601 L708 768 L511 768 L511 601 L708 601 Z M708 0 L708 532 L511 532 L511 0 L708 0 Z M450 437 L450 532 L290 532 C290 532 254 582 254 644 C254 677 266 695 294 695 C325 695 334 665 334 635 C334 614 329 580 329 580 L435 593 C435 593 445 622 445 657 C445 734 403 784 289 784 C169 784 104 722 104 632 C104 577 119 548 129 532 L21 532 L21 437 L122 437 L122 0 L314 0 L314 437 L450 437 Z " />
<glyph glyph-name="fl" unicode="&#xfb02;" horiz-adv-x="781" d="M708 0 L708 768 L511 768 L511 0 L708 0 Z M450 437 L450 532 L290 532 C290 532 254 582 254 644 C254 677 266 695 294 695 C325 695 334 665 334 635 C334 614 329 580 329 580 L435 593 C435 593 445 622 445 657 C445 734 403 784 289 784 C169 784 104 722 104 632 C104 577 119 548 129 532 L21 532 L21 437 L122 437 L122 0 L314 0 L314 437 L450 437 Z " />
</font>
</svg>
