<?xml version="1.0" encoding="UTF-8"?>
<svg xmlns="http://www.w3.org/2000/svg" xmlns:xlink="http://www.w3.org/1999/xlink" version="1.2" >
<font id="BureauGrotesque-OneThree">
<font-face  font-family="BureauGrotesque" units-per-em="1000" ascent="750" descent="-250" font-style="normal" font-weight="400" font-stretch="normal" cap-height="750" x-height="500" underline-position="-123" underline-thickness="20" />
<missing-glyph  horiz-adv-x="500" d="" />
<glyph glyph-name="CR" unicode="&#xd;" horiz-adv-x="250" d="" />
<glyph glyph-name="space" unicode="&#x20;" horiz-adv-x="190" d="" />
<glyph glyph-name="exclam" unicode="&#x21;" horiz-adv-x="194" d="M150 483 L150 768 L44 768 L44 483 L72 234 L122 234 L150 483 Z M150 0 L150 155 L44 155 L44 0 L150 0 Z " />
<glyph glyph-name="quotedbl" unicode="&#x22;" horiz-adv-x="277" d="M241 573 L241 768 L160 768 L160 573 L241 573 Z M117 573 L117 768 L36 768 L36 573 L117 573 Z " />
<glyph glyph-name="numbersign" unicode="&#x23;" horiz-adv-x="443" d="M443 551 L351 551 L376 768 L313 768 L287 551 L194 551 L220 768 L157 768 L131 551 L38 551 L27 454 L120 454 L103 314 L10 314 L0 217 L92 217 L67 0 L130 0 L156 217 L249 217 L223 0 L287 0 L312 217 L405 217 L416 314 L323 314 L339 454 L433 454 L443 551 Z M276 454 L259 314 L167 314 L184 454 L276 454 Z " />
<glyph glyph-name="dollar" unicode="&#x24;" horiz-adv-x="354" d="M335 241 C335 365 282 425 187 463 L187 676 C208 671 218 635 218 562 C218 546 216 525 215 519 L301 527 C305 542 308 568 308 587 C308 691 262 736 194 742 L194 780 L139 780 L139 742 C70 735 19 684 19 554 C19 453 63 400 148 365 L148 114 C130 135 119 169 119 229 C119 251 120 280 122 289 L38 278 C36 264 31 233 31 204 C31 82 83 48 139 33 L139 -16 L194 -16 L194 32 C286 35 335 96 335 241 L335 241 Z M148 484 C118 501 108 524 108 575 C108 632 123 665 148 675 L148 484 Z M237 208 C237 139 216 104 187 102 L187 344 C213 330 237 282 237 208 L237 208 Z " />
<glyph glyph-name="percent" unicode="&#x25;" horiz-adv-x="550" d="M247 545 C247 729 205 774 130 774 C66 774 13 729 13 545 C13 378 60 342 130 342 C204 342 247 378 247 545 L247 545 Z M515 760 L455 760 L36 0 L96 0 L515 760 Z M534 193 C534 377 492 422 417 422 C353 422 300 377 300 193 C300 26 347 -10 417 -10 C491 -10 534 26 534 193 L534 193 Z M159 557 C159 427 148 416 129 416 C112 416 101 426 101 557 C101 687 109 700 129 700 C150 700 159 689 159 557 L159 557 Z M446 205 C446 75 435 64 416 64 C399 64 388 74 388 205 C388 335 396 348 416 348 C437 348 446 337 446 205 L446 205 Z " />
<glyph glyph-name="ampersand" unicode="&#x26;" horiz-adv-x="472" d="M452 122 C452 151 451 171 445 199 L394 189 C398 170 400 151 400 129 C400 106 397 89 383 89 C370 89 362 106 346 141 C369 187 391 260 402 308 C415 364 428 460 428 518 L359 518 C357 477 351 417 345 384 C339 349 322 273 313 248 L253 460 C298 505 350 571 350 642 C350 735 319 780 235 780 C158 780 121 716 121 618 C121 569 137 507 143 481 C75 422 19 329 19 214 C19 72 93 -10 172 -10 C215 -10 256 8 279 35 C298 4 314 -10 359 -10 C424 -10 452 35 452 122 L452 122 Z M278 636 C278 600 260 569 233 547 C226 573 221 611 221 637 C221 683 230 698 249 698 C268 698 278 678 278 636 L278 636 Z M249 107 C244 100 225 91 212 91 C174 91 121 135 121 247 C121 288 138 336 173 373 L249 107 Z " />
<glyph glyph-name="quotesingle" unicode="&#x27;" horiz-adv-x="156" d="M120 573 L120 768 L36 768 L36 573 L120 573 Z " />
<glyph glyph-name="parenleft" unicode="&#x28;" horiz-adv-x="246" d="M220 -141 C147 56 140 138 140 327 C140 511 160 624 217 782 L201 797 C116 707 46 538 45 328 C44 112 95 -39 206 -153 L220 -141 Z " />
<glyph glyph-name="parenright" unicode="&#x29;" horiz-adv-x="246" d="M201 328 C200 538 130 707 45 797 L29 782 C86 624 106 511 106 327 C106 138 99 56 26 -141 L40 -153 C151 -39 202 112 201 328 L201 328 Z " />
<glyph glyph-name="asterisk" unicode="&#x2a;" horiz-adv-x="255" d="M233 611 L172 647 L233 684 L203 732 L158 703 L158 768 L97 768 L97 703 L52 732 L22 684 L83 647 L22 611 L52 563 L97 592 L97 527 L158 527 L158 592 L203 563 L233 611 Z " />
<glyph glyph-name="plus" unicode="&#x2b;" horiz-adv-x="437" d="M410 322 L410 401 L263 401 L263 569 L170 569 L170 401 L23 401 L23 322 L170 322 L170 155 L263 155 L263 322 L410 322 Z " />
<glyph glyph-name="comma" unicode="&#x2c;" horiz-adv-x="208" d="M161 0 C161 60 161 155 161 155 L47 155 L47 0 L104 0 C106 -34 104 -61 87 -84 C75 -102 64 -111 55 -116 L77 -161 C89 -155 95 -150 105 -141 C144 -105 161 -73 161 0 L161 0 Z " />
<glyph glyph-name="hyphen" unicode="&#x2d;" horiz-adv-x="309" d="M289 293 L289 388 L20 388 L20 293 L289 293 Z " />
<glyph glyph-name="period" unicode="&#x2e;" horiz-adv-x="208" d="M162 0 L162 155 L46 155 L46 0 L162 0 Z " />
<glyph glyph-name="slash" unicode="&#x2f;" horiz-adv-x="294" d="M291 768 L231 768 L1 0 L61 0 L291 768 Z " />
<glyph glyph-name="zero" unicode="0" horiz-adv-x="336" d="M314 367 C314 711 278 774 168 774 C58 774 22 706 22 367 C22 42 59 -10 168 -10 C274 -10 314 42 314 367 L314 367 Z M208 383 C208 251 206 146 205 136 C199 80 192 64 168 64 C146 64 136 80 132 136 C128 190 128 243 128 383 C128 503 128 580 132 634 C136 690 146 706 168 706 C190 706 199 690 205 634 C207 612 208 479 208 383 L208 383 Z " />
<glyph glyph-name="one" unicode="1" horiz-adv-x="281" d="M228 0 L228 774 L175 774 C164 750 148 727 116 706 C85 686 48 672 4 667 L4 608 L127 608 L127 0 L228 0 Z " />
<glyph glyph-name="two" unicode="2" horiz-adv-x="344" d="M318 560 C318 704 270 774 171 774 C77 774 21 704 21 572 C21 534 29 463 35 433 L131 437 C125 480 120 526 120 558 C120 626 125 686 166 686 C200 686 212 658 212 561 C212 385 172 260 29 77 L29 0 L315 0 L315 101 L148 101 C268 259 318 412 318 560 L318 560 Z " />
<glyph glyph-name="three" unicode="3" horiz-adv-x="338" d="M330 217 C330 343 293 415 239 419 C290 426 311 473 311 557 C311 713 267 774 166 774 C74 774 25 703 25 605 C25 567 30 548 33 535 L124 531 C122 546 120 582 120 608 C120 647 126 700 163 700 C197 700 210 660 210 570 C210 493 199 453 164 453 C132 453 83 453 83 453 L83 371 C83 371 132 371 163 371 C204 371 222 305 222 232 C222 91 206 68 168 68 C133 68 121 98 121 195 C121 227 125 263 128 280 L32 276 C26 246 23 216 23 166 C23 56 72 -10 165 -10 C266 -10 330 42 330 217 L330 217 Z " />
<glyph glyph-name="four" unicode="4" horiz-adv-x="358" d="M350 166 L350 258 L293 258 L293 768 L180 768 L19 307 L19 166 L196 166 L196 0 L293 0 L293 166 L350 166 Z M200 583 L198 258 L93 258 L200 583 Z " />
<glyph glyph-name="five" unicode="5" horiz-adv-x="346" d="M328 307 C328 493 282 556 207 556 C175 556 157 550 137 518 L155 675 L304 675 C306 690 307 705 308 723 C309 740 309 750 309 768 L74 768 L37 361 L129 354 C133 428 147 463 177 463 C205 463 222 443 222 307 C222 106 200 81 167 81 C132 81 125 118 125 195 C125 218 128 251 131 268 L33 259 C29 241 23 200 23 166 C23 48 72 -10 164 -10 C259 -10 328 58 328 307 L328 307 Z " />
<glyph glyph-name="six" unicode="6" horiz-adv-x="342" d="M324 255 C324 420 276 495 201 495 C168 495 145 484 126 447 C125 463 124 480 124 504 C124 664 141 693 172 693 C202 693 212 676 212 613 C212 579 209 560 206 551 L293 555 C300 577 304 600 304 628 C304 729 264 774 179 774 C78 774 20 714 20 387 C20 105 55 -10 172 -10 C268 -10 324 55 324 255 L324 255 Z M217 246 C217 103 212 75 174 75 C144 75 128 108 128 246 C128 378 136 417 172 417 C204 417 217 388 217 246 L217 246 Z " />
<glyph glyph-name="seven" unicode="7" horiz-adv-x="298" d="M295 676 L295 768 L-4 768 C-5 752 -6 740 -6 719 C-6 698 -5 688 0 668 L205 668 C139 525 71 288 71 78 C71 48 74 19 76 0 L201 0 C196 43 192 100 192 164 C192 368 223 513 295 676 L295 676 Z " />
<glyph glyph-name="eight" unicode="8" horiz-adv-x="342" d="M324 214 C324 348 302 407 253 425 C289 447 312 474 312 569 C312 707 261 774 171 774 C82 774 30 709 30 569 C30 476 50 442 89 425 C40 407 18 341 18 214 C18 54 58 -10 171 -10 C284 -10 324 54 324 214 L324 214 Z M210 579 C210 475 195 460 171 460 C147 460 132 478 132 579 C132 673 143 699 171 699 C199 699 210 673 210 579 L210 579 Z M222 227 C222 77 200 66 170 66 C138 66 120 77 120 227 C120 368 143 389 171 389 C199 389 222 368 222 227 L222 227 Z " />
<glyph glyph-name="nine" unicode="9" horiz-adv-x="342" d="M322 377 C322 659 287 774 170 774 C74 774 18 709 18 509 C18 344 66 269 141 269 C174 269 197 280 216 317 C217 301 218 284 218 260 C218 100 201 71 170 71 C140 71 130 88 130 151 C130 183 134 204 136 213 L49 209 C42 186 38 164 38 136 C38 35 78 -10 163 -10 C264 -10 322 50 322 377 L322 377 Z M214 518 C214 386 206 347 170 347 C138 347 125 376 125 518 C125 661 130 689 168 689 C198 689 214 656 214 518 L214 518 Z " />
<glyph glyph-name="colon" unicode="&#x3a;" horiz-adv-x="208" d="M162 396 L162 551 L47 551 L47 396 L162 396 Z M162 0 L162 155 L47 155 L47 0 L162 0 Z " />
<glyph glyph-name="semicolon" unicode="&#x3b;" horiz-adv-x="208" d="M161 396 L161 551 L47 551 L47 396 L161 396 Z M161 0 C161 60 161 155 161 155 L47 155 L47 0 L104 0 C106 -34 103 -61 87 -84 C75 -101 61 -113 55 -116 L77 -161 C88 -156 95 -150 105 -141 C144 -105 161 -73 161 0 L161 0 Z " />
<glyph glyph-name="less" unicode="&#x3c;" horiz-adv-x="272" d="M239 116 L239 226 L88 362 L239 497 L239 608 L20 406 L20 318 L239 116 Z " />
<glyph glyph-name="equal" unicode="&#x3d;" horiz-adv-x="409" d="M365 406 L365 489 L50 489 L50 406 L365 406 Z M365 220 L365 303 L50 303 L50 220 L365 220 Z " />
<glyph glyph-name="greater" unicode="&#x3e;" horiz-adv-x="272" d="M250 318 L250 406 L31 608 L31 497 L182 362 L31 226 L31 116 L250 318 Z " />
<glyph glyph-name="question" unicode="&#x3f;" horiz-adv-x="313" d="M301 519 C301 727 239 780 156 780 C60 780 21 720 21 635 C21 601 26 575 31 558 L121 556 C118 570 115 594 115 617 C115 676 121 694 151 694 C184 694 195 658 195 523 C195 448 190 407 162 407 C134 407 122 423 120 501 L53 501 L53 233 L122 233 L122 364 C136 330 166 315 198 315 C254 315 301 343 301 519 L301 519 Z M150 0 L150 155 L39 155 L39 0 L150 0 Z " />
<glyph glyph-name="at" unicode="&#x40;" horiz-adv-x="665" d="M630 409 C630 669 509 768 347 768 C174 768 39 638 39 338 C39 34 145 -80 345 -80 C431 -80 475 -51 534 5 L503 39 C455 -16 408 -35 348 -35 C186 -35 92 71 92 337 C92 587 202 723 340 723 C471 723 584 627 584 408 C584 251 528 183 490 183 C473 183 459 191 459 216 C459 226 464 267 474 349 C480 398 486 447 486 464 C486 523 451 591 362 591 C247 591 215 510 215 441 C215 432 215 423 216 415 L306 435 C305 442 305 448 305 455 C305 483 316 508 351 508 C377 508 386 486 386 460 C386 449 383 430 380 411 C280 400 174 370 174 222 C174 145 218 118 268 118 C333 118 371 188 376 200 C381 153 410 118 466 118 C550 118 630 227 630 409 L630 409 Z M374 356 C373 334 369 305 365 275 C360 236 344 205 301 205 C279 205 271 220 271 247 C271 309 309 342 374 356 L374 356 Z " />
<glyph glyph-name="A" unicode="A" horiz-adv-x="332" d="M320 0 L213 774 L110 774 L12 0 L106 0 L118 124 L200 124 L213 0 L320 0 Z M189 209 L127 209 L161 577 L189 209 Z " />
<glyph glyph-name="B" unicode="B" horiz-adv-x="376" d="M354 217 C354 328 310 409 253 409 C304 416 335 473 335 557 C335 676 312 768 184 768 C131 768 41 768 41 768 L41 0 C41 0 135 0 189 0 C293 0 354 58 354 217 L354 217 Z M233 555 C233 489 224 449 188 449 C172 449 144 449 144 449 L144 691 C144 691 166 691 180 691 C220 691 233 645 233 555 L233 555 Z M242 232 C242 108 227 81 189 81 C171 81 144 81 144 81 L144 373 C144 373 170 373 187 373 C228 373 242 305 242 232 L242 232 Z " />
<glyph glyph-name="C" unicode="C" horiz-adv-x="335" d="M316 215 C316 263 314 295 310 339 L219 341 C223 301 225 254 225 221 C225 107 212 67 184 67 C148 67 131 91 131 376 C131 672 144 700 175 700 C211 700 219 667 219 577 C219 552 218 506 214 465 L302 466 C306 495 311 559 311 586 C311 709 280 780 178 780 C57 780 24 684 24 340 C24 30 82 -16 175 -16 C273 -16 316 66 316 215 L316 215 Z " />
<glyph glyph-name="D" unicode="D" horiz-adv-x="375" d="M351 345 C351 534 335 645 306 702 C283 749 233 768 186 768 C129 768 41 768 41 768 L41 0 C41 0 144 0 209 0 C322 0 351 70 351 345 L351 345 Z M239 331 C239 97 228 81 179 81 C166 81 145 81 145 81 L145 691 C145 691 165 691 178 691 C225 691 239 623 239 331 L239 331 Z " />
<glyph glyph-name="E" unicode="E" horiz-adv-x="308" d="M296 0 L296 83 L144 83 L144 350 L263 350 L263 433 L144 433 L144 686 L278 686 L278 768 L41 768 L41 0 L296 0 Z " />
<glyph glyph-name="F" unicode="F" horiz-adv-x="287" d="M277 686 L277 768 L41 768 L41 0 L145 0 L145 339 L254 339 L254 427 L145 427 L145 686 L277 686 Z " />
<glyph glyph-name="G" unicode="G" horiz-adv-x="359" d="M330 -6 L330 400 L164 400 L164 324 L234 324 L234 183 C234 87 221 64 189 64 C143 64 129 85 129 363 C129 672 139 703 182 703 C215 703 227 677 227 579 C227 547 225 516 221 485 L314 490 C318 514 321 552 321 579 C321 722 288 780 187 780 C66 780 24 713 24 356 C24 29 71 -16 180 -16 C228 -16 262 11 275 50 L285 -6 L330 -6 Z " />
<glyph glyph-name="H" unicode="H" horiz-adv-x="379" d="M338 0 L338 768 L234 768 L234 444 L145 444 L145 768 L41 768 L41 0 L145 0 L145 352 L234 352 L234 0 L338 0 Z " />
<glyph glyph-name="I" unicode="I" horiz-adv-x="188" d="M147 0 L147 768 L41 768 L41 0 L147 0 Z " />
<glyph glyph-name="J" unicode="J" horiz-adv-x="352" d="M313 216 C313 431 313 768 313 768 L209 768 C209 768 209 400 209 167 C209 90 196 67 164 67 C132 67 116 90 116 167 C116 207 121 259 129 295 L27 292 C20 259 14 209 14 179 C14 41 60 -16 166 -16 C285 -16 313 41 313 216 L313 216 Z " />
<glyph glyph-name="K" unicode="K" horiz-adv-x="374" d="M383 0 L236 423 L370 768 L264 768 L145 433 L145 768 L41 768 L41 0 L145 0 L145 376 L271 0 L383 0 Z " />
<glyph glyph-name="L" unicode="L" horiz-adv-x="312" d="M306 0 L306 85 L146 85 L146 768 L41 768 L41 0 L306 0 Z " />
<glyph glyph-name="M" unicode="M" horiz-adv-x="452" d="M411 0 L411 768 L282 768 C273 716 254 597 244 484 C237 410 226 309 226 309 C226 309 216 410 209 484 C198 597 178 715 167 768 L41 768 L41 0 L132 0 C132 0 132 75 132 123 C132 295 124 563 124 563 C124 563 150 345 165 207 C174 127 189 0 189 0 L264 0 C264 0 278 127 286 207 C299 345 322 563 322 563 C322 563 318 295 318 123 C318 75 318 0 318 0 L411 0 Z " />
<glyph glyph-name="N" unicode="N" horiz-adv-x="361" d="M320 0 L320 768 L233 768 C233 768 233 677 233 618 C233 490 240 290 240 290 C240 290 197 507 166 644 C155 692 135 768 135 768 L41 768 L41 0 L131 0 C131 0 131 91 131 150 C131 278 124 478 124 478 C124 478 172 261 205 124 C216 78 238 0 238 0 L320 0 Z " />
<glyph glyph-name="O" unicode="O" horiz-adv-x="353" d="M329 383 C329 720 289 780 176 780 C63 780 24 720 24 383 C24 46 62 -16 176 -16 C290 -16 329 46 329 383 L329 383 Z M221 383 C221 243 221 190 217 135 C213 79 205 63 176 63 C149 63 139 79 135 135 C131 189 132 243 132 383 C132 503 131 579 135 633 C139 689 149 705 176 705 C205 705 213 689 217 633 C221 578 221 504 221 383 L221 383 Z " />
<glyph glyph-name="P" unicode="P" horiz-adv-x="355" d="M340 542 C340 704 291 768 220 768 C150 768 41 768 41 768 L41 0 L145 0 L145 331 C158 330 186 329 200 329 C284 329 340 358 340 542 L340 542 Z M232 540 C232 449 220 412 191 412 C174 412 145 412 145 412 L145 696 C145 696 164 695 174 695 C217 693 232 665 232 540 L232 540 Z " />
<glyph glyph-name="Q" unicode="Q" horiz-adv-x="354" d="M329 383 C329 720 289 780 176 780 C63 780 24 720 24 383 C24 46 67 6 134 -10 C130 -29 128 -47 128 -60 C128 -129 163 -156 219 -156 C274 -156 304 -132 304 -74 C304 -60 303 -49 301 -38 L252 -36 C254 -46 255 -54 255 -61 C255 -86 241 -95 225 -95 C198 -95 187 -80 187 -45 C187 -36 189 -23 191 -14 C289 -6 329 46 329 383 L329 383 Z M223 383 C223 243 221 187 217 132 C213 76 205 60 176 60 C149 60 139 76 135 132 C131 186 130 243 130 383 C130 503 131 579 135 633 C139 689 149 705 176 705 C205 705 213 689 217 633 C221 578 223 504 223 383 L223 383 Z " />
<glyph glyph-name="R" unicode="R" horiz-adv-x="367" d="M357 0 C337 23 325 122 324 192 C323 306 315 382 245 394 C319 405 342 452 342 573 C342 726 280 768 203 768 C140 768 41 768 41 768 L41 0 L145 0 L145 365 C145 365 166 365 179 365 C205 365 223 339 223 264 C223 226 223 170 223 140 C223 85 235 28 245 0 L357 0 Z M236 546 C236 462 225 438 198 438 C177 438 145 438 145 438 L145 698 C145 698 168 698 182 698 C218 698 236 658 236 546 L236 546 Z " />
<glyph glyph-name="S" unicode="S" horiz-adv-x="350" d="M331 201 C331 339 295 412 227 448 C214 455 200 462 193 466 C136 496 122 525 122 611 C122 685 137 709 166 709 C194 709 213 680 213 603 C213 580 213 541 210 520 L296 528 C301 553 305 581 305 608 C305 721 257 780 164 780 C70 780 19 712 19 581 C19 491 42 416 112 379 C122 374 130 369 142 363 C203 331 228 295 228 178 C228 71 199 63 178 63 C145 63 127 79 127 188 C127 221 129 265 133 295 L44 291 C37 264 30 214 30 183 C30 33 86 -16 176 -16 C285 -16 331 60 331 201 L331 201 Z " />
<glyph glyph-name="T" unicode="T" horiz-adv-x="329" d="M322 684 L322 768 L7 768 L7 684 L112 684 L112 0 L217 0 L217 684 L322 684 Z " />
<glyph glyph-name="U" unicode="U" horiz-adv-x="390" d="M351 125 C351 376 351 768 351 768 L247 768 C247 768 247 379 247 132 C247 89 233 69 195 69 C157 69 143 89 143 132 C143 379 143 768 143 768 L39 768 C39 768 39 376 39 125 C39 40 97 -16 195 -16 C311 -16 351 40 351 125 L351 125 Z " />
<glyph glyph-name="V" unicode="V" horiz-adv-x="346" d="M334 768 L237 768 C228 692 214 549 197 409 C189 339 179 227 179 227 C179 227 170 339 161 409 C144 548 123 692 113 768 L12 768 L125 -5 L220 -5 L334 768 Z " />
<glyph glyph-name="W" unicode="W" horiz-adv-x="463" d="M451 768 L362 768 C362 768 344 606 336 502 C330 419 320 283 320 283 C320 283 309 418 302 502 C293 605 281 701 274 768 L189 768 C183 701 172 605 160 502 C150 420 141 289 141 289 C141 289 131 419 126 502 C119 606 106 768 106 768 L12 768 L90 0 L184 0 C184 0 200 138 208 226 C216 313 231 451 231 451 C231 451 245 313 253 226 C261 138 274 0 274 0 L361 0 L451 768 Z " />
<glyph glyph-name="X" unicode="X" horiz-adv-x="338" d="M331 0 L224 401 L326 768 L226 768 L168 498 L114 768 L12 768 L93 402 L2 0 L102 0 L153 300 L226 0 L331 0 Z " />
<glyph glyph-name="Y" unicode="Y" horiz-adv-x="341" d="M339 768 L237 768 L175 442 L107 768 L-5 768 L117 298 L117 0 L223 0 L223 298 L339 768 Z " />
<glyph glyph-name="Z" unicode="Z" horiz-adv-x="318" d="M304 674 L304 768 L31 768 L31 682 L202 682 L10 92 L10 0 L301 0 L301 88 L115 88 L304 674 Z " />
<glyph glyph-name="bracketleft" unicode="&#x5b;" horiz-adv-x="242" d="M220 -158 L220 -70 L138 -70 L138 680 L220 680 L220 768 L45 768 L45 -158 L220 -158 Z " />
<glyph glyph-name="backslash" unicode="&#x5c;" horiz-adv-x="294" d="M291 0 L61 768 L1 768 L231 0 L291 0 Z " />
<glyph glyph-name="bracketright" unicode="&#x5d;" horiz-adv-x="242" d="M196 -158 L196 768 L22 768 L22 680 L103 680 L103 -70 L22 -70 L22 -158 L196 -158 Z " />
<glyph glyph-name="asciicircum" unicode="&#x5e;" horiz-adv-x="296" d="M259 625 L193 769 L106 769 L40 625 L109 625 L150 697 L190 625 L259 625 Z " />
<glyph glyph-name="underscore" unicode="&#x5f;" horiz-adv-x="396" d="M396 -200 L396 -130 L0 -130 L0 -200 L396 -200 Z " />
<glyph glyph-name="grave" unicode="&#x60;" horiz-adv-x="370" d="M241 599 L205 714 L106 714 L190 599 L241 599 Z " />
<glyph glyph-name="a" unicode="a" horiz-adv-x="302" d="M299 4 L299 52 C293 49 282 47 276 47 C264 47 255 58 255 76 C255 231 255 319 255 473 C255 525 214 556 151 556 C73 556 31 520 31 435 C31 399 38 382 42 367 L115 370 C112 387 110 413 110 428 C110 486 116 502 142 502 C163 502 169 486 169 417 C169 352 158 334 131 325 C123 322 113 319 105 316 C46 296 16 250 16 154 C16 10 71 -10 118 -10 C146 -10 169 1 184 32 C190 10 208 -10 241 -10 C262 -10 286 -3 299 4 L299 4 Z M167 129 C167 72 166 50 141 50 C114 50 106 70 106 146 C106 220 112 258 167 286 C167 286 167 189 167 129 L167 129 Z " />
<glyph glyph-name="b" unicode="b" horiz-adv-x="305" d="M283 271 C283 508 235 556 184 556 C151 556 127 538 114 510 C114 533 114 768 114 768 L25 768 L25 -1 L51 -1 L83 43 C101 5 128 -10 161 -10 C238 -10 283 33 283 271 L283 271 Z M189 272 C189 58 182 50 151 50 C124 50 110 105 110 271 C110 472 128 494 151 494 C177 494 189 485 189 272 L189 272 Z " />
<glyph glyph-name="c" unicode="c" horiz-adv-x="290" d="M269 158 C269 190 264 226 261 245 L185 248 C187 219 189 184 189 168 C189 54 178 45 155 45 C124 45 115 63 115 270 C115 479 124 501 150 501 C176 501 182 480 182 389 C182 372 179 339 178 332 L257 334 C260 344 263 377 263 396 C263 512 234 556 150 556 C72 556 22 523 22 281 C22 48 53 -10 152 -10 C240 -10 269 32 269 158 L269 158 Z " />
<glyph glyph-name="d" unicode="d" horiz-adv-x="308" d="M280 0 L280 768 L191 768 C191 768 191 528 191 505 C174 541 163 556 130 556 C75 556 22 496 22 259 C22 39 62 -10 127 -10 C158 -10 183 14 196 51 L196 0 L280 0 Z M193 271 C193 105 181 52 154 52 C123 52 115 71 115 272 C115 475 128 493 154 493 C177 493 193 430 193 271 L193 271 Z " />
<glyph glyph-name="e" unicode="e" horiz-adv-x="294" d="M269 299 C269 472 236 556 150 556 C63 556 22 490 22 249 C22 28 63 -10 157 -10 C231 -10 267 32 267 138 C267 154 265 201 262 214 L190 216 C191 200 192 185 192 171 C192 62 182 45 153 45 C120 45 113 85 113 199 C113 222 113 258 113 258 L266 258 C268 271 269 285 269 299 L269 299 Z M187 379 C188 363 187 325 186 312 L111 312 C111 314 110 344 111 364 C117 487 128 506 150 506 C176 506 180 489 187 379 L187 379 Z " />
<glyph glyph-name="f" unicode="f" horiz-adv-x="200" d="M252 666 C252 739 216 776 154 776 C94 776 51 743 51 676 C51 630 51 551 51 551 L2 551 L2 489 L51 489 L51 0 L142 0 L142 489 L199 489 L199 551 L142 551 C142 551 142 629 142 678 C142 703 151 713 161 713 C175 713 184 700 184 658 C184 645 183 622 180 598 L246 599 C249 621 252 641 252 666 L252 666 Z " />
<glyph glyph-name="g" unicode="g" horiz-adv-x="326" d="M341 603 L264 603 L251 526 C235 543 198 556 171 556 C83 556 32 482 32 366 C32 296 57 227 80 209 C55 196 17 172 17 122 C17 82 41 59 68 49 C25 27 2 -18 2 -54 C2 -158 75 -200 174 -200 C276 -200 332 -145 332 -29 C332 77 277 128 216 128 C192 128 178 128 153 128 C119 128 106 137 106 156 C106 168 110 174 126 185 C137 181 165 178 177 178 C263 178 304 237 304 366 C304 428 296 469 280 493 L341 603 Z M212 366 C212 257 194 244 168 244 C142 244 124 257 124 366 C124 476 142 490 168 490 C193 490 212 476 212 366 L212 366 Z M250 -47 C250 -99 222 -138 171 -138 C116 -138 84 -107 84 -40 C84 -10 99 18 119 43 C119 43 152 43 171 43 C220 43 250 16 250 -47 L250 -47 Z " />
<glyph glyph-name="h" unicode="h" horiz-adv-x="298" d="M273 0 C273 0 273 286 273 469 C273 528 239 556 188 556 C155 556 132 546 116 511 L116 768 L25 768 L25 0 L116 0 C116 0 116 259 116 424 C116 471 133 489 152 489 C169 489 182 482 182 458 C182 279 182 0 182 0 L273 0 Z " />
<glyph glyph-name="i" unicode="i" horiz-adv-x="139" d="M116 631 L116 734 L23 734 L23 631 L116 631 Z M114 0 L114 551 L25 551 L25 0 L114 0 Z " />
<glyph glyph-name="j" unicode="j" horiz-adv-x="157" d="M132 631 L132 734 L39 734 L39 631 L132 631 Z M132 -81 C132 164 132 551 132 551 L39 551 C39 551 39 171 39 -70 C39 -107 34 -115 16 -115 C-4 -115 -9 -103 -9 -63 C-9 -50 -8 -41 -5 -17 L-82 -18 C-86 -39 -88 -58 -88 -71 C-88 -144 -43 -181 19 -181 C79 -181 132 -148 132 -81 L132 -81 Z " />
<glyph glyph-name="k" unicode="k" horiz-adv-x="299" d="M304 0 L189 308 L298 551 L207 551 L116 343 L116 768 L25 768 L25 0 L116 0 L116 246 L206 0 L304 0 Z " />
<glyph glyph-name="l" unicode="l" horiz-adv-x="143" d="M118 0 L118 768 L25 768 L25 0 L118 0 Z " />
<glyph glyph-name="m" unicode="m" horiz-adv-x="445" d="M422 0 C422 0 422 286 422 469 C422 528 389 556 339 556 C306 556 279 541 263 505 C254 530 235 556 185 556 C152 556 127 543 111 507 C114 533 113 551 113 551 L25 551 L25 0 L114 0 C114 0 114 260 114 426 C114 473 131 491 149 491 C166 491 179 484 179 460 C179 281 179 0 179 0 L268 0 C268 0 268 260 268 426 C268 473 285 491 303 491 C320 491 333 484 333 460 C333 281 333 0 333 0 L422 0 Z " />
<glyph glyph-name="n" unicode="n" horiz-adv-x="298" d="M273 0 C273 0 273 286 273 469 C273 528 239 556 188 556 C155 556 129 544 113 508 C116 534 115 551 115 551 L25 551 L25 0 L116 0 C116 0 116 259 116 424 C116 471 133 489 152 489 C174 489 182 478 182 458 C182 279 182 0 182 0 L273 0 Z " />
<glyph glyph-name="o" unicode="o" horiz-adv-x="305" d="M283 266 C283 472 250 556 152 556 C50 556 22 474 22 266 C22 48 59 -10 152 -10 C254 -10 283 48 283 266 L283 266 Z M189 266 C189 54 181 50 152 50 C125 50 116 54 116 266 C116 471 122 494 152 494 C182 494 189 473 189 266 L189 266 Z " />
<glyph glyph-name="p" unicode="p" horiz-adv-x="304" d="M283 271 C283 508 235 556 184 556 C149 556 124 538 114 510 C114 533 114 551 114 551 L25 551 L25 -175 L114 -175 L114 25 C130 4 146 -10 168 -10 C238 -10 283 33 283 271 L283 271 Z M189 272 C189 58 182 50 151 50 C124 50 110 105 110 271 C110 472 128 494 151 494 C177 494 189 485 189 272 L189 272 Z " />
<glyph glyph-name="q" unicode="q" horiz-adv-x="306" d="M280 -176 L280 551 L254 551 L217 498 C204 526 184 556 146 556 C70 556 22 496 22 259 C22 39 62 -10 127 -10 C158 -10 178 8 191 45 L191 -176 L280 -176 Z M193 271 C193 105 181 55 154 55 C123 55 116 71 116 272 C116 475 128 499 154 499 C177 499 193 461 193 271 L193 271 Z " />
<glyph glyph-name="r" unicode="r" horiz-adv-x="253" d="M245 427 C245 519 220 556 176 556 C145 556 123 532 114 485 L114 551 L25 551 L25 0 L116 0 C116 0 116 220 116 360 C116 458 130 472 150 472 C163 472 166 451 166 414 C166 385 158 330 153 305 L236 309 C241 341 245 386 245 427 L245 427 Z " />
<glyph glyph-name="s" unicode="s" horiz-adv-x="293" d="M274 155 C274 231 246 289 187 321 C176 327 169 331 157 337 C108 363 108 390 108 429 C108 470 118 492 141 492 C159 492 175 475 175 422 C175 408 170 363 169 359 L246 362 C248 370 253 406 253 425 C253 518 206 556 142 556 C78 556 21 507 21 407 C21 332 39 295 81 271 C88 267 100 261 111 255 C168 222 181 199 181 133 C181 72 163 58 139 58 C110 58 102 83 102 135 C102 149 106 187 111 213 L33 205 C29 183 24 145 24 122 C24 33 68 -10 142 -10 C230 -10 274 46 274 155 L274 155 Z " />
<glyph glyph-name="t" unicode="t" horiz-adv-x="222" d="M217 15 L217 76 C204 71 187 68 174 68 C146 68 132 76 132 121 C132 265 132 489 132 489 L211 489 L211 551 L132 551 L132 714 L46 714 L44 551 L-4 551 L-4 489 L43 489 C42 327 41 106 41 94 C41 18 69 -10 134 -10 C170 -10 205 2 217 15 L217 15 Z " />
<glyph glyph-name="u" unicode="u" horiz-adv-x="298" d="M273 0 L273 551 L182 551 C182 551 182 312 182 160 C182 92 167 62 141 62 C124 62 116 75 116 99 C116 275 116 551 116 551 L25 551 C25 551 25 264 25 82 C25 23 53 -10 104 -10 C137 -10 171 10 185 50 C182 24 183 0 183 0 L273 0 Z " />
<glyph glyph-name="v" unicode="v" horiz-adv-x="272" d="M261 551 L173 551 L136 185 L95 551 L3 551 L85 0 L179 0 L261 551 Z " />
<glyph glyph-name="w" unicode="w" horiz-adv-x="387" d="M378 551 L289 551 L256 253 L226 551 L149 551 L123 253 L87 551 L-2 551 L78 0 L158 0 L188 276 L218 0 L298 0 L378 551 Z " />
<glyph glyph-name="x" unicode="x" horiz-adv-x="278" d="M284 0 L188 289 L271 551 L174 551 L137 403 L102 551 L3 551 L85 295 L-6 0 L88 0 L134 181 L181 0 L284 0 Z " />
<glyph glyph-name="y" unicode="y" horiz-adv-x="288" d="M291 551 L198 551 L157 179 L89 551 L-6 551 L124 -21 C114 -99 111 -113 87 -113 C68 -113 56 -103 56 -63 C56 -49 58 -35 59 -24 L-19 -33 C-20 -46 -21 -61 -21 -74 C-21 -145 17 -176 86 -176 C160 -176 187 -132 206 0 C207 6 274 441 291 551 L291 551 Z " />
<glyph glyph-name="z" unicode="z" horiz-adv-x="239" d="M236 476 L236 551 L37 551 L37 482 L145 482 L6 59 L6 0 L233 0 L233 74 L104 74 L236 476 Z " />
<glyph glyph-name="braceleft" unicode="&#x7b;" horiz-adv-x="242" d="M232 684 L232 768 C232 768 196 768 175 768 C122 768 83 744 83 674 C83 603 83 459 83 390 C83 355 70 338 34 338 L34 266 C70 266 83 249 83 214 C83 145 83 -11 83 -82 C83 -152 121 -176 174 -176 C195 -176 231 -176 231 -176 L231 -92 C231 -92 213 -92 203 -92 C185 -92 176 -88 176 -64 C176 16 176 156 176 248 C176 286 166 302 136 302 C166 302 176 317 176 356 C176 448 176 575 176 655 C176 679 186 684 204 684 C214 684 232 684 232 684 L232 684 Z " />
<glyph glyph-name="bar" unicode="&#x7c;" horiz-adv-x="164" d="M116 -200 L116 798 L43 798 L43 -200 L116 -200 Z " />
<glyph glyph-name="braceright" unicode="&#x7d;" horiz-adv-x="242" d="M209 266 L209 338 C173 338 160 355 160 390 C160 459 160 603 160 674 C160 744 121 768 68 768 C47 768 11 768 11 768 L11 684 C11 684 29 684 39 684 C57 684 67 679 67 655 C67 575 67 448 67 356 C67 317 77 302 107 302 C77 302 67 286 67 248 C67 156 67 16 67 -64 C67 -88 58 -92 40 -92 C30 -92 12 -92 12 -92 L12 -176 C12 -176 48 -176 69 -176 C122 -176 160 -152 160 -82 C160 -11 160 145 160 214 C160 249 173 266 209 266 L209 266 Z " />
<glyph glyph-name="asciitilde" unicode="&#x7e;" horiz-adv-x="222" d="M213 719 C213 745 206 768 206 768 L177 768 C177 765 177 761 177 755 C177 741 174 722 159 722 C150 722 143 728 134 739 C129 745 124 751 120 755 C103 772 90 779 66 779 C24 779 13 737 13 701 C13 675 20 656 20 656 L49 656 C49 659 49 664 49 669 C49 682 51 699 67 699 C78 699 86 689 95 678 C100 672 105 666 109 662 C118 652 131 641 152 641 C196 641 213 682 213 719 L213 719 Z " />
<glyph glyph-name="nbspace" unicode="&#xa0;" horiz-adv-x="95" d="" />
<glyph glyph-name="exclamdown" unicode="&#xa1;" horiz-adv-x="194" d="M150 613 L150 768 L44 768 L44 613 L150 613 Z M150 0 L150 285 L122 534 L72 534 L44 285 L44 0 L150 0 Z " />
<glyph glyph-name="cent" unicode="&#xa2;" horiz-adv-x="290" d="M269 356 C269 382 264 411 262 426 L185 428 C186 405 187 377 187 364 C187 273 178 272 155 272 C124 272 115 280 115 446 C115 613 124 625 150 625 C176 625 182 614 182 541 C182 527 179 501 178 495 L257 497 C257 497 260 531 260 547 C260 628 235 666 175 673 L175 727 L124 727 L124 673 C63 666 22 625 22 455 C22 287 47 234 124 224 L124 167 L175 167 L175 224 C245 230 269 264 269 356 L269 356 Z " />
<glyph glyph-name="sterling" unicode="&#xa3;" horiz-adv-x="460" d="M442 140 C442 180 437 201 425 238 L352 245 C356 223 357 204 357 177 C357 144 355 94 313 94 C275 94 257 110 236 124 C248 151 264 195 264 261 C264 286 263 291 260 309 L377 309 L377 399 L248 399 C235 465 228 519 228 589 C228 644 242 675 274 675 C301 675 323 657 323 577 C323 543 319 507 313 478 L405 489 C414 520 415 541 415 574 C415 693 365 774 271 774 C160 774 119 688 119 555 C119 495 126 457 138 399 L43 399 L43 309 L159 309 C166 279 171 259 171 227 C171 208 168 179 164 163 C142 172 130 180 105 180 C47 180 7 142 7 82 C7 25 44 -10 106 -10 C159 -10 186 24 202 58 C245 20 274 -10 331 -10 C414 -10 442 67 442 140 L442 140 Z M141 92 C132 73 124 61 108 61 C96 61 84 68 84 80 C84 94 95 106 107 106 C120 106 132 99 141 92 L141 92 Z " />
<glyph glyph-name="currency" unicode="&#xa4;" horiz-adv-x="380" d="M319 388 C319 562 259 705 187 705 C114 705 55 562 55 388 C55 214 114 73 187 73 C259 73 319 214 319 388 L319 388 Z M303 356 L238 333 L223 116 L186 238 L91 253 L147 366 L98 520 L155 496 L188 648 L224 486 L303 356 Z " />
<glyph glyph-name="yen" unicode="&#xa5;" horiz-adv-x="363" d="M361 275 L361 328 L244 328 L258 385 L361 385 L361 438 L271 438 L353 768 L251 768 L189 442 L121 768 L9 768 L94 438 L8 438 L8 385 L108 385 L123 328 L8 328 L8 275 L131 275 L131 0 L237 0 L237 275 L361 275 Z " />
<glyph glyph-name="brokenbar" unicode="&#xa6;" horiz-adv-x="380" d="M319 388 C319 562 259 705 187 705 C114 705 55 562 55 388 C55 214 114 73 187 73 C259 73 319 214 319 388 L319 388 Z M303 356 L238 333 L223 116 L186 238 L91 253 L147 366 L98 520 L155 496 L188 648 L224 486 L303 356 Z " />
<glyph glyph-name="section" unicode="&#xa7;" horiz-adv-x="309" d="M291 379 C291 455 251 502 195 538 C185 545 177 549 167 556 C118 587 118 614 118 653 C118 694 128 716 151 716 C169 716 185 699 185 646 C185 632 180 587 179 583 L256 586 C258 594 263 630 263 649 C263 742 216 780 152 780 C88 780 31 731 31 631 C31 556 54 519 98 490 C61 469 24 431 24 359 C24 296 52 253 94 229 C105 222 112 219 123 212 C176 181 188 144 188 85 C188 24 173 10 149 10 C120 10 112 35 112 87 C112 101 116 139 121 165 L43 157 C39 135 34 97 34 74 C34 -15 78 -58 152 -58 C240 -58 284 -2 284 107 C284 179 264 224 221 255 C244 272 291 294 291 379 L291 379 Z M215 358 C215 314 189 300 169 287 C129 312 106 326 106 381 C106 420 122 437 147 459 C192 427 215 395 215 358 L215 358 Z " />
<glyph glyph-name="dieresis" unicode="&#xa8;" horiz-adv-x="370" d="M314 599 L314 687 L218 687 L218 599 L314 599 Z M152 599 L152 687 L56 687 L56 599 L152 599 Z " />
<glyph glyph-name="copyright" unicode="&#xa9;" horiz-adv-x="592" d="M567 497 C567 657 452 770 293 770 C143 770 19 657 19 497 C19 342 128 223 293 223 C443 223 567 332 567 497 L567 497 Z M539 497 C539 362 428 250 293 250 C158 250 52 362 52 497 C52 632 158 743 293 743 C428 743 539 632 539 497 L539 497 Z M412 418 C412 440 407 465 405 478 L328 480 C332 461 334 435 334 424 C334 351 321 346 298 346 C267 346 253 355 253 500 C253 646 267 655 293 655 C319 655 325 647 325 583 C325 571 323 552 321 544 L396 545 C400 554 403 573 403 589 C403 670 368 701 293 701 C218 701 165 678 165 507 C165 344 196 299 295 299 C380 299 412 329 412 418 L412 418 Z " />
<glyph glyph-name="ordfeminine" unicode="&#xaa;" horiz-adv-x="339" d="M305 385 L305 423 C300 421 289 419 283 419 C272 419 263 428 263 442 C263 544 263 707 263 707 C263 749 233 780 163 780 C88 780 48 750 48 691 C48 665 53 658 59 647 L129 650 C126 663 124 673 124 685 C124 725 130 737 155 737 C176 737 185 727 185 676 C185 644 168 620 144 614 C134 611 128 609 119 606 C63 589 34 541 34 490 C34 388 87 374 132 374 C159 374 181 382 195 407 C202 389 218 374 250 374 C270 374 295 381 305 385 L305 385 Z M308 296 L308 338 L40 338 L40 296 L308 296 Z M185 484 C185 439 178 422 154 422 C128 422 120 438 120 498 C120 533 124 564 185 582 C185 582 185 522 185 484 L185 484 Z " />
<glyph glyph-name="guillemotleft" unicode="&#xab;" horiz-adv-x="417" d="M388 59 L388 178 L287 289 L388 399 L388 518 L223 354 L223 225 L388 59 Z M202 59 L202 178 L101 289 L202 399 L202 518 L37 354 L37 225 L202 59 Z " />
<glyph glyph-name="logicalnot" unicode="&#xac;" horiz-adv-x="380" d="M319 388 C319 562 259 705 187 705 C114 705 55 562 55 388 C55 214 114 73 187 73 C259 73 319 214 319 388 L319 388 Z M303 356 L238 333 L223 116 L186 238 L91 253 L147 366 L98 520 L155 496 L188 648 L224 486 L303 356 Z " />
<glyph glyph-name="registered" unicode="&#xae;" horiz-adv-x="592" d="M567 497 C567 647 443 770 293 770 C143 770 19 647 19 497 C19 347 143 223 293 223 C443 223 567 347 567 497 L567 497 Z M539 497 C539 362 428 250 293 250 C158 250 47 362 47 497 C47 632 158 743 293 743 C428 743 539 632 539 497 L539 497 Z M405 579 C405 658 390 704 319 704 C271 704 197 704 197 704 L197 302 L266 302 L266 462 C266 462 286 462 299 462 C324 462 324 443 324 417 C324 396 324 403 324 351 C324 319 330 305 332 302 L401 302 C399 308 395 330 395 347 C392 434 391 482 330 494 C384 503 405 521 405 579 L405 579 Z M335 588 C335 532 324 518 300 518 C288 518 266 518 266 518 L266 658 C266 658 287 658 299 658 C319 658 335 641 335 588 L335 588 Z " />
<glyph glyph-name="macron" unicode="&#xaf;" horiz-adv-x="370" d="M299 599 L299 661 L67 661 L67 599 L299 599 Z " />
<glyph glyph-name="degree" unicode="&#xb0;" horiz-adv-x="253" d="M223 674 C223 726 179 768 125 768 C72 768 29 726 29 674 C29 622 72 578 125 578 C179 578 223 622 223 674 L223 674 Z M184 672 C184 641 157 616 125 616 C95 616 68 641 68 672 C68 703 95 729 125 729 C157 729 184 703 184 672 L184 672 Z " />
<glyph glyph-name="plusminus" unicode="&#xb1;" horiz-adv-x="513" d="M486 0 L486 738 C469 752 414 776 352 776 C317 776 282 771 262 756 C244 769 216 776 176 776 C90 776 51 743 51 676 L51 551 L2 551 L2 489 L51 489 L51 0 L140 0 L140 489 L224 489 L224 0 L313 0 L313 489 L367 489 L367 551 L313 551 L313 672 C313 705 323 724 355 724 C379 724 391 708 397 698 L397 0 L486 0 Z M224 551 L140 551 L140 672 C140 703 153 724 185 724 C209 724 218 708 224 693 L224 551 Z " />
<glyph glyph-name="twosuperior" unicode="&#xb2;" horiz-adv-x="380" d="M319 388 C319 562 259 705 187 705 C114 705 55 562 55 388 C55 214 114 73 187 73 C259 73 319 214 319 388 L319 388 Z M303 356 L238 333 L223 116 L186 238 L91 253 L147 366 L98 520 L155 496 L188 648 L224 486 L303 356 Z " />
<glyph glyph-name="threesuperior" unicode="&#xb3;" horiz-adv-x="380" d="M319 388 C319 562 259 705 187 705 C114 705 55 562 55 388 C55 214 114 73 187 73 C259 73 319 214 319 388 L319 388 Z M303 356 L238 333 L223 116 L186 238 L91 253 L147 366 L98 520 L155 496 L188 648 L224 486 L303 356 Z " />
<glyph glyph-name="acute" unicode="&#xb4;" horiz-adv-x="370" d="M265 714 L166 714 L130 599 L181 599 L265 714 Z " />
<glyph glyph-name="mu" unicode="&#xb5;" horiz-adv-x="380" d="M319 388 C319 562 259 705 187 705 C114 705 55 562 55 388 C55 214 114 73 187 73 C259 73 319 214 319 388 L319 388 Z M303 356 L238 333 L223 116 L186 238 L91 253 L147 366 L98 520 L155 496 L188 648 L224 486 L303 356 Z " />
<glyph glyph-name="paragraph" unicode="&#xb6;" horiz-adv-x="390" d="M327 0 L327 768 C327 768 237 768 180 768 C90 768 31 707 31 522 C31 363 97 301 175 280 C180 279 193 275 197 274 L197 0 L246 0 L246 719 L278 719 L278 0 L327 0 Z M197 318 C159 357 150 384 150 520 C150 666 163 719 197 719 L197 318 Z " />
<glyph glyph-name="periodcentered" unicode="&#xb7;" horiz-adv-x="304" d="M234 387 C234 442 201 482 149 482 C97 482 64 442 64 387 C64 332 97 292 149 292 C201 292 234 332 234 387 L234 387 Z " />
<glyph glyph-name="cedilla" unicode="&#xb8;" horiz-adv-x="370" d="M268 -104 C268 -55 241 -22 203 -22 C193 -22 184 -24 179 -25 L171 -72 C174 -71 178 -71 181 -71 C197 -71 212 -80 212 -107 C212 -131 203 -140 185 -140 C163 -140 144 -125 134 -114 L118 -157 C131 -173 160 -192 195 -192 C241 -192 268 -157 268 -104 L268 -104 Z " />
<glyph glyph-name="onesuperior" unicode="&#xb9;" horiz-adv-x="380" d="M319 388 C319 562 259 705 187 705 C114 705 55 562 55 388 C55 214 114 73 187 73 C259 73 319 214 319 388 L319 388 Z M303 356 L238 333 L223 116 L186 238 L91 253 L147 366 L98 520 L155 496 L188 648 L224 486 L303 356 Z " />
<glyph glyph-name="ordmasculine" unicode="&#xba;" horiz-adv-x="339" d="M295 572 C295 716 263 780 169 780 C71 780 44 718 44 572 C44 422 80 374 169 374 C267 374 295 422 295 572 L295 572 Z M303 296 L303 338 L35 338 L35 296 L303 296 Z M205 572 C205 425 197 416 169 416 C143 416 134 427 134 572 C134 716 140 735 169 735 C198 735 205 717 205 572 L205 572 Z " />
<glyph glyph-name="guillemotright" unicode="&#xbb;" horiz-adv-x="417" d="M380 225 L380 354 L215 518 L215 399 L316 289 L215 178 L215 59 L380 225 Z M194 225 L194 354 L29 518 L29 399 L130 289 L29 178 L29 59 L194 225 Z " />
<glyph glyph-name="onequarter" unicode="&#xbc;" horiz-adv-x="380" d="M319 388 C319 562 259 705 187 705 C114 705 55 562 55 388 C55 214 114 73 187 73 C259 73 319 214 319 388 L319 388 Z M303 356 L238 333 L223 116 L186 238 L91 253 L147 366 L98 520 L155 496 L188 648 L224 486 L303 356 Z " />
<glyph glyph-name="onehalf" unicode="&#xbd;" horiz-adv-x="380" d="M319 388 C319 562 259 705 187 705 C114 705 55 562 55 388 C55 214 114 73 187 73 C259 73 319 214 319 388 L319 388 Z M303 356 L238 333 L223 116 L186 238 L91 253 L147 366 L98 520 L155 496 L188 648 L224 486 L303 356 Z " />
<glyph glyph-name="threequarters" unicode="&#xbe;" horiz-adv-x="380" d="M319 388 C319 562 259 705 187 705 C114 705 55 562 55 388 C55 214 114 73 187 73 C259 73 319 214 319 388 L319 388 Z M303 356 L238 333 L223 116 L186 238 L91 253 L147 366 L98 520 L155 496 L188 648 L224 486 L303 356 Z " />
<glyph glyph-name="questiondown" unicode="&#xbf;" horiz-adv-x="313" d="M280 613 L280 768 L174 768 L174 613 L280 613 Z M298 133 C298 167 293 193 288 210 L198 212 C201 198 204 174 204 151 C204 92 198 74 168 74 C135 74 124 110 124 245 C124 320 129 361 157 361 C185 361 197 345 199 267 L266 267 L266 535 L197 535 L197 404 C183 438 153 453 121 453 C65 453 18 425 18 249 C18 41 80 -12 163 -12 C259 -12 298 48 298 133 L298 133 Z " />
<glyph glyph-name="Agrave" unicode="&#xc0;" horiz-adv-x="332" d="M200 793 L164 856 L65 856 L149 793 L200 793 Z M320 0 L213 774 L110 774 L12 0 L106 0 L118 124 L200 124 L213 0 L320 0 Z M189 209 L127 209 L161 577 L189 209 Z " />
<glyph glyph-name="Aacute" unicode="&#xc1;" horiz-adv-x="332" d="M259 856 L160 856 L124 793 L175 793 L259 856 Z M320 0 L213 774 L110 774 L12 0 L106 0 L118 124 L200 124 L213 0 L320 0 Z M189 209 L127 209 L161 577 L189 209 Z " />
<glyph glyph-name="Acircumflex" unicode="&#xc2;" horiz-adv-x="332" d="M279 793 L206 856 L109 856 L37 793 L113 793 L158 820 L203 793 L279 793 Z M320 0 L213 774 L110 774 L12 0 L106 0 L118 124 L200 124 L213 0 L320 0 Z M189 209 L127 209 L161 577 L189 209 Z " />
<glyph glyph-name="Atilde" unicode="&#xc3;" horiz-adv-x="332" d="M320 0 L213 774 L110 774 L12 0 L106 0 L118 124 L200 124 L213 0 L320 0 Z M189 209 L127 209 L161 577 L189 209 Z M273 843 C273 860 265 875 265 875 L233 875 C233 874 233 872 233 869 C233 860 232 847 214 847 C202 847 194 851 187 856 C183 859 176 864 171 867 C152 878 133 882 111 882 C65 882 53 855 53 832 C53 815 61 803 61 803 L93 803 C93 805 93 808 93 811 C93 819 95 828 113 828 C124 828 132 823 142 817 C148 813 154 809 159 806 C167 801 185 793 206 793 C254 793 273 820 273 843 L273 843 Z " />
<glyph glyph-name="Adieresis" unicode="&#xc4;" horiz-adv-x="332" d="M294 793 L294 863 L198 863 L198 793 L294 793 Z M132 793 L132 863 L36 863 L36 793 L132 793 Z M320 0 L213 774 L110 774 L12 0 L106 0 L118 124 L200 124 L213 0 L320 0 Z M189 209 L127 209 L161 577 L189 209 Z " />
<glyph glyph-name="Aring" unicode="&#xc5;" horiz-adv-x="332" d="M320 0 L215 726 C239 744 255 773 255 806 C255 861 211 905 156 905 C101 905 57 861 57 806 C57 772 74 743 99 725 L12 0 L106 0 L118 124 L200 124 L213 0 L320 0 Z M201 803 C201 778 181 758 156 758 C131 758 111 778 111 803 C111 828 131 848 156 848 C181 848 201 828 201 803 L201 803 Z M189 209 L127 209 L156 577 L189 209 Z " />
<glyph glyph-name="AE" unicode="&#xc6;" horiz-adv-x="478" d="M466 0 L466 83 L314 83 L314 350 L433 350 L433 433 L314 433 L314 686 L448 686 L448 768 L174 768 L12 0 L112 0 L133 124 L215 124 C215 124 215 -1 215 0 L466 0 Z M215 209 L146 209 L215 611 L215 209 Z " />
<glyph glyph-name="Ccedilla" unicode="&#xc7;" horiz-adv-x="335" d="M316 215 C316 263 314 295 310 339 L219 341 C223 301 225 254 225 221 C225 107 212 67 184 67 C148 67 131 91 131 376 C131 672 144 700 175 700 C211 700 219 667 219 577 C219 552 218 506 214 465 L302 466 C306 495 311 559 311 586 C311 709 280 780 178 780 C57 780 24 684 24 340 C24 30 82 -16 175 -16 C273 -16 316 66 316 215 L316 215 Z M243 -108 C243 -59 216 -26 178 -26 C168 -26 159 -28 154 -29 L146 -76 C149 -75 153 -75 156 -75 C172 -75 187 -84 187 -111 C187 -135 178 -144 160 -144 C138 -144 119 -129 109 -118 L93 -161 C106 -177 135 -196 170 -196 C216 -196 243 -161 243 -108 L243 -108 Z " />
<glyph glyph-name="Egrave" unicode="&#xc8;" horiz-adv-x="308" d="M225 793 L189 856 L90 856 L174 793 L225 793 Z M296 0 L296 83 L144 83 L144 350 L263 350 L263 433 L144 433 L144 686 L278 686 L278 768 L41 768 L41 0 L296 0 Z " />
<glyph glyph-name="Eacute" unicode="&#xc9;" horiz-adv-x="308" d="M246 856 L147 856 L111 793 L162 793 L246 856 Z M296 0 L296 83 L144 83 L144 350 L263 350 L263 433 L144 433 L144 686 L278 686 L278 768 L41 768 L41 0 L296 0 Z " />
<glyph glyph-name="Ecircumflex" unicode="&#xca;" horiz-adv-x="308" d="M283 793 L210 856 L113 856 L41 793 L117 793 L162 820 L207 793 L283 793 Z M296 0 L296 83 L144 83 L144 350 L263 350 L263 433 L144 433 L144 686 L278 686 L278 768 L41 768 L41 0 L296 0 Z " />
<glyph glyph-name="Edieresis" unicode="&#xcb;" horiz-adv-x="308" d="M293 793 L293 862 L197 862 L197 793 L293 793 Z M131 793 L131 862 L35 862 L35 793 L131 793 Z M296 0 L296 83 L144 83 L144 350 L263 350 L263 433 L144 433 L144 686 L278 686 L278 768 L41 768 L41 0 L296 0 Z " />
<glyph glyph-name="Igrave" unicode="&#xcc;" horiz-adv-x="188" d="M136 793 L100 856 L1 856 L85 793 L136 793 Z M147 0 L147 768 L41 768 L41 0 L147 0 Z " />
<glyph glyph-name="Iacute" unicode="&#xcd;" horiz-adv-x="188" d="M192 856 L93 856 L57 793 L108 793 L192 856 Z M147 0 L147 768 L41 768 L41 0 L147 0 Z " />
<glyph glyph-name="Icircumflex" unicode="&#xce;" horiz-adv-x="188" d="M213 793 L140 856 L43 856 L-29 793 L47 793 L92 820 L137 793 L213 793 Z M147 0 L147 768 L41 768 L41 0 L147 0 Z " />
<glyph glyph-name="Idieresis" unicode="&#xcf;" horiz-adv-x="188" d="M223 793 L223 863 L127 863 L127 793 L223 793 Z M61 793 L61 863 L-35 863 L-35 793 L61 793 Z M147 0 L147 768 L41 768 L41 0 L147 0 Z " />
<glyph glyph-name="Eth" unicode="&#xd0;" horiz-adv-x="375" d="M351 345 C351 534 335 645 306 702 C283 749 233 768 186 768 C131 768 41 768 41 768 L41 407 L0 407 L0 344 L41 344 L41 0 C41 0 144 0 209 0 C322 0 351 70 351 345 L351 345 Z M239 331 C239 97 228 81 179 81 C167 81 145 81 145 81 L145 344 L185 344 L185 407 L145 407 L145 691 C145 691 165 691 178 691 C225 691 239 623 239 331 L239 331 Z " />
<glyph glyph-name="Ntilde" unicode="&#xd1;" horiz-adv-x="361" d="M320 0 L320 768 L233 768 C233 768 233 677 233 618 C233 490 240 290 240 290 C240 290 197 507 166 644 C155 692 135 768 135 768 L41 768 L41 0 L131 0 C131 0 131 91 131 150 C131 278 124 478 124 478 C124 478 172 261 205 124 C216 78 238 0 238 0 L320 0 Z M298 867 C298 884 290 899 290 899 L258 899 C258 898 258 896 258 893 C258 884 257 871 239 871 C227 871 219 875 212 880 C208 883 201 888 196 891 C177 902 158 906 136 906 C90 906 78 879 78 856 C78 839 86 827 86 827 L118 827 C118 829 118 832 118 835 C118 843 120 852 138 852 C149 852 157 847 167 841 C173 837 179 833 184 830 C192 825 210 817 231 817 C279 817 298 844 298 867 L298 867 Z " />
<glyph glyph-name="Ograve" unicode="&#xd2;" horiz-adv-x="353" d="M212 793 L176 856 L77 856 L161 793 L212 793 Z M329 383 C329 720 289 780 176 780 C63 780 24 720 24 383 C24 46 62 -16 176 -16 C290 -16 329 46 329 383 L329 383 Z M221 383 C221 243 221 190 217 135 C213 79 205 63 176 63 C149 63 139 79 135 135 C131 189 132 243 132 383 C132 503 131 579 135 633 C139 689 149 705 176 705 C205 705 213 689 217 633 C221 578 221 504 221 383 L221 383 Z " />
<glyph glyph-name="Oacute" unicode="&#xd3;" horiz-adv-x="353" d="M279 856 L180 856 L144 793 L195 793 L279 856 Z M329 383 C329 720 289 780 176 780 C63 780 24 720 24 383 C24 46 62 -16 176 -16 C290 -16 329 46 329 383 L329 383 Z M221 383 C221 243 221 190 217 135 C213 79 205 63 176 63 C149 63 139 79 135 135 C131 189 132 243 132 383 C132 503 131 579 135 633 C139 689 149 705 176 705 C205 705 213 689 217 633 C221 578 221 504 221 383 L221 383 Z " />
<glyph glyph-name="Ocircumflex" unicode="&#xd4;" horiz-adv-x="353" d="M298 793 L225 856 L128 856 L56 793 L132 793 L177 820 L222 793 L298 793 Z M329 383 C329 720 289 780 176 780 C63 780 24 720 24 383 C24 46 62 -16 176 -16 C290 -16 329 46 329 383 L329 383 Z M221 383 C221 243 221 190 217 135 C213 79 205 63 176 63 C149 63 139 79 135 135 C131 189 132 243 132 383 C132 503 131 579 135 633 C139 689 149 705 176 705 C205 705 213 689 217 633 C221 578 221 504 221 383 L221 383 Z " />
<glyph glyph-name="Otilde" unicode="&#xd5;" horiz-adv-x="353" d="M329 383 C329 720 289 780 176 780 C63 780 24 720 24 383 C24 46 62 -16 176 -16 C290 -16 329 46 329 383 L329 383 Z M221 383 C221 243 221 190 217 135 C213 79 205 63 176 63 C149 63 139 79 135 135 C131 189 132 243 132 383 C132 503 131 579 135 633 C139 689 149 705 176 705 C205 705 213 689 217 633 C221 578 221 504 221 383 L221 383 Z M286 843 C286 860 278 875 278 875 L246 875 C246 874 246 872 246 869 C246 860 245 847 227 847 C215 847 207 851 200 856 C196 859 189 864 184 867 C165 878 146 882 124 882 C78 882 66 855 66 832 C66 815 74 803 74 803 L106 803 C106 805 106 808 106 811 C106 819 108 828 126 828 C137 828 145 823 155 817 C161 813 167 809 172 806 C180 801 198 793 219 793 C267 793 286 820 286 843 L286 843 Z " />
<glyph glyph-name="Odieresis" unicode="&#xd6;" horiz-adv-x="353" d="M304 793 L304 861 L208 861 L208 793 L304 793 Z M142 793 L142 861 L46 861 L46 793 L142 793 Z M329 383 C329 720 289 780 176 780 C63 780 24 720 24 383 C24 46 62 -16 176 -16 C290 -16 329 46 329 383 L329 383 Z M221 383 C221 243 221 190 217 135 C213 79 205 63 176 63 C149 63 139 79 135 135 C131 189 132 243 132 383 C132 503 131 579 135 633 C139 689 149 705 176 705 C205 705 213 689 217 633 C221 578 221 504 221 383 L221 383 Z " />
<glyph glyph-name="multiply" unicode="&#xd7;" horiz-adv-x="380" d="M319 388 C319 562 259 705 187 705 C114 705 55 562 55 388 C55 214 114 73 187 73 C259 73 319 214 319 388 L319 388 Z M303 356 L238 333 L223 116 L186 238 L91 253 L147 366 L98 520 L155 496 L188 648 L224 486 L303 356 Z " />
<glyph glyph-name="Oslash" unicode="&#xd8;" horiz-adv-x="353" d="M333 780 L299 780 L282 733 C258 770 223 780 176 780 C63 780 24 720 24 383 C24 238 31 144 48 84 L12 -16 L49 -16 L68 37 C90 -3 127 -16 176 -16 C290 -16 329 46 329 383 C329 536 321 632 301 691 L333 780 Z M220 562 L132 317 C132 336 132 358 132 383 C132 503 131 579 135 633 C139 689 149 705 176 705 C205 705 213 689 217 633 C218 615 219 591 220 562 L220 562 Z M221 383 C221 243 221 190 217 135 C213 79 205 63 176 63 C149 63 138 79 135 135 C134 160 132 185 132 217 L221 466 C221 441 221 413 221 383 L221 383 Z " />
<glyph glyph-name="Ugrave" unicode="&#xd9;" horiz-adv-x="390" d="M237 793 L201 856 L102 856 L186 793 L237 793 Z M351 125 C351 376 351 768 351 768 L247 768 C247 768 247 379 247 132 C247 89 233 69 195 69 C157 69 143 89 143 132 C143 379 143 768 143 768 L39 768 C39 768 39 376 39 125 C39 40 97 -16 195 -16 C311 -16 351 40 351 125 L351 125 Z " />
<glyph glyph-name="Uacute" unicode="&#xda;" horiz-adv-x="390" d="M296 856 L197 856 L161 793 L212 793 L296 856 Z M351 125 C351 376 351 768 351 768 L247 768 C247 768 247 379 247 132 C247 89 233 69 195 69 C157 69 143 89 143 132 C143 379 143 768 143 768 L39 768 C39 768 39 376 39 125 C39 40 97 -16 195 -16 C311 -16 351 40 351 125 L351 125 Z " />
<glyph glyph-name="Ucircumflex" unicode="&#xdb;" horiz-adv-x="390" d="M316 793 L243 856 L146 856 L74 793 L150 793 L195 820 L240 793 L316 793 Z M351 125 C351 376 351 768 351 768 L247 768 C247 768 247 379 247 132 C247 89 233 69 195 69 C157 69 143 89 143 132 C143 379 143 768 143 768 L39 768 C39 768 39 376 39 125 C39 40 97 -16 195 -16 C311 -16 351 40 351 125 L351 125 Z " />
<glyph glyph-name="Udieresis" unicode="&#xdc;" horiz-adv-x="390" d="M326 793 L326 863 L230 863 L230 793 L326 793 Z M164 793 L164 863 L68 863 L68 793 L164 793 Z M351 125 C351 376 351 768 351 768 L247 768 C247 768 247 379 247 132 C247 89 233 69 195 69 C157 69 143 89 143 132 C143 379 143 768 143 768 L39 768 C39 768 39 376 39 125 C39 40 97 -16 195 -16 C311 -16 351 40 351 125 L351 125 Z " />
<glyph glyph-name="Yacute" unicode="&#xdd;" horiz-adv-x="341" d="M339 768 L237 768 L175 442 L107 768 L-5 768 L117 298 L117 0 L223 0 L223 298 L339 768 Z M267 908 L168 908 L132 793 L183 793 L267 908 Z " />
<glyph glyph-name="Thorn" unicode="&#xde;" horiz-adv-x="358" d="M340 379 C340 541 291 605 220 605 C192 605 145 605 145 605 L145 768 L41 768 L41 0 L145 0 L145 168 C159 167 185 166 200 166 C284 166 340 195 340 379 L340 379 Z M232 377 C232 286 220 249 191 249 C174 249 145 249 145 249 L145 533 C145 533 164 532 174 532 C217 530 232 502 232 377 L232 377 Z " />
<glyph glyph-name="germandbls" unicode="&#xdf;" horiz-adv-x="337" d="M314 217 C314 341 281 387 227 411 C266 422 302 449 302 568 C302 720 252 780 163 780 C66 780 25 726 25 589 C25 360 25 0 25 0 L116 0 C116 0 116 396 116 650 C116 685 133 705 160 705 C187 705 214 680 214 591 C214 473 197 444 163 444 C161 444 159 444 159 444 L159 372 C159 372 161 372 162 372 C192 372 220 323 220 236 C220 87 194 72 163 72 C161 72 159 72 159 72 L159 0 C159 0 161 0 163 0 C238 0 314 39 314 217 L314 217 Z " />
<glyph glyph-name="agrave" unicode="&#xe0;" horiz-adv-x="302" d="M299 4 L299 52 C293 49 282 47 276 47 C264 47 255 58 255 76 C255 231 255 319 255 473 C255 525 214 556 151 556 C73 556 31 520 31 435 C31 399 38 382 42 367 L115 370 C112 387 110 413 110 428 C110 486 116 502 142 502 C163 502 169 486 169 417 C169 352 158 334 131 325 C123 322 113 319 105 316 C46 296 16 250 16 154 C16 10 71 -10 118 -10 C146 -10 169 1 184 32 C190 10 208 -10 241 -10 C262 -10 286 -3 299 4 L299 4 Z M167 129 C167 72 166 50 141 50 C114 50 106 70 106 146 C106 220 112 258 167 286 C167 286 167 189 167 129 L167 129 Z M197 599 L161 714 L62 714 L146 599 L197 599 Z " />
<glyph glyph-name="aacute" unicode="&#xe1;" horiz-adv-x="302" d="M299 4 L299 52 C293 49 282 47 276 47 C264 47 255 58 255 76 C255 231 255 319 255 473 C255 525 214 556 151 556 C73 556 31 520 31 435 C31 399 38 382 42 367 L115 370 C112 387 110 413 110 428 C110 486 116 502 142 502 C163 502 169 486 169 417 C169 352 158 334 131 325 C123 322 113 319 105 316 C46 296 16 250 16 154 C16 10 71 -10 118 -10 C146 -10 169 1 184 32 C190 10 208 -10 241 -10 C262 -10 286 -3 299 4 L299 4 Z M167 129 C167 72 166 50 141 50 C114 50 106 70 106 146 C106 220 112 258 167 286 C167 286 167 189 167 129 L167 129 Z M235 714 L136 714 L100 599 L151 599 L235 714 Z " />
<glyph glyph-name="acircumflex" unicode="&#xe2;" horiz-adv-x="302" d="M299 4 L299 52 C293 49 282 47 276 47 C264 47 255 58 255 76 C255 231 255 319 255 473 C255 525 214 556 151 556 C73 556 31 520 31 435 C31 399 38 382 42 367 L115 370 C112 387 110 413 110 428 C110 486 116 502 142 502 C163 502 169 486 169 417 C169 352 158 334 131 325 C123 322 113 319 105 316 C46 296 16 250 16 154 C16 10 71 -10 118 -10 C146 -10 169 1 184 32 C190 10 208 -10 241 -10 C262 -10 286 -3 299 4 L299 4 Z M167 129 C167 72 166 50 141 50 C114 50 106 70 106 146 C106 220 112 258 167 286 C167 286 167 189 167 129 L167 129 Z M258 599 L192 714 L105 714 L40 599 L98 599 L149 649 L198 599 L258 599 Z " />
<glyph glyph-name="atilde" unicode="&#xe3;" horiz-adv-x="302" d="M299 4 L299 52 C293 49 282 47 276 47 C264 47 255 58 255 76 C255 231 255 319 255 473 C255 525 214 556 151 556 C73 556 31 520 31 435 C31 399 38 382 42 367 L115 370 C112 387 110 413 110 428 C110 486 116 502 142 502 C163 502 169 486 169 417 C169 352 158 334 131 325 C123 322 113 319 105 316 C46 296 16 250 16 154 C16 10 71 -10 118 -10 C146 -10 169 1 184 32 C190 10 208 -10 241 -10 C262 -10 286 -3 299 4 L299 4 Z M167 129 C167 72 166 50 141 50 C114 50 106 70 106 146 C106 220 112 258 167 286 C167 286 167 189 167 129 L167 129 Z M258 649 C258 666 250 681 250 681 L218 681 C218 680 218 678 218 675 C218 666 217 653 199 653 C187 653 179 657 172 662 C168 665 161 670 156 673 C137 684 118 688 96 688 C50 688 38 661 38 638 C38 621 46 609 46 609 L78 609 C78 611 78 614 78 617 C78 625 80 634 98 634 C109 634 117 629 127 623 C133 619 139 615 144 612 C152 607 170 599 191 599 C239 599 258 626 258 649 L258 649 Z " />
<glyph glyph-name="adieresis" unicode="&#xe4;" horiz-adv-x="302" d="M299 4 L299 52 C293 49 282 47 276 47 C264 47 255 58 255 76 C255 231 255 319 255 473 C255 525 214 556 151 556 C73 556 31 520 31 435 C31 399 38 382 42 367 L115 370 C112 387 110 413 110 428 C110 486 116 502 142 502 C163 502 169 486 169 417 C169 352 158 334 131 325 C123 322 113 319 105 316 C46 296 16 250 16 154 C16 10 71 -10 118 -10 C146 -10 169 1 184 32 C190 10 208 -10 241 -10 C262 -10 286 -3 299 4 L299 4 Z M167 129 C167 72 166 50 141 50 C114 50 106 70 106 146 C106 220 112 258 167 286 C167 286 167 189 167 129 L167 129 Z M277 599 L277 687 L181 687 L181 599 L277 599 Z M115 599 L115 687 L19 687 L19 599 L115 599 Z " />
<glyph glyph-name="aring" unicode="&#xe5;" horiz-adv-x="302" d="M237 677 C237 726 197 766 148 766 C99 766 59 726 59 677 C59 628 99 588 148 588 C197 588 237 628 237 677 L237 677 Z M299 4 L299 52 C293 49 282 47 276 47 C264 47 255 58 255 76 C255 231 255 319 255 473 C255 525 214 556 151 556 C73 556 31 520 31 435 C31 399 38 382 42 367 L115 370 C112 387 110 413 110 428 C110 486 116 502 142 502 C163 502 169 486 169 417 C169 352 158 334 131 325 C123 322 113 319 105 316 C46 296 16 250 16 154 C16 10 71 -10 118 -10 C146 -10 169 1 184 32 C190 10 208 -10 241 -10 C262 -10 286 -3 299 4 L299 4 Z M167 129 C167 72 166 50 141 50 C114 50 106 70 106 146 C106 220 112 258 167 286 C167 286 167 189 167 129 L167 129 Z M193 678 C193 647 173 629 148 629 C123 629 103 648 103 678 C103 708 123 725 148 725 C173 725 193 707 193 678 L193 678 Z " />
<glyph glyph-name="ae" unicode="&#xe6;" horiz-adv-x="436" d="M411 299 C411 472 378 556 292 556 C266 556 236 541 224 526 C210 540 193 556 143 556 C65 556 31 520 31 435 C31 399 38 382 42 367 L115 370 C112 387 110 413 110 428 C110 486 116 502 142 502 C163 502 174 486 174 417 C174 349 156 333 131 325 C125 323 115 320 105 316 C46 296 16 264 16 154 C16 10 69 -10 126 -10 C154 -10 198 5 213 36 C219 14 248 -10 299 -10 C373 -10 409 32 409 138 C409 154 407 201 404 214 L332 216 C333 200 334 185 334 171 C334 62 324 45 295 45 C262 45 255 85 255 199 C255 222 255 258 255 258 L408 258 C410 271 411 285 411 299 L411 299 Z M329 379 C330 363 329 325 328 312 L253 312 C253 312 253 356 253 364 C258 487 273 506 292 506 C318 506 322 489 329 379 L329 379 Z M174 128 C174 72 166 50 141 50 C114 50 106 70 106 146 C106 220 110 263 174 286 L174 128 Z " />
<glyph glyph-name="ccedilla" unicode="&#xe7;" horiz-adv-x="290" d="M269 158 C269 190 264 226 261 245 L185 248 C187 219 189 184 189 168 C189 54 178 45 155 45 C124 45 115 63 115 270 C115 479 124 501 150 501 C176 501 182 480 182 389 C182 372 179 339 178 332 L257 334 C260 344 263 377 263 396 C263 512 234 556 150 556 C72 556 22 523 22 281 C22 48 53 -10 152 -10 C240 -10 269 32 269 158 L269 158 Z M219 -101 C219 -52 192 -19 154 -19 C144 -19 135 -21 130 -22 L122 -69 C125 -68 129 -68 132 -68 C148 -68 163 -77 163 -104 C163 -128 154 -137 136 -137 C114 -137 95 -122 85 -111 L69 -154 C82 -170 111 -189 146 -189 C192 -189 219 -154 219 -101 L219 -101 Z " />
<glyph glyph-name="egrave" unicode="&#xe8;" horiz-adv-x="294" d="M269 299 C269 472 236 556 150 556 C63 556 22 490 22 249 C22 28 63 -10 157 -10 C231 -10 267 32 267 138 C267 154 265 201 262 214 L190 216 C191 200 192 185 192 171 C192 62 182 45 153 45 C120 45 113 85 113 199 C113 222 113 258 113 258 L266 258 C268 271 269 285 269 299 L269 299 Z M187 379 C188 363 187 325 186 312 L111 312 C111 314 110 344 111 364 C117 487 128 506 150 506 C176 506 180 489 187 379 L187 379 Z M189 599 L153 714 L54 714 L138 599 L189 599 Z " />
<glyph glyph-name="eacute" unicode="&#xe9;" horiz-adv-x="294" d="M269 299 C269 472 236 556 150 556 C63 556 22 490 22 249 C22 28 63 -10 157 -10 C231 -10 267 32 267 138 C267 154 265 201 262 214 L190 216 C191 200 192 185 192 171 C192 62 182 45 153 45 C120 45 113 85 113 199 C113 222 113 258 113 258 L266 258 C268 271 269 285 269 299 L269 299 Z M187 379 C188 363 187 325 186 312 L111 312 C111 314 110 344 111 364 C117 487 128 506 150 506 C176 506 180 489 187 379 L187 379 Z M245 714 L146 714 L110 599 L161 599 L245 714 Z " />
<glyph glyph-name="ecircumflex" unicode="&#xea;" horiz-adv-x="294" d="M269 299 C269 472 236 556 150 556 C63 556 22 490 22 249 C22 28 63 -10 157 -10 C231 -10 267 32 267 138 C267 154 265 201 262 214 L190 216 C191 200 192 185 192 171 C192 62 182 45 153 45 C120 45 113 85 113 199 C113 222 113 258 113 258 L266 258 C268 271 269 285 269 299 L269 299 Z M187 379 C188 363 187 325 186 312 L111 312 C111 314 110 344 111 364 C117 487 128 506 150 506 C176 506 180 489 187 379 L187 379 Z M257 599 L191 714 L104 714 L39 599 L97 599 L148 649 L197 599 L257 599 Z " />
<glyph glyph-name="edieresis" unicode="&#xeb;" horiz-adv-x="294" d="M269 299 C269 472 236 556 150 556 C63 556 22 490 22 249 C22 28 63 -10 157 -10 C231 -10 267 32 267 138 C267 154 265 201 262 214 L190 216 C191 200 192 185 192 171 C192 62 182 45 153 45 C120 45 113 85 113 199 C113 222 113 258 113 258 L266 258 C268 271 269 285 269 299 L269 299 Z M187 379 C188 363 187 325 186 312 L111 312 C111 314 110 344 111 364 C117 487 128 506 150 506 C176 506 180 489 187 379 L187 379 Z M276 599 L276 687 L180 687 L180 599 L276 599 Z M114 599 L114 687 L18 687 L18 599 L114 599 Z " />
<glyph glyph-name="igrave" unicode="&#xec;" horiz-adv-x="139" d="M114 0 L114 551 L25 551 L25 0 L114 0 Z M107 599 L71 714 L-28 714 L56 599 L107 599 Z " />
<glyph glyph-name="iacute" unicode="&#xed;" horiz-adv-x="139" d="M114 0 L114 551 L25 551 L25 0 L114 0 Z M169 714 L70 714 L34 599 L85 599 L169 714 Z " />
<glyph glyph-name="icircumflex" unicode="&#xee;" horiz-adv-x="139" d="M114 0 L114 551 L25 551 L25 0 L114 0 Z M179 599 L113 714 L26 714 L-39 599 L19 599 L70 649 L119 599 L179 599 Z " />
<glyph glyph-name="idieresis" unicode="&#xef;" horiz-adv-x="139" d="M114 0 L114 551 L25 551 L25 0 L114 0 Z M199 599 L199 687 L103 687 L103 599 L199 599 Z M37 599 L37 687 L-59 687 L-59 599 L37 599 Z " />
<glyph glyph-name="eth" unicode="&#xf0;" horiz-adv-x="305" d="M330 681 C330 695 320 710 316 715 L277 708 C278 706 280 702 280 696 C280 689 277 675 253 675 C246 675 239 676 234 678 C206 744 164 780 110 780 C76 780 41 771 24 762 L40 732 C53 739 78 746 102 746 C122 746 143 731 157 692 C125 692 71 681 71 637 C71 620 80 608 87 601 L124 608 C123 611 122 616 122 620 C122 632 135 638 152 638 C159 638 167 636 173 634 C178 612 183 581 185 549 C176 553 163 556 152 556 C50 556 22 474 22 266 C22 48 59 -10 152 -10 C254 -10 283 48 283 266 C283 417 272 542 254 621 C303 630 330 648 330 681 L330 681 Z M189 266 C189 54 181 50 152 50 C125 50 116 54 116 266 C116 471 122 494 152 494 C182 494 189 473 189 266 L189 266 Z " />
<glyph glyph-name="ntilde" unicode="&#xf1;" horiz-adv-x="298" d="M273 0 C273 0 273 286 273 469 C273 528 239 556 188 556 C155 556 129 544 113 508 C116 534 115 551 115 551 L25 551 L25 0 L116 0 C116 0 116 259 116 424 C116 471 133 489 152 489 C174 489 182 478 182 458 C182 279 182 0 182 0 L273 0 Z M257 649 C257 666 249 681 249 681 L217 681 C217 680 217 678 217 675 C217 666 216 653 198 653 C186 653 178 657 171 662 C167 665 160 670 155 673 C136 684 117 688 95 688 C49 688 37 661 37 638 C37 621 45 609 45 609 L77 609 C77 611 77 614 77 617 C77 625 79 634 97 634 C108 634 116 629 126 623 C132 619 138 615 143 612 C151 607 169 599 190 599 C238 599 257 626 257 649 L257 649 Z " />
<glyph glyph-name="ograve" unicode="&#xf2;" horiz-adv-x="305" d="M283 266 C283 472 250 556 152 556 C50 556 22 474 22 266 C22 48 59 -10 152 -10 C254 -10 283 48 283 266 L283 266 Z M189 266 C189 54 181 50 152 50 C125 50 116 54 116 266 C116 471 122 494 152 494 C182 494 189 473 189 266 L189 266 Z M201 599 L165 714 L66 714 L150 599 L201 599 Z " />
<glyph glyph-name="oacute" unicode="&#xf3;" horiz-adv-x="305" d="M283 266 C283 472 250 556 152 556 C50 556 22 474 22 266 C22 48 59 -10 152 -10 C254 -10 283 48 283 266 L283 266 Z M189 266 C189 54 181 50 152 50 C125 50 116 54 116 266 C116 471 122 494 152 494 C182 494 189 473 189 266 L189 266 Z M237 714 L138 714 L102 599 L153 599 L237 714 Z " />
<glyph glyph-name="ocircumflex" unicode="&#xf4;" horiz-adv-x="305" d="M283 266 C283 472 250 556 152 556 C50 556 22 474 22 266 C22 48 59 -10 152 -10 C254 -10 283 48 283 266 L283 266 Z M189 266 C189 54 181 50 152 50 C125 50 116 54 116 266 C116 471 122 494 152 494 C182 494 189 473 189 266 L189 266 Z M262 599 L196 714 L109 714 L44 599 L102 599 L153 649 L202 599 L262 599 Z " />
<glyph glyph-name="otilde" unicode="&#xf5;" horiz-adv-x="305" d="M283 266 C283 472 250 556 152 556 C50 556 22 474 22 266 C22 48 59 -10 152 -10 C254 -10 283 48 283 266 L283 266 Z M189 266 C189 54 181 50 152 50 C125 50 116 54 116 266 C116 471 122 494 152 494 C182 494 189 473 189 266 L189 266 Z M262 649 C262 666 254 681 254 681 L222 681 C222 680 222 678 222 675 C222 666 221 653 203 653 C191 653 183 657 176 662 C172 665 165 670 160 673 C141 684 122 688 100 688 C54 688 42 661 42 638 C42 621 50 609 50 609 L82 609 C82 611 82 614 82 617 C82 625 84 634 102 634 C113 634 121 629 131 623 C137 619 143 615 148 612 C156 607 174 599 195 599 C243 599 262 626 262 649 L262 649 Z " />
<glyph glyph-name="odieresis" unicode="&#xf6;" horiz-adv-x="305" d="M283 266 C283 472 250 556 152 556 C50 556 22 474 22 266 C22 48 59 -10 152 -10 C254 -10 283 48 283 266 L283 266 Z M189 266 C189 54 181 50 152 50 C125 50 116 54 116 266 C116 471 122 494 152 494 C182 494 189 473 189 266 L189 266 Z M282 599 L282 687 L186 687 L186 599 L282 599 Z M120 599 L120 687 L24 687 L24 599 L120 599 Z " />
<glyph glyph-name="divide" unicode="&#xf7;" horiz-adv-x="380" d="M319 388 C319 562 259 705 187 705 C114 705 55 562 55 388 C55 214 114 73 187 73 C259 73 319 214 319 388 L319 388 Z M303 356 L238 333 L223 116 L186 238 L91 253 L147 366 L98 520 L155 496 L188 648 L224 486 L303 356 Z " />
<glyph glyph-name="oslash" unicode="&#xf8;" horiz-adv-x="305" d="M283 266 C283 368 275 441 255 487 L283 556 L248 556 L234 521 C214 545 187 556 152 556 C50 556 22 474 22 266 C22 164 30 99 48 57 L22 -10 L52 -10 L66 25 C87 -1 115 -10 152 -10 C254 -10 283 48 283 266 L283 266 Z M190 403 L113 226 C113 239 113 252 113 266 C113 471 122 494 152 494 C173 494 185 484 190 403 L190 403 Z M192 266 C192 54 181 50 152 50 C124 50 117 71 115 152 L192 325 C192 307 192 288 192 266 L192 266 Z " />
<glyph glyph-name="ugrave" unicode="&#xf9;" horiz-adv-x="298" d="M273 0 L273 551 L182 551 C182 551 182 312 182 160 C182 92 167 62 141 62 C124 62 116 75 116 99 C116 275 116 551 116 551 L25 551 C25 551 25 264 25 82 C25 23 53 -10 104 -10 C137 -10 171 10 185 50 C182 24 183 0 183 0 L273 0 Z M213 599 L178 720 L82 720 L163 599 L213 599 Z " />
<glyph glyph-name="uacute" unicode="&#xfa;" horiz-adv-x="298" d="M273 0 L273 551 L182 551 C182 551 182 312 182 160 C182 92 167 62 141 62 C124 62 116 75 116 99 C116 275 116 551 116 551 L25 551 C25 551 25 264 25 82 C25 23 53 -10 104 -10 C137 -10 171 10 185 50 C182 24 183 0 183 0 L273 0 Z M233 714 L134 714 L98 599 L149 599 L233 714 Z " />
<glyph glyph-name="ucircumflex" unicode="&#xfb;" horiz-adv-x="298" d="M273 0 L273 551 L182 551 C182 551 182 312 182 160 C182 92 167 62 141 62 C124 62 116 75 116 99 C116 275 116 551 116 551 L25 551 C25 551 25 264 25 82 C25 23 53 -10 104 -10 C137 -10 171 10 185 50 C182 24 183 0 183 0 L273 0 Z M258 599 L192 714 L105 714 L40 599 L98 599 L149 649 L198 599 L258 599 Z " />
<glyph glyph-name="udieresis" unicode="&#xfc;" horiz-adv-x="298" d="M273 0 L273 551 L182 551 C182 551 182 312 182 160 C182 92 167 62 141 62 C124 62 116 75 116 99 C116 275 116 551 116 551 L25 551 C25 551 25 264 25 82 C25 23 53 -10 104 -10 C137 -10 171 10 185 50 C182 24 183 0 183 0 L273 0 Z M277 599 L277 687 L181 687 L181 599 L277 599 Z M115 599 L115 687 L19 687 L19 599 L115 599 Z " />
<glyph glyph-name="yacute" unicode="&#xfd;" horiz-adv-x="288" d="M291 551 L198 551 L157 179 L89 551 L-6 551 L124 -21 C114 -99 111 -113 87 -113 C68 -113 56 -103 56 -63 C56 -49 58 -35 59 -24 L-19 -33 C-20 -46 -21 -61 -21 -74 C-21 -145 17 -176 86 -176 C160 -176 187 -132 206 0 C207 6 274 441 291 551 L291 551 Z M245 714 L146 714 L110 599 L161 599 L245 714 Z " />
<glyph glyph-name="thorn" unicode="&#xfe;" horiz-adv-x="308" d="M283 271 C283 508 235 556 184 556 C149 556 124 538 114 510 C114 533 114 768 114 768 L25 768 L25 -175 L114 -175 L114 25 C130 4 146 -10 168 -10 C238 -10 283 33 283 271 L283 271 Z M189 272 C189 58 182 50 151 50 C124 50 110 105 110 271 C110 472 128 494 151 494 C177 494 189 485 189 272 L189 272 Z " />
<glyph glyph-name="ydieresis" unicode="&#xff;" horiz-adv-x="288" d="M291 551 L198 551 L157 179 L89 551 L-6 551 L124 -21 C114 -99 111 -113 87 -113 C68 -113 56 -103 56 -63 C56 -49 58 -35 59 -24 L-19 -33 C-20 -46 -21 -61 -21 -74 C-21 -145 17 -176 86 -176 C160 -176 187 -132 206 0 C207 6 274 441 291 551 L291 551 Z M277 599 L277 687 L181 687 L181 599 L277 599 Z M115 599 L115 687 L19 687 L19 599 L115 599 Z " />
<glyph glyph-name="dotlessi" unicode="&#x131;" horiz-adv-x="139" d="M114 0 L114 551 L25 551 L25 0 L114 0 Z " />
<glyph glyph-name="Lslash" unicode="&#x141;" horiz-adv-x="312" d="M306 0 L306 85 L146 85 L146 338 L289 383 L289 458 L146 413 L146 768 L41 768 L41 381 L0 368 L0 293 L41 306 L41 0 L306 0 Z " />
<glyph glyph-name="lslash" unicode="&#x142;" horiz-adv-x="143" d="M155 383 L155 458 L118 438 L118 768 L25 768 L25 388 L-12 368 L-12 293 L25 313 L25 0 L118 0 L118 363 L155 383 Z " />
<glyph glyph-name="OE" unicode="&#x152;" horiz-adv-x="488" d="M476 0 L476 83 L321 83 L321 350 L443 350 L443 433 L321 433 L321 686 L458 686 L458 768 L240 768 C223 773 208 777 176 777 C63 777 24 720 24 383 C24 46 62 -13 176 -13 C205 -13 232 -8 247 0 L476 0 Z M225 383 C225 243 225 190 221 135 C217 79 207 63 178 63 C151 63 139 79 135 135 C131 189 132 243 132 383 C132 503 131 579 135 633 C139 689 151 705 178 705 C207 705 217 689 221 633 C225 578 225 504 225 383 L225 383 Z " />
<glyph glyph-name="oe" unicode="&#x153;" horiz-adv-x="459" d="M434 299 C434 472 401 556 315 556 C265 556 246 531 235 516 C223 531 203 556 152 556 C50 556 22 474 22 266 C22 48 59 -10 152 -10 C197 -10 215 -1 236 20 C244 5 274 -10 322 -10 C396 -10 432 32 432 138 C432 154 430 201 427 214 L355 216 C356 200 357 185 357 171 C357 62 347 45 318 45 C285 45 278 85 278 199 L278 258 L431 258 C433 271 434 285 434 299 L434 299 Z M352 379 C353 363 352 325 351 312 L276 312 C276 312 275 344 276 364 C282 487 293 506 315 506 C341 506 345 489 352 379 L352 379 Z M189 266 C189 54 181 50 152 50 C125 50 116 54 116 266 C116 471 122 494 152 494 C182 494 189 473 189 266 L189 266 Z " />
<glyph glyph-name="Scaron" unicode="&#x160;" horiz-adv-x="350" d="M331 201 C331 339 295 412 227 448 C214 455 200 462 193 466 C136 496 122 525 122 611 C122 685 137 709 166 709 C194 709 213 680 213 603 C213 580 213 541 210 520 L296 528 C301 553 305 581 305 608 C305 721 257 780 164 780 C70 780 19 712 19 581 C19 491 42 416 112 379 C122 374 130 369 142 363 C203 331 228 295 228 178 C228 71 199 63 178 63 C145 63 127 79 127 188 C127 221 129 265 133 295 L44 291 C37 264 30 214 30 183 C30 33 86 -16 176 -16 C285 -16 331 60 331 201 L331 201 Z M274 881 L205 881 L165 841 L124 881 L56 881 L121 793 L208 793 L274 881 Z " />
<glyph glyph-name="scaron" unicode="&#x161;" horiz-adv-x="293" d="M274 155 C274 231 246 289 187 321 C176 327 169 331 157 337 C108 363 108 390 108 429 C108 470 118 492 141 492 C159 492 175 475 175 422 C175 408 170 363 169 359 L246 362 C248 370 253 406 253 425 C253 518 206 556 142 556 C78 556 21 507 21 407 C21 332 39 295 81 271 C88 267 100 261 111 255 C168 222 181 199 181 133 C181 72 163 58 139 58 C110 58 102 83 102 135 C102 149 106 187 111 213 L33 205 C29 183 24 145 24 122 C24 33 68 -10 142 -10 C230 -10 274 46 274 155 L274 155 Z M251 687 L182 687 L142 647 L101 687 L33 687 L98 599 L185 599 L251 687 Z " />
<glyph glyph-name="Ydieresis" unicode="&#x178;" horiz-adv-x="341" d="M306 793 L306 863 L210 863 L210 793 L306 793 Z M144 793 L144 863 L48 863 L48 793 L144 793 Z M339 768 L237 768 L175 442 L107 768 L-5 768 L117 298 L117 0 L223 0 L223 298 L339 768 Z " />
<glyph glyph-name="Zcaron" unicode="&#x17d;" horiz-adv-x="318" d="M304 674 L304 768 L31 768 L31 682 L202 682 L10 92 L10 0 L301 0 L301 88 L115 88 L304 674 Z M287 881 L218 881 L178 841 L137 881 L69 881 L134 793 L221 793 L287 881 Z " />
<glyph glyph-name="zcaron" unicode="&#x17e;" horiz-adv-x="239" d="M236 476 L236 551 L37 551 L37 482 L145 482 L6 59 L6 0 L233 0 L233 74 L104 74 L236 476 Z M251 687 L182 687 L142 647 L101 687 L33 687 L98 599 L185 599 L251 687 Z " />
<glyph glyph-name="florin" unicode="&#x192;" horiz-adv-x="306" d="M315 666 C315 739 278 776 212 776 C152 776 104 743 104 676 C104 627 104 551 104 551 L55 551 L55 489 L104 489 C104 489 104 234 104 72 C104 47 97 37 87 37 C73 37 67 46 67 83 C67 96 68 110 71 134 L-5 133 C-8 111 -11 100 -11 75 C-11 4 30 -26 92 -26 C152 -26 195 7 195 74 C195 236 195 489 195 489 L252 489 L252 551 L195 551 C195 551 195 629 195 678 C195 703 204 713 214 713 C228 713 233 698 233 658 C233 645 231 622 228 598 L309 599 C312 621 315 641 315 666 L315 666 Z " />
<glyph glyph-name="circumflex" unicode="&#x2c6;" horiz-adv-x="370" d="M301 599 L235 714 L148 714 L83 599 L141 599 L192 649 L241 599 L301 599 Z " />
<glyph glyph-name="caron" unicode="&#x2c7;" horiz-adv-x="370" d="M301 687 L232 687 L192 647 L151 687 L83 687 L148 599 L235 599 L301 687 Z " />
<glyph glyph-name="breve" unicode="&#x2d8;" horiz-adv-x="370" d="M307 695 L236 695 C237 675 233 653 186 653 C139 653 135 675 136 695 L65 695 C65 640 111 599 186 599 C267 599 307 640 307 695 L307 695 Z " />
<glyph glyph-name="dotaccent" unicode="&#x2d9;" horiz-adv-x="370" d="M240 599 L240 688 L129 688 L129 599 L240 599 Z " />
<glyph glyph-name="ring" unicode="&#x2da;" horiz-adv-x="370" d="M284 696 C284 751 240 795 185 795 C130 795 86 751 86 696 C86 641 130 597 185 597 C240 597 284 641 284 696 L284 696 Z M230 696 C230 665 210 648 185 648 C160 648 140 662 140 696 C140 727 160 744 185 744 C210 744 230 726 230 696 L230 696 Z " />
<glyph glyph-name="ogonek" unicode="&#x2db;" horiz-adv-x="370" d="M244 -103 C244 -93 241 -87 241 -87 L198 -81 C198 -81 201 -88 201 -96 C201 -111 194 -116 184 -116 C174 -116 164 -110 164 -90 C164 -55 188 -24 221 0 L183 0 C136 -22 112 -54 112 -90 C112 -125 137 -152 182 -152 C219 -152 244 -135 244 -103 L244 -103 Z " />
<glyph glyph-name="tilde" unicode="&#x2dc;" horiz-adv-x="370" d="M303 649 C303 666 295 681 295 681 L263 681 C263 680 263 678 263 675 C263 666 262 653 244 653 C232 653 224 657 217 662 C213 665 206 670 201 673 C182 684 163 688 141 688 C95 688 83 661 83 638 C83 621 91 609 91 609 L123 609 C123 611 123 614 123 617 C123 625 125 634 143 634 C154 634 162 629 172 623 C178 619 184 615 189 612 C197 607 215 599 236 599 C284 599 303 626 303 649 L303 649 Z " />
<glyph glyph-name="hungarumlaut" unicode="&#x2dd;" horiz-adv-x="370" d="M320 675 L221 675 L185 599 L236 599 L320 675 Z M199 675 L100 675 L64 599 L115 599 L199 675 Z " />
<glyph glyph-name="pi" unicode="&#x3c0;" horiz-adv-x="592" d="M567 497 C567 647 443 770 293 770 C143 770 19 647 19 497 C19 347 143 223 293 223 C443 223 567 347 567 497 L567 497 Z M539 497 C539 362 428 250 293 250 C158 250 47 362 47 497 C47 632 158 743 293 743 C428 743 539 632 539 497 L539 497 Z M413 580 C413 669 376 704 327 704 C284 704 206 704 206 704 L206 302 L275 302 L275 463 C292 462 301 462 313 462 C366 462 413 492 413 580 L413 580 Z M341 579 C341 536 329 518 313 518 C298 518 275 518 275 518 L275 651 C275 651 298 651 304 651 C328 651 341 641 341 579 L341 579 Z " />
<glyph glyph-name="endash" unicode="&#x2013;" horiz-adv-x="541" d="M516 325 L516 403 L25 403 L25 325 L516 325 Z " />
<glyph glyph-name="emdash" unicode="&#x2014;" horiz-adv-x="655" d="M629 325 L629 403 L25 403 L25 325 L629 325 Z " />
<glyph glyph-name="quoteleft" unicode="&#x2018;" horiz-adv-x="208" d="M157 485 L157 640 L92 640 C90 674 93 699 106 724 C116 744 136 761 142 765 L127 801 C115 796 108 792 98 783 C59 747 43 713 43 640 C43 580 43 485 43 485 L157 485 Z " />
<glyph glyph-name="quoteright" unicode="&#x2019;" horiz-adv-x="208" d="M158 613 C158 673 158 768 158 768 L44 768 L44 613 L109 613 C111 579 108 554 95 529 C85 510 64 491 59 488 L74 452 C86 457 94 462 104 471 C143 507 158 540 158 613 L158 613 Z " />
<glyph glyph-name="quotesinglbase" unicode="&#x201a;" horiz-adv-x="208" d="M158 0 C158 64 158 165 158 165 L44 165 L44 0 L109 0 C111 -34 108 -59 95 -84 C85 -103 64 -122 59 -125 L74 -161 C86 -156 94 -151 104 -142 C143 -106 158 -73 158 0 L158 0 Z " />
<glyph glyph-name="quotedblleft" unicode="&#x201c;" horiz-adv-x="372" d="M331 485 L331 640 L266 640 C264 674 267 699 280 724 C290 743 311 762 316 765 L301 801 C289 796 281 791 271 782 C232 746 217 713 217 640 C217 580 217 485 217 485 L331 485 Z M157 485 L157 640 L92 640 C90 674 93 699 106 724 C116 744 136 761 142 765 L127 801 C115 796 108 792 98 783 C59 747 43 713 43 640 C43 580 43 485 43 485 L157 485 Z " />
<glyph glyph-name="quotedblright" unicode="&#x201d;" horiz-adv-x="372" d="M332 613 C332 673 332 768 332 768 L218 768 L218 613 L283 613 C285 579 282 554 269 529 C259 509 239 492 233 488 L248 452 C260 457 267 461 277 470 C316 506 332 540 332 613 L332 613 Z M158 613 C158 673 158 768 158 768 L44 768 L44 613 L109 613 C111 579 108 554 95 529 C85 510 64 491 59 488 L74 452 C86 457 94 462 104 471 C143 507 158 540 158 613 L158 613 Z " />
<glyph glyph-name="quotedblbase" unicode="&#x201e;" horiz-adv-x="372" d="M332 0 C332 64 332 165 332 165 L218 165 L218 0 L283 0 C285 -34 282 -59 269 -84 C259 -104 239 -121 233 -125 L248 -161 C260 -156 267 -152 277 -143 C316 -107 332 -73 332 0 L332 0 Z M158 0 C158 64 158 165 158 165 L44 165 L44 0 L109 0 C111 -34 108 -59 95 -84 C85 -103 64 -122 59 -125 L74 -161 C86 -156 94 -151 104 -142 C143 -106 158 -73 158 0 L158 0 Z " />
<glyph glyph-name="dagger" unicode="&#x2020;" horiz-adv-x="336" d="M317 547 L317 624 L217 624 L217 774 L119 774 L119 624 L19 624 L19 547 L121 547 L121 -77 L215 -77 L215 547 L317 547 Z " />
<glyph glyph-name="daggerdbl" unicode="&#x2021;" horiz-adv-x="336" d="M317 175 L317 252 L216 252 L216 547 L317 547 L317 624 L216 624 L216 774 L120 774 L120 624 L19 624 L19 547 L120 547 L120 252 L19 252 L19 175 L120 175 L120 -45 L216 -45 L216 175 L317 175 Z " />
<glyph glyph-name="bullet" unicode="&#x2022;" horiz-adv-x="502" d="M476 400 C476 522 375 621 251 621 C126 621 25 522 25 400 C25 278 126 179 251 179 C375 179 476 278 476 400 L476 400 Z " />
<glyph glyph-name="ellipsis" unicode="&#x2026;" horiz-adv-x="624" d="M573 0 L573 155 L467 155 L467 0 L573 0 Z M365 0 L365 155 L259 155 L259 0 L365 0 Z M157 0 L157 155 L51 155 L51 0 L157 0 Z " />
<glyph glyph-name="perthousand" unicode="&#x2030;" horiz-adv-x="814" d="M797 194 C797 378 755 423 680 423 C616 423 563 378 563 194 C563 27 610 -9 680 -9 C754 -9 797 27 797 194 L797 194 Z M247 545 C247 729 205 774 130 774 C66 774 13 729 13 545 C13 378 60 342 130 342 C204 342 247 378 247 545 L247 545 Z M515 760 L455 760 L36 0 L96 0 L515 760 Z M534 194 C534 378 492 423 417 423 C353 423 300 378 300 194 C300 27 347 -9 417 -9 C491 -9 534 27 534 194 L534 194 Z M709 206 C709 76 698 65 679 65 C662 65 651 75 651 206 C651 336 659 349 679 349 C700 349 709 338 709 206 L709 206 Z M159 557 C159 427 148 416 129 416 C112 416 101 426 101 557 C101 687 109 700 129 700 C150 700 159 689 159 557 L159 557 Z M446 206 C446 76 435 65 416 65 C399 65 388 75 388 206 C388 336 396 349 416 349 C437 349 446 338 446 206 L446 206 Z " />
<glyph glyph-name="guilsinglleft" unicode="&#x2039;" horiz-adv-x="264" d="M213 59 L213 178 L112 289 L213 399 L213 518 L48 354 L48 225 L213 59 Z " />
<glyph glyph-name="guilsinglright" unicode="&#x203a;" horiz-adv-x="264" d="M225 225 L225 354 L60 518 L60 399 L161 289 L60 178 L60 59 L225 225 Z " />
<glyph glyph-name="fraction" unicode="&#x2044;" horiz-adv-x="255" d="M393 780 L338 780 L-138 -16 L-83 -16 L393 780 Z " />
<glyph glyph-name="trademark" unicode="&#x2122;" horiz-adv-x="420" d="M388 537 L388 768 L305 768 L289 627 L289 617 L285 617 L285 627 L270 768 L183 768 L183 537 L236 537 L236 710 L264 537 L312 537 L336 710 L336 537 L388 537 Z M162 722 L162 768 L13 768 L13 722 L60 722 L60 537 L114 537 L114 722 L162 722 Z " />
<glyph glyph-name="Omega" unicode="&#x2126;" horiz-adv-x="380" d="M319 388 C319 562 259 705 187 705 C114 705 55 562 55 388 C55 214 114 73 187 73 C259 73 319 214 319 388 L319 388 Z M303 356 L238 333 L223 116 L186 238 L91 253 L147 366 L98 520 L155 496 L188 648 L224 486 L303 356 Z " />
<glyph glyph-name="partialdiff" unicode="&#x2202;" horiz-adv-x="380" d="M319 388 C319 562 259 705 187 705 C114 705 55 562 55 388 C55 214 114 73 187 73 C259 73 319 214 319 388 L319 388 Z M303 356 L238 333 L223 116 L186 238 L91 253 L147 366 L98 520 L155 496 L188 648 L224 486 L303 356 Z " />
<glyph glyph-name="Delta" unicode="&#x2206;" horiz-adv-x="380" d="M319 388 C319 562 259 705 187 705 C114 705 55 562 55 388 C55 214 114 73 187 73 C259 73 319 214 319 388 L319 388 Z M303 356 L238 333 L223 116 L186 238 L91 253 L147 366 L98 520 L155 496 L188 648 L224 486 L303 356 Z " />
<glyph glyph-name="product" unicode="&#x220f;" horiz-adv-x="380" d="M319 388 C319 562 259 705 187 705 C114 705 55 562 55 388 C55 214 114 73 187 73 C259 73 319 214 319 388 L319 388 Z M303 356 L238 333 L223 116 L186 238 L91 253 L147 366 L98 520 L155 496 L188 648 L224 486 L303 356 Z " />
<glyph glyph-name="summation" unicode="&#x2211;" horiz-adv-x="380" d="M319 388 C319 562 259 705 187 705 C114 705 55 562 55 388 C55 214 114 73 187 73 C259 73 319 214 319 388 L319 388 Z M303 356 L238 333 L223 116 L186 238 L91 253 L147 366 L98 520 L155 496 L188 648 L224 486 L303 356 Z " />
<glyph glyph-name="minus" unicode="&#x2212;" horiz-adv-x="380" d="M319 388 C319 562 259 705 187 705 C114 705 55 562 55 388 C55 214 114 73 187 73 C259 73 319 214 319 388 L319 388 Z M303 356 L238 333 L223 116 L186 238 L91 253 L147 366 L98 520 L155 496 L188 648 L224 486 L303 356 Z " />
<glyph glyph-name="radical" unicode="&#x221a;" horiz-adv-x="650" d="M696 931 L577 877 C500 740 445 605 396 467 C349 333 300 156 269 -2 L159 330 L33 270 L235 -144 L321 -100 C349 66 397 238 469 445 C521 597 620 828 696 931 L696 931 Z " />
<glyph glyph-name="infinity" unicode="&#x221e;" horiz-adv-x="513" d="M486 0 L486 551 L395 551 L395 0 L486 0 Z M489 666 C489 755 423 776 349 776 C314 776 286 768 266 753 C248 769 216 776 176 776 C90 776 51 743 51 676 C51 628 51 551 51 551 L2 551 L2 489 L51 489 L51 0 L140 0 L140 489 L224 489 L224 0 L313 0 L313 489 L372 489 L372 551 L313 551 C313 551 313 625 313 672 C313 703 326 722 358 722 C388 722 409 692 400 616 L486 627 C488 640 489 655 489 666 L489 666 Z M224 551 L140 551 C140 551 140 626 140 672 C140 703 153 724 185 724 C209 724 218 708 224 693 L224 551 Z " />
<glyph glyph-name="integral" unicode="&#x222b;" horiz-adv-x="380" d="M319 388 C319 562 259 705 187 705 C114 705 55 562 55 388 C55 214 114 73 187 73 C259 73 319 214 319 388 L319 388 Z M303 356 L238 333 L223 116 L186 238 L91 253 L147 366 L98 520 L155 496 L188 648 L224 486 L303 356 Z " />
<glyph glyph-name="approxequal" unicode="&#x2248;" horiz-adv-x="380" d="M319 388 C319 562 259 705 187 705 C114 705 55 562 55 388 C55 214 114 73 187 73 C259 73 319 214 319 388 L319 388 Z M303 356 L238 333 L223 116 L186 238 L91 253 L147 366 L98 520 L155 496 L188 648 L224 486 L303 356 Z " />
<glyph glyph-name="notequal" unicode="&#x2260;" horiz-adv-x="375" d="M425 666 C425 739 389 776 327 776 C302 776 282 771 262 756 C244 769 216 776 176 776 C90 776 51 743 51 676 C51 628 51 551 51 551 L2 551 L2 489 L51 489 L51 0 L140 0 L140 489 L224 489 L224 0 L315 0 L315 489 L372 489 L372 551 L315 551 C315 551 315 629 315 678 C315 703 324 713 334 713 C348 713 357 700 357 658 C357 645 356 622 353 598 L419 599 C422 621 425 641 425 666 L425 666 Z M224 551 L140 551 C140 551 140 626 140 672 C140 703 153 724 185 724 C209 724 219 708 224 693 L224 551 Z " />
<glyph glyph-name="lessequal" unicode="&#x2264;" horiz-adv-x="380" d="M319 388 C319 562 259 705 187 705 C114 705 55 562 55 388 C55 214 114 73 187 73 C259 73 319 214 319 388 L319 388 Z M303 356 L238 333 L223 116 L186 238 L91 253 L147 366 L98 520 L155 496 L188 648 L224 486 L303 356 Z " />
<glyph glyph-name="greaterequal" unicode="&#x2265;" horiz-adv-x="380" d="M319 388 C319 562 259 705 187 705 C114 705 55 562 55 388 C55 214 114 73 187 73 C259 73 319 214 319 388 L319 388 Z M303 356 L238 333 L223 116 L186 238 L91 253 L147 366 L98 520 L155 496 L188 648 L224 486 L303 356 Z " />
<glyph glyph-name="lozenge" unicode="&#x25ca;" horiz-adv-x="380" d="M319 388 C319 562 259 705 187 705 C114 705 55 562 55 388 C55 214 114 73 187 73 C259 73 319 214 319 388 L319 388 Z M303 356 L238 333 L223 116 L186 238 L91 253 L147 366 L98 520 L155 496 L188 648 L224 486 L303 356 Z " />
<glyph glyph-name="fi" unicode="&#xfb01;" horiz-adv-x="342" d="M313 627 C333 751 258 776 176 776 C90 776 51 743 51 676 C51 628 51 551 51 551 L2 551 L2 489 L51 489 L51 0 L140 0 L140 489 L199 489 L199 551 L140 551 C140 551 140 625 140 672 C140 703 153 722 185 722 C215 722 234 695 227 616 L313 627 Z M313 0 L313 551 L222 551 L222 0 L313 0 Z " />
<glyph glyph-name="fl" unicode="&#xfb02;" horiz-adv-x="343" d="M313 0 L313 745 C275 766 228 776 176 776 C90 776 51 743 51 676 C51 628 51 551 51 551 L2 551 L2 489 L51 489 L51 0 L140 0 L140 489 L194 489 L194 551 L140 551 C140 551 140 626 140 672 C140 705 150 722 182 722 C206 722 218 708 224 698 L224 0 L313 0 Z " />
</font>
</svg>
