<?xml version="1.0" encoding="UTF-8"?>
<svg xmlns="http://www.w3.org/2000/svg" xmlns:xlink="http://www.w3.org/1999/xlink" version="1.2" >
<font id="BureauGrotesque-OneSeven">
<font-face  font-family="BureauGrotesque" units-per-em="1000" ascent="750" descent="-250" font-style="normal" font-weight="400" font-stretch="normal" cap-height="750" x-height="500" underline-position="-123" underline-thickness="20" />
<missing-glyph  horiz-adv-x="500" d="" />
<glyph glyph-name="NULL" d="M0 0 L0 0 L0 0 Z " />
<glyph glyph-name="CR" unicode="&#xd;" horiz-adv-x="250" d="" />
<glyph glyph-name="space" unicode="&#x20;" horiz-adv-x="245" d="" />
<glyph glyph-name="exclam" unicode="&#x21;" horiz-adv-x="242" d="M200 483 L200 768 L46 768 L46 483 L78 234 L168 234 L200 483 Z M197 0 L197 165 L48 165 L48 0 L197 0 Z " />
<glyph glyph-name="quotedbl" unicode="&#x22;" horiz-adv-x="353" d="M316 519 L316 768 L198 768 L198 519 L316 519 Z M158 519 L158 768 L41 768 L41 519 L158 519 Z " />
<glyph glyph-name="numbersign" unicode="&#x23;" horiz-adv-x="564" d="M564 551 L451 551 L482 768 L396 768 L362 551 L251 551 L284 768 L197 768 L164 551 L48 551 L31 433 L146 433 L131 336 L16 336 L0 217 L114 217 L82 0 L169 0 L202 217 L313 217 L280 0 L368 0 L400 217 L516 217 L533 336 L418 336 L432 433 L548 433 L564 551 Z M345 433 L330 336 L219 336 L234 433 L345 433 Z " />
<glyph glyph-name="dollar" unicode="&#x24;" horiz-adv-x="443" d="M429 241 C429 365 365 432 278 474 C197 513 177 529 177 580 C177 626 180 652 217 652 C250 652 257 633 257 562 C257 549 254 523 253 519 L386 527 C390 545 395 571 395 587 C395 691 341 729 267 739 L267 780 L179 780 L179 742 C92 732 26 684 26 554 C26 453 73 399 184 343 C253 308 275 270 275 208 C275 147 261 129 231 129 C199 129 184 151 184 229 C184 251 185 280 188 289 L51 278 C47 263 42 229 42 204 C42 82 103 38 179 31 L179 -33 L267 -33 L267 30 C375 45 429 96 429 241 L429 241 Z " />
<glyph glyph-name="percent" unicode="&#x25;" horiz-adv-x="701" d="M680 194 C680 378 627 423 531 423 C450 423 382 378 382 194 C382 27 442 -9 531 -9 C626 -9 680 27 680 194 L680 194 Z M656 760 L580 760 L46 0 L122 0 L656 760 Z M315 545 C315 729 261 774 166 774 C84 774 16 729 16 545 C16 378 76 342 166 342 C260 342 315 378 315 545 L315 545 Z M555 206 C555 76 554 65 530 65 C510 65 506 75 506 206 C506 336 509 349 530 349 C551 349 555 335 555 206 L555 206 Z M190 557 C190 427 188 416 164 416 C147 416 141 431 141 558 C141 688 141 700 164 700 C189 700 190 689 190 557 L190 557 Z " />
<glyph glyph-name="ampersand" unicode="&#x26;" horiz-adv-x="610" d="M598 122 C598 142 595 160 586 180 L521 170 C526 160 529 146 529 129 C529 106 516 98 498 98 C482 98 463 110 448 150 C476 196 499 260 513 308 C530 364 546 460 546 518 L452 518 C452 489 443 416 436 386 C430 358 410 300 400 275 L335 460 C393 505 451 571 451 642 C451 730 412 780 306 780 C197 780 154 716 154 618 C154 569 175 507 183 481 C96 422 24 329 24 214 C24 72 97 -10 219 -10 C274 -10 326 8 355 35 C379 4 400 -10 458 -10 C540 -10 598 35 598 122 L598 122 Z M344 642 C344 611 328 584 306 558 C297 584 288 611 288 637 C288 677 293 698 313 698 C334 698 344 684 344 642 L344 642 Z M309 123 C304 116 279 107 263 107 C214 107 177 142 177 220 C177 275 186 322 222 359 L309 123 Z " />
<glyph glyph-name="quotesingle" unicode="&#x27;" horiz-adv-x="199" d="M158 519 L158 768 L41 768 L41 519 L158 519 Z " />
<glyph glyph-name="parenleft" unicode="&#x28;" horiz-adv-x="313" d="M280 -141 C224 40 204 138 204 327 C204 511 224 637 276 782 L256 797 C147 707 58 538 57 328 C56 112 121 -39 263 -153 L280 -141 Z " />
<glyph glyph-name="parenright" unicode="&#x29;" horiz-adv-x="313" d="M256 329 C255 539 166 708 57 798 L37 783 C89 638 110 512 110 328 C110 139 89 41 33 -140 L51 -152 C192 -38 257 113 256 329 L256 329 Z " />
<glyph glyph-name="asterisk" unicode="&#x2a;" horiz-adv-x="421" d="M404 573 L288 599 L288 604 L402 632 L334 739 L254 659 L249 663 L282 767 L147 767 L178 662 L172 659 L88 737 L21 631 L138 603 L139 598 L20 572 L88 466 L174 544 L178 541 L147 436 L282 436 L249 541 L254 544 L337 467 L404 573 Z " />
<glyph glyph-name="plus" unicode="&#x2b;" horiz-adv-x="478" d="M450 307 L450 415 L305 415 L305 579 L170 579 L170 415 L30 415 L30 307 L170 307 L170 144 L305 144 L305 307 L450 307 Z " />
<glyph glyph-name="comma" unicode="&#x2c;" horiz-adv-x="238" d="M192 19 L192 165 L48 165 L48 0 L112 0 C115 -34 110 -50 99 -68 C87 -87 74 -97 61 -106 L81 -161 C94 -155 125 -134 148 -108 C175 -79 192 -44 192 19 L192 19 Z " />
<glyph glyph-name="hyphen" unicode="&#x2d;" horiz-adv-x="394" d="M368 285 L368 396 L25 396 L25 285 L368 285 Z " />
<glyph glyph-name="period" unicode="&#x2e;" horiz-adv-x="238" d="M190 0 L190 165 L49 165 L49 0 L190 0 Z " />
<glyph glyph-name="slash" unicode="&#x2f;" horiz-adv-x="375" d="M371 768 L295 768 L1 0 L78 0 L371 768 Z " />
<glyph glyph-name="zero" unicode="0" horiz-adv-x="428" d="M400 367 C400 711 354 774 214 774 C74 774 27 706 27 367 C27 42 75 -10 214 -10 C349 -10 400 42 400 367 L400 367 Z M245 383 C245 243 244 215 240 160 C236 109 231 93 214 93 C197 93 192 107 188 162 C184 216 182 245 182 385 C182 505 184 556 188 610 C192 666 195 680 214 680 C233 680 237 667 240 608 C243 553 245 504 245 383 L245 383 Z " />
<glyph glyph-name="one" unicode="1" horiz-adv-x="357" d="M293 0 L293 774 L209 774 C195 750 170 729 137 712 C106 696 73 686 16 680 L16 597 L135 597 L135 0 L293 0 Z " />
<glyph glyph-name="two" unicode="2" horiz-adv-x="438" d="M412 560 C412 704 351 774 224 774 C104 774 33 704 33 572 C33 534 48 463 56 433 L196 437 C189 480 182 525 182 557 C182 643 186 666 218 666 C246 666 254 651 254 561 C254 385 211 276 41 77 L41 0 L405 0 L405 134 C405 134 326 134 267 134 C249 134 220 131 208 129 C342 273 412 412 412 560 L412 560 Z " />
<glyph glyph-name="three" unicode="3" horiz-adv-x="430" d="M414 217 C414 345 360 414 285 419 C351 428 389 473 389 557 C389 709 342 774 205 774 C88 774 25 703 25 605 C25 567 32 548 35 535 L172 530 C169 545 164 571 164 597 C164 646 169 675 201 675 C232 675 238 656 238 571 C238 494 228 465 183 465 L113 465 L113 360 L183 360 C234 360 255 322 255 232 C255 130 247 98 208 98 C176 98 164 123 164 201 C164 233 170 269 175 286 L34 282 C26 252 23 222 23 172 C23 62 79 -10 203 -10 C332 -10 414 42 414 217 L414 217 Z " />
<glyph glyph-name="four" unicode="4" horiz-adv-x="456" d="M445 158 L445 266 L383 266 L383 768 L229 768 L24 307 L24 158 L235 158 L235 0 L383 0 L383 158 L445 158 Z M241 549 L238 266 L123 266 L241 549 Z " />
<glyph glyph-name="five" unicode="5" horiz-adv-x="445" d="M418 281 C418 474 348 557 252 557 C211 557 189 542 174 518 L183 658 L366 658 C371 675 373 694 374 712 C375 729 375 750 375 768 L59 768 L55 357 L180 354 C179 414 185 448 218 448 C249 448 263 415 263 281 C263 118 264 97 227 97 C196 97 187 112 187 195 C187 218 190 251 195 268 L56 259 C52 241 44 200 44 166 C44 48 106 -10 223 -10 C344 -10 418 55 418 281 L418 281 Z " />
<glyph glyph-name="six" unicode="6" horiz-adv-x="434" d="M414 255 C414 420 353 495 258 495 C216 495 193 479 174 447 C173 466 172 486 172 504 C172 648 181 682 220 682 C247 682 259 669 259 613 C259 583 253 558 251 551 L380 555 C385 577 388 600 388 628 C388 719 338 774 229 774 C100 774 27 714 27 387 C27 88 72 -10 220 -10 C342 -10 414 55 414 255 L414 255 Z M262 246 C262 104 250 89 221 89 C188 89 176 105 176 246 C176 378 182 404 220 404 C253 404 262 388 262 246 L262 246 Z " />
<glyph glyph-name="seven" unicode="7" horiz-adv-x="379" d="M376 676 L376 768 L0 768 C-1 752 -2 740 -2 719 C-2 698 -1 657 5 637 L234 637 C147 494 76 288 76 78 C76 48 80 19 82 0 L259 0 C252 43 247 100 247 164 C247 368 284 513 376 676 L376 676 Z " />
<glyph glyph-name="eight" unicode="8" horiz-adv-x="436" d="M412 214 C412 348 381 405 322 425 C368 447 397 483 397 569 C397 707 340 774 218 774 C95 774 38 709 38 569 C38 486 58 444 113 425 C54 402 23 336 23 214 C23 54 86 -10 218 -10 C354 -10 412 54 412 214 L412 214 Z M251 579 C251 483 243 469 218 469 C191 469 185 481 185 579 C185 670 186 684 218 684 C245 684 251 666 251 579 L251 579 Z M261 227 C261 96 249 84 217 84 C186 84 175 99 175 227 C175 353 186 377 218 377 C250 377 261 356 261 227 L261 227 Z " />
<glyph glyph-name="nine" unicode="9" horiz-adv-x="434" d="M407 377 C407 661 362 774 214 774 C92 774 20 709 20 509 C20 344 74 265 176 265 C219 265 248 285 260 317 C261 301 262 284 262 260 C262 100 251 82 214 82 C186 82 176 88 176 151 C176 185 182 207 184 213 L60 209 C52 184 51 164 51 136 C51 41 96 -10 205 -10 C343 -10 407 50 407 377 L407 377 Z M258 518 C258 386 252 354 214 354 C181 354 173 376 173 518 C173 657 183 679 211 679 C249 679 258 656 258 518 L258 518 Z " />
<glyph glyph-name="colon" unicode="&#x3a;" horiz-adv-x="232" d="M183 373 L183 538 L49 538 L49 373 L183 373 Z M183 0 L183 165 L49 165 L49 0 L183 0 Z " />
<glyph glyph-name="semicolon" unicode="&#x3b;" horiz-adv-x="238" d="M182 373 L182 538 L49 538 L49 373 L182 373 Z M182 19 L182 165 L49 165 L49 0 L105 0 C107 -34 102 -50 91 -68 C79 -87 67 -97 53 -106 L73 -161 C86 -155 117 -134 140 -108 C167 -79 182 -44 182 19 L182 19 Z " />
<glyph glyph-name="less" unicode="&#x3c;" horiz-adv-x="346" d="M305 116 L305 255 L143 362 L305 469 L305 608 L25 406 L25 318 L305 116 Z " />
<glyph glyph-name="equal" unicode="&#x3d;" horiz-adv-x="461" d="M431 419 L431 529 L30 529 L30 419 L431 419 Z M431 215 L431 325 L30 325 L30 215 L431 215 Z " />
<glyph glyph-name="greater" unicode="&#x3e;" horiz-adv-x="346" d="M319 318 L319 406 L40 608 L40 469 L202 362 L40 255 L40 116 L319 318 Z " />
<glyph glyph-name="question" unicode="&#x3f;" horiz-adv-x="399" d="M377 519 C377 727 298 780 192 780 C70 780 21 720 21 635 C21 601 26 575 33 558 L163 556 C159 570 155 594 155 617 C155 661 161 680 186 680 C223 680 228 658 228 523 C228 442 220 423 200 423 C172 423 168 439 162 501 L62 501 L62 233 L165 233 L165 352 C179 332 208 315 246 315 C317 315 377 343 377 519 L377 519 Z M184 0 L184 165 L49 165 L49 0 L184 0 Z " />
<glyph glyph-name="at" unicode="&#x40;" horiz-adv-x="873" d="M827 421 C827 657 661 780 454 780 C191 780 35 603 35 350 C35 94 184 -68 439 -68 C552 -68 635 -21 687 24 L656 69 C609 21 525 -14 443 -14 C236 -14 99 127 99 349 C99 566 238 735 445 735 C618 735 769 635 769 420 C769 263 689 212 640 212 C621 212 614 226 614 241 C614 246 616 255 618 266 C625 304 631 333 640 386 C643 406 647 440 647 465 C647 545 596 603 476 603 C311 603 257 539 269 426 L421 447 C416 481 428 510 454 510 C487 510 492 488 488 458 L483 423 C355 412 236 382 236 234 C236 157 291 125 355 125 C445 125 471 160 491 188 C496 155 529 130 608 130 C715 130 827 239 827 421 L827 421 Z M471 342 C469 321 465 300 463 287 C456 247 442 228 415 228 C389 228 380 240 383 270 C388 333 416 343 451 343 C457 343 466 342 471 342 L471 342 Z " />
<glyph glyph-name="A" unicode="A" horiz-adv-x="423" d="M416 0 L274 769 L129 769 L9 0 L146 0 L162 124 L236 124 L252 0 L416 0 Z M224 209 L173 209 C173 209 183 299 188 357 C191 392 194 459 196 535 C200 461 202 395 206 359 C213 301 224 209 224 209 L224 209 Z " />
<glyph glyph-name="B" unicode="B" horiz-adv-x="458" d="M439 217 C439 342 383 409 310 409 C377 412 415 463 415 557 C415 688 376 768 230 768 L40 768 L40 0 L229 0 C361 0 439 58 439 217 L439 217 Z M262 555 C262 479 249 459 223 459 L194 459 L194 666 L212 666 C247 666 262 645 262 555 L262 555 Z M273 232 C273 115 261 105 224 105 L194 105 L194 359 L222 359 C255 359 273 324 273 232 L273 232 Z " />
<glyph glyph-name="C" unicode="C" horiz-adv-x="427" d="M406 215 C406 263 404 295 399 339 L251 341 C256 310 258 273 258 240 C258 126 258 98 230 98 C200 98 196 112 196 376 C196 657 201 674 226 674 C252 674 252 654 252 586 C252 548 247 503 245 462 L389 466 C394 495 397 554 397 586 C397 709 352 780 223 780 C69 780 27 684 27 340 C27 30 86 -16 225 -16 C349 -16 406 66 406 215 L406 215 Z " />
<glyph glyph-name="D" unicode="D" horiz-adv-x="463" d="M436 345 C436 686 370 768 207 768 L40 768 L40 0 L235 0 C379 0 436 55 436 345 L436 345 Z M269 331 C269 123 259 120 211 120 L196 120 L196 648 L210 648 C260 648 269 628 269 331 L269 331 Z " />
<glyph glyph-name="E" unicode="E" horiz-adv-x="379" d="M372 0 L372 125 L198 125 L198 331 L330 331 L330 451 L198 451 L198 648 L349 648 L349 768 L40 768 L40 0 L372 0 Z " />
<glyph glyph-name="F" unicode="F" horiz-adv-x="353" d="M341 648 L341 768 L40 768 L40 0 L198 0 L198 322 L321 322 L321 443 L198 443 L198 648 L341 648 Z " />
<glyph glyph-name="G" unicode="G" horiz-adv-x="458" d="M416 -6 L416 415 L230 415 L230 306 L272 306 C275 283 276 247 276 210 C276 122 270 94 234 94 C203 94 192 105 192 363 C192 644 197 675 229 675 C252 675 259 658 259 589 C259 557 253 516 246 485 L393 490 C400 510 407 552 407 579 C407 722 359 780 235 780 C85 780 27 708 27 356 C27 32 92 -14 223 -14 C278 -14 308 11 326 50 L359 -6 L416 -6 Z " />
<glyph glyph-name="H" unicode="H" horiz-adv-x="458" d="M418 0 L418 768 L260 768 L260 484 L198 484 L198 768 L40 768 L40 0 L198 0 L198 351 L260 351 L260 0 L418 0 Z " />
<glyph glyph-name="I" unicode="I" horiz-adv-x="240" d="M200 0 L200 768 L40 768 L40 0 L200 0 Z " />
<glyph glyph-name="J" unicode="J" horiz-adv-x="432" d="M393 216 L393 768 L234 768 L234 167 C234 111 228 96 202 96 C180 96 166 109 166 167 C166 207 173 259 183 295 L27 292 C19 259 11 209 11 179 C11 41 69 -16 205 -16 C356 -16 393 41 393 216 L393 216 Z " />
<glyph glyph-name="K" unicode="K" horiz-adv-x="497" d="M498 0 L313 415 L483 768 L319 768 L198 508 L198 768 L40 768 L40 0 L198 0 L198 284 L315 0 L498 0 Z " />
<glyph glyph-name="L" unicode="L" horiz-adv-x="384" d="M373 0 L373 125 L198 125 L198 768 L40 768 L40 0 L373 0 Z " />
<glyph glyph-name="M" unicode="M" horiz-adv-x="576" d="M537 0 L537 768 L354 768 C346 716 325 597 305 484 C296 431 288 336 288 336 C288 336 282 430 272 485 C251 597 227 714 217 768 L40 768 L40 0 L176 0 C176 0 176 221 176 269 C176 374 171 542 171 542 C171 542 192 346 210 207 C220 127 234 0 234 0 L342 0 C342 0 355 127 364 207 C379 345 399 542 399 542 C399 542 395 361 395 267 C395 219 395 0 395 0 L537 0 Z " />
<glyph glyph-name="N" unicode="N" horiz-adv-x="460" d="M420 0 L420 768 L278 768 C278 768 278 677 278 618 C278 541 279 467 283 392 C277 426 273 446 258 495 C244 543 178 768 178 768 L40 768 L40 0 L182 0 C182 0 182 137 182 196 C182 286 181 304 175 407 C186 350 190 330 205 284 C223 227 296 0 296 0 L420 0 Z " />
<glyph glyph-name="O" unicode="O" horiz-adv-x="460" d="M433 383 C433 715 369 780 225 780 C81 780 27 720 27 383 C27 40 96 -16 225 -16 C363 -16 433 52 433 383 L433 383 Z M266 383 C266 243 265 222 260 167 C255 115 248 102 230 102 C212 102 200 115 197 167 C194 221 194 243 194 383 C194 503 195 557 197 612 C199 664 208 679 228 679 C246 679 256 664 260 612 C264 557 266 504 266 383 L266 383 Z " />
<glyph glyph-name="P" unicode="P" horiz-adv-x="450" d="M433 536 C433 698 372 768 245 768 L40 768 L40 0 L198 0 L198 289 L258 289 C377 289 433 352 433 536 L433 536 Z M271 534 C271 436 263 407 218 407 L198 407 L198 650 L214 650 C244 650 271 639 271 534 L271 534 Z " />
<glyph glyph-name="Q" unicode="Q" horiz-adv-x="460" d="M433 383 C433 710 379 780 225 780 C76 780 27 712 27 383 C27 57 88 15 165 -10 C160 -29 157 -47 157 -60 C157 -143 229 -159 280 -159 C353 -159 403 -132 403 -74 C403 -60 402 -49 399 -38 L317 -36 C319 -46 320 -54 320 -61 C320 -83 309 -88 292 -88 C277 -88 264 -80 264 -45 C264 -36 266 -23 268 -14 C367 2 433 63 433 383 L433 383 Z M266 383 C266 243 265 218 260 163 C255 111 248 98 230 98 C212 98 200 111 197 163 C194 217 194 243 194 383 C194 503 195 557 197 612 C199 664 208 679 228 679 C246 679 256 664 260 612 C264 557 266 504 266 383 L266 383 Z " />
<glyph glyph-name="R" unicode="R" horiz-adv-x="466" d="M456 0 C436 29 424 122 423 192 C422 313 406 388 314 394 C411 406 437 452 437 573 C437 712 366 768 260 768 L40 768 L40 0 L196 0 L196 338 L207 338 C251 338 263 304 263 234 C263 196 263 170 263 140 C263 85 269 28 280 0 L456 0 Z M279 543 C279 471 267 450 228 450 L196 450 L196 656 L210 656 C256 656 279 655 279 543 L279 543 Z " />
<glyph glyph-name="S" unicode="S" horiz-adv-x="443" d="M426 201 C426 339 392 413 300 461 L254 485 C211 507 182 525 182 611 C182 652 189 682 216 682 C244 682 253 665 253 600 C253 577 250 544 247 524 L384 536 C389 561 393 581 393 608 C393 721 331 780 213 780 C93 780 29 712 29 581 C29 491 57 406 136 365 L174 345 C242 309 265 286 265 178 C265 101 255 92 230 92 C204 92 188 103 188 189 C188 222 191 254 195 284 L54 279 C49 251 42 214 42 183 C42 33 113 -16 229 -16 C367 -16 426 60 426 201 L426 201 Z " />
<glyph glyph-name="T" unicode="T" horiz-adv-x="419" d="M410 648 L410 768 L9 768 L9 648 L129 648 L129 0 L289 0 L289 648 L410 648 Z " />
<glyph glyph-name="U" unicode="U" horiz-adv-x="454" d="M414 149 L414 768 L266 768 L266 163 C266 117 262 100 232 100 C204 100 198 119 198 163 L198 768 L40 768 L40 149 C40 39 106 -16 232 -16 C379 -16 414 48 414 149 L414 149 Z " />
<glyph glyph-name="V" unicode="V" horiz-adv-x="441" d="M431 768 L293 768 C282 692 255 549 236 409 C231 374 230 306 230 306 C230 306 230 371 224 409 C203 548 183 692 171 768 L10 768 L153 -5 L286 -5 L431 768 Z " />
<glyph glyph-name="W" unicode="W" horiz-adv-x="595" d="M583 768 L450 768 C450 768 431 606 418 502 C408 419 410 317 410 317 C410 317 408 418 397 502 C384 605 375 676 362 768 L238 768 C229 701 213 605 198 503 C190 451 190 317 190 317 C190 317 188 450 183 502 C174 606 158 768 158 768 L12 768 L110 0 L245 0 C245 0 265 138 277 225 C289 312 296 385 296 385 C296 385 306 312 316 225 C327 137 344 0 344 0 L470 0 L583 768 Z " />
<glyph glyph-name="X" unicode="X" horiz-adv-x="426" d="M433 0 L304 412 L418 768 L278 768 L227 596 L179 768 L15 768 L128 391 L3 0 L150 0 L207 202 L264 0 L433 0 Z " />
<glyph glyph-name="Y" unicode="Y" horiz-adv-x="434" d="M432 768 L288 768 L225 504 L156 768 L-7 768 L137 298 L137 0 L295 0 L295 298 L432 768 Z " />
<glyph glyph-name="Z" unicode="Z" horiz-adv-x="408" d="M384 0 L384 125 L191 125 L384 674 L384 768 L40 768 L40 648 L216 648 L13 92 L13 0 L384 0 Z " />
<glyph glyph-name="bracketleft" unicode="&#x5b;" horiz-adv-x="308" d="M280 -158 L280 -70 L200 -70 L200 680 L280 680 L280 768 L57 768 L57 -158 L280 -158 Z " />
<glyph glyph-name="backslash" unicode="&#x5c;" horiz-adv-x="375" d="M371 0 L78 768 L1 768 L295 0 L371 0 Z " />
<glyph glyph-name="bracketright" unicode="&#x5d;" horiz-adv-x="308" d="M250 -158 L250 768 L27 768 L27 680 L107 680 L107 -70 L27 -70 L27 -158 L250 -158 Z " />
<glyph glyph-name="asciicircum" unicode="&#x5e;" horiz-adv-x="377" d="M330 599 L246 768 L135 768 L51 599 L139 599 L191 655 L242 599 L330 599 Z " />
<glyph glyph-name="underscore" unicode="&#x5f;" horiz-adv-x="505" d="M505 -200 L505 -105 L0 -105 L0 -200 L505 -200 Z " />
<glyph glyph-name="grave" unicode="&#x60;" horiz-adv-x="381" d="M276 584 L234 708 L105 708 L202 584 L276 584 Z " />
<glyph glyph-name="a" unicode="a" horiz-adv-x="383" d="M377 94 C370 91 363 90 355 90 C340 90 335 101 335 119 L335 427 C335 527 283 556 181 556 C80 556 32 514 32 435 C32 399 41 382 45 367 L161 377 C158 393 156 413 156 428 C156 452 161 467 180 467 C200 467 206 454 206 417 C206 349 203 334 171 325 L138 316 C66 296 19 264 19 154 C19 10 95 -10 154 -10 C190 -10 206 -2 225 29 C230 2 263 -10 304 -10 C331 -10 357 -7 371 -1 L377 94 Z M206 128 C206 93 199 84 184 84 C172 84 162 91 162 146 C162 218 172 235 206 247 L206 128 Z " />
<glyph glyph-name="b" unicode="b" horiz-adv-x="384" d="M361 271 C361 508 299 556 234 556 C199 556 177 535 168 510 C168 533 168 768 168 768 L32 768 L32 -1 L98 -1 L114 43 C137 5 163 -10 205 -10 C304 -10 361 33 361 271 L361 271 Z M218 272 C218 97 215 82 192 82 C166 82 162 105 162 271 C162 412 172 456 192 456 C215 456 218 444 218 272 L218 272 Z " />
<glyph glyph-name="c" unicode="c" horiz-adv-x="356" d="M340 158 C340 190 334 226 330 245 L205 248 C207 219 209 184 209 168 C209 90 200 77 188 77 C160 77 161 87 160 270 C159 457 163 473 183 473 C198 473 202 461 202 396 C202 370 199 347 196 332 L322 334 C325 350 328 377 328 396 C328 512 282 556 183 556 C88 556 19 523 19 281 C19 48 59 -10 186 -10 C298 -10 340 32 340 158 L340 158 Z " />
<glyph glyph-name="d" unicode="d" horiz-adv-x="379" d="M352 0 L352 768 L215 768 L215 524 C200 546 186 556 160 556 C82 556 23 496 23 259 C23 39 72 -6 156 -6 C195 -6 209 10 222 44 L222 0 L352 0 Z M215 271 C215 91 209 80 187 80 C167 80 164 97 164 272 C164 448 167 470 191 470 C211 470 215 430 215 271 L215 271 Z " />
<glyph glyph-name="e" unicode="e" horiz-adv-x="352" d="M333 330 C333 491 292 556 182 556 C70 556 19 490 19 249 C19 28 70 -10 190 -10 C285 -10 331 32 331 138 C331 154 328 195 325 208 L205 210 C207 194 210 165 210 151 C210 81 206 74 189 74 C168 74 161 85 159 199 C159 219 159 249 159 249 L325 249 C327 262 333 316 333 330 L333 330 Z M205 399 C205 383 203 340 202 327 L157 327 C157 327 157 359 157 384 C157 471 164 487 182 487 C204 487 205 462 205 399 L205 399 Z " />
<glyph glyph-name="f" unicode="f" horiz-adv-x="274" d="M346 666 C346 739 291 776 212 776 C125 776 61 732 61 665 L61 547 L2 547 L2 469 L61 469 L61 0 L201 0 L201 469 L269 469 L269 547 L201 547 L201 655 C201 680 205 690 221 690 C240 690 243 674 243 639 C243 626 239 604 235 587 L335 599 C341 620 346 641 346 666 L346 666 Z " />
<glyph glyph-name="g" unicode="g" horiz-adv-x="395" d="M420 603 L301 603 L288 535 C269 552 238 556 205 556 C99 556 34 482 34 366 C34 296 54 230 95 209 C52 193 19 159 19 109 C19 69 37 32 83 26 C33 14 1 -11 1 -63 C1 -167 61 -200 209 -200 C337 -200 400 -145 400 -29 C400 67 352 145 257 140 L187 136 C143 133 133 141 133 159 C133 171 142 178 154 185 C169 182 198 178 213 178 C316 178 371 237 371 366 C371 428 360 462 341 486 L420 603 Z M233 366 C233 275 228 258 201 258 C176 258 169 278 169 366 C169 452 174 477 201 477 C232 477 233 453 233 366 L233 366 Z M270 -47 C270 -99 242 -118 193 -118 C136 -118 108 -97 108 -45 C108 -15 116 -2 141 18 L194 21 C252 24 270 -9 270 -47 L270 -47 Z " />
<glyph glyph-name="h" unicode="h" horiz-adv-x="385" d="M356 0 L356 455 C356 510 329 556 251 556 C210 556 181 531 166 508 L166 768 L32 768 L32 0 L170 0 L170 406 C170 439 184 451 197 451 C209 451 219 444 219 424 L219 0 L356 0 Z " />
<glyph glyph-name="i" unicode="i" horiz-adv-x="205" d="M173 609 L173 738 L32 738 L32 609 L173 609 Z M173 0 L173 547 L32 547 L32 0 L173 0 Z " />
<glyph glyph-name="j" unicode="j" horiz-adv-x="216" d="M187 609 L187 738 L46 738 L46 609 L187 609 Z M186 -67 L186 547 L46 547 L46 -43 C46 -69 44 -90 21 -90 C4 -90 -1 -81 -1 -63 C-1 -46 2 -28 4 -17 L-104 -24 C-108 -37 -111 -55 -111 -71 C-111 -144 -68 -181 40 -181 C134 -181 186 -134 186 -67 L186 -67 Z " />
<glyph glyph-name="k" unicode="k" horiz-adv-x="402" d="M408 0 L255 311 L387 547 L240 547 L171 410 L171 768 L32 768 L32 0 L171 0 L171 197 L250 0 L408 0 Z " />
<glyph glyph-name="l" unicode="l" horiz-adv-x="204" d="M172 0 L172 768 L32 768 L32 0 L172 0 Z " />
<glyph glyph-name="m" unicode="m" horiz-adv-x="566" d="M534 0 L534 455 C534 510 511 556 433 556 C392 556 360 527 345 504 C345 504 330 556 251 556 C210 556 181 531 166 508 L166 547 L32 547 L32 0 L170 0 L170 409 C170 442 182 454 195 454 C205 454 215 448 215 427 L215 0 L352 0 L352 409 C352 442 364 454 377 454 C387 454 397 448 397 427 L397 0 L534 0 Z " />
<glyph glyph-name="n" unicode="n" horiz-adv-x="385" d="M356 0 L356 455 C356 510 329 556 251 556 C210 556 181 531 166 508 L166 547 L32 547 L32 0 L170 0 L170 406 C170 439 184 451 197 451 C209 451 219 444 219 424 L219 0 L356 0 Z " />
<glyph glyph-name="o" unicode="o" horiz-adv-x="372" d="M353 266 C353 472 311 556 186 556 C56 556 19 478 19 266 C19 48 67 -10 186 -10 C315 -10 353 48 353 266 L353 266 Z M210 266 C210 82 204 73 186 73 C163 73 162 82 162 266 C162 456 168 467 186 467 C206 467 210 455 210 266 L210 266 Z " />
<glyph glyph-name="p" unicode="p" horiz-adv-x="384" d="M361 271 C361 508 299 556 234 556 C192 556 166 522 158 496 C158 519 155 547 155 547 L32 547 L32 -176 L171 -176 L171 25 C177 0 206 -10 223 -10 C313 -10 361 33 361 271 L361 271 Z M218 272 C218 103 217 74 192 74 C168 74 165 87 165 271 C165 440 172 459 192 459 C213 459 218 445 218 272 L218 272 Z " />
<glyph glyph-name="q" unicode="q" horiz-adv-x="380" d="M348 -176 L348 551 L309 551 L271 503 C253 530 226 556 178 556 C73 556 19 496 19 259 C19 39 70 -10 154 -10 C185 -10 195 -2 211 20 L211 -176 L348 -176 Z M214 271 C214 90 211 76 188 76 C166 76 160 87 160 272 C160 456 162 474 188 474 C210 474 214 462 214 271 L214 271 Z " />
<glyph glyph-name="r" unicode="r" horiz-adv-x="347" d="M342 427 C342 519 313 556 248 556 C208 556 180 537 168 494 L168 547 L32 547 L32 0 L171 0 L171 360 C171 429 177 448 197 448 C213 448 221 430 221 393 C221 364 216 330 212 305 L324 309 C334 342 342 386 342 427 L342 427 Z " />
<glyph glyph-name="s" unicode="s" horiz-adv-x="361" d="M344 155 C344 250 309 308 239 338 L200 355 C155 375 153 390 153 429 C153 456 163 471 180 471 C198 471 205 459 205 422 C205 408 203 386 202 379 L324 387 C326 397 326 406 326 425 C326 518 269 556 175 556 C90 556 19 507 19 407 C19 319 40 278 90 254 L125 237 C180 210 199 190 199 133 C199 95 194 77 170 77 C146 77 142 97 142 135 C142 149 145 168 149 188 L28 180 C24 158 22 145 22 122 C22 33 82 -10 175 -10 C288 -10 344 43 344 155 L344 155 Z " />
<glyph glyph-name="t" unicode="t" horiz-adv-x="289" d="M276 15 L276 90 C260 85 239 82 222 82 C198 82 191 96 191 124 L191 469 L268 469 L268 547 L191 547 L191 714 L55 714 L53 547 L-5 547 L-5 469 L52 469 L49 94 C48 15 88 -10 170 -10 C217 -10 261 2 276 15 L276 15 Z " />
<glyph glyph-name="u" unicode="u" horiz-adv-x="386" d="M358 2 C357 6 355 19 355 27 C355 230 355 547 355 547 L217 547 L217 143 C217 110 203 98 190 98 C178 98 168 105 168 125 L168 547 L31 547 L31 92 C31 37 58 -9 136 -9 C177 -9 206 16 221 39 L226 -4 L358 2 Z " />
<glyph glyph-name="v" unicode="v" horiz-adv-x="346" d="M345 547 L218 547 C218 547 197 396 185 300 C180 258 180 213 180 213 C180 213 179 258 174 299 C162 395 144 547 144 547 L1 547 L103 0 L238 0 L345 547 Z " />
<glyph glyph-name="w" unicode="w" horiz-adv-x="493" d="M492 547 L367 547 C367 547 349 414 336 330 C332 301 329 226 329 226 C329 226 326 301 323 330 C313 414 300 547 300 547 L196 547 C196 547 178 416 166 330 C163 304 159 226 159 226 C159 226 156 304 153 330 C143 416 129 547 129 547 L-3 547 L98 0 L205 0 C205 0 229 144 240 235 C244 263 245 309 245 309 C245 309 247 263 251 235 C262 145 281 0 281 0 L389 0 L492 547 Z " />
<glyph glyph-name="x" unicode="x" horiz-adv-x="354" d="M362 0 L243 288 L345 547 L216 547 L179 443 L149 547 L3 547 L106 293 L-8 0 L117 0 L166 144 L215 0 L362 0 Z " />
<glyph glyph-name="y" unicode="y" horiz-adv-x="379" d="M376 547 L250 547 L207 223 L132 547 L-8 547 L153 -10 C145 -51 141 -75 118 -75 C99 -75 91 -67 91 -53 C91 -42 93 -32 95 -24 L-19 -33 C-20 -46 -21 -61 -21 -74 C-21 -145 31 -176 115 -176 C205 -176 242 -133 268 0 L376 547 Z " />
<glyph glyph-name="z" unicode="z" horiz-adv-x="316" d="M305 457 L305 547 L30 547 L30 463 L170 463 L12 75 L12 0 L302 0 L302 89 L153 89 L305 457 Z " />
<glyph glyph-name="braceleft" unicode="&#x7b;" horiz-adv-x="308" d="M289 674 L289 768 L207 768 C139 768 90 744 90 674 C90 603 90 469 90 400 C90 365 73 348 27 348 L27 256 C73 256 90 239 90 204 C90 135 90 -11 90 -82 C90 -152 138 -176 206 -176 L288 -176 L288 -82 L250 -82 C227 -82 216 -78 216 -54 C216 26 216 156 216 248 C216 286 203 302 166 302 C203 302 216 317 216 356 C216 448 216 565 216 645 C216 669 228 674 252 674 L289 674 Z " />
<glyph glyph-name="bar" unicode="&#x7c;" horiz-adv-x="209" d="M147 -200 L147 798 L55 798 L55 -200 L147 -200 Z " />
<glyph glyph-name="braceright" unicode="&#x7d;" horiz-adv-x="308" d="M281 256 L281 348 C235 348 218 365 218 400 C218 469 218 603 218 674 C218 744 169 768 101 768 L19 768 L19 674 L56 674 C80 674 92 669 92 645 C92 565 92 448 92 356 C92 317 105 302 142 302 C105 302 92 286 92 248 C92 156 92 26 92 -54 C92 -78 81 -82 58 -82 L20 -82 L20 -176 L102 -176 C170 -176 218 -152 218 -82 C218 -11 218 135 218 204 C218 239 235 256 281 256 L281 256 Z " />
<glyph glyph-name="asciitilde" unicode="&#x7e;" horiz-adv-x="283" d="M272 719 C272 745 263 768 263 768 L225 768 C225 759 229 722 202 722 C192 722 186 726 178 733 C169 741 163 747 153 755 C133 771 115 779 84 779 C31 779 16 737 16 701 C16 675 25 656 25 656 L63 656 C63 666 57 699 86 699 C96 699 103 693 112 685 C120 678 133 667 139 662 C151 652 167 641 194 641 C250 641 272 682 272 719 L272 719 Z " />
<glyph glyph-name="nbspace" unicode="&#xa0;" horiz-adv-x="122" d="" />
<glyph glyph-name="exclamdown" unicode="&#xa1;" horiz-adv-x="242" d="M199 603 L199 768 L50 768 L50 603 L199 603 Z M202 0 L202 285 L170 534 L80 534 L48 285 L48 0 L202 0 Z " />
<glyph glyph-name="cent" unicode="&#xa2;" horiz-adv-x="363" d="M344 301 C344 333 338 369 334 388 L209 391 C211 362 213 327 213 311 C213 233 204 220 192 220 C164 220 164 230 164 413 C164 600 167 616 187 616 C202 616 206 604 206 539 C206 511 203 490 200 475 L326 477 C329 494 332 520 332 539 C332 643 295 689 216 697 L216 768 L161 768 L161 698 C79 691 23 643 23 424 C23 210 57 144 161 134 L161 62 L216 62 L216 134 C308 140 344 185 344 301 L344 301 Z " />
<glyph glyph-name="sterling" unicode="&#xa3;" horiz-adv-x="539" d="M530 140 C530 180 527 200 511 237 L411 246 C417 224 418 205 418 178 C418 145 411 105 371 105 C336 105 318 115 292 129 C307 156 321 195 321 261 C321 282 320 291 317 309 L450 309 L450 399 L303 399 C291 465 279 510 279 580 C279 624 296 652 330 652 C360 652 371 630 371 567 C371 533 367 506 359 477 L495 490 C506 521 509 544 509 577 C509 696 437 774 313 774 C180 774 128 688 128 555 C128 495 136 457 151 399 L45 399 L45 309 L176 309 C184 286 191 260 191 228 C191 209 189 182 184 166 C171 172 151 180 120 180 C43 180 2 142 2 82 C2 25 38 -10 122 -10 C186 -10 220 17 239 51 C290 13 325 -10 394 -10 C494 -10 530 54 530 140 L530 140 Z M155 92 C145 75 135 65 124 65 C107 65 99 74 99 84 C99 96 108 103 123 103 C139 103 149 97 155 92 L155 92 Z " />
<glyph glyph-name="currency" unicode="&#xa4;" horiz-adv-x="332" d="M298 371 C298 590 239 767 166 767 C94 767 34 590 34 371 C34 155 94 -22 166 -22 C239 -22 298 155 298 371 L298 371 Z M279 314 L208 290 L191 23 L155 251 L67 203 L121 379 L75 551 L155 506 L212 674 L215 435 L279 314 Z " />
<glyph glyph-name="yen" unicode="&#xa5;" horiz-adv-x="434" d="M432 768 L288 768 L225 504 L156 768 L-7 768 L81 481 L0 481 L0 391 L109 391 L137 299 L0 299 L0 209 L137 209 L137 0 L295 0 L295 209 L423 209 L423 299 L295 299 L322 391 L423 391 L423 481 L348 481 L432 768 Z " />
<glyph glyph-name="brokenbar" unicode="&#xa6;" horiz-adv-x="332" d="M298 371 C298 590 239 767 166 767 C94 767 34 590 34 371 C34 155 94 -22 166 -22 C239 -22 298 155 298 371 L298 371 Z M279 314 L208 290 L191 23 L155 251 L67 203 L121 379 L75 551 L155 506 L212 674 L215 435 L279 314 Z " />
<glyph glyph-name="section" unicode="&#xa7;" horiz-adv-x="380" d="M360 378 C360 473 319 525 249 556 L210 573 C165 593 159 609 159 651 C159 678 171 693 190 693 C208 693 219 681 219 644 C219 630 217 605 216 597 L334 605 C335 610 336 617 336 631 C336 730 282 774 185 774 C92 774 29 713 29 625 C29 552 50 503 106 475 C62 455 20 409 20 341 C20 259 48 225 98 201 L133 184 C188 157 210 131 210 74 C210 36 202 18 178 18 C154 18 148 38 148 76 C148 90 151 112 155 132 L36 124 C32 102 30 89 30 66 C30 -23 90 -66 183 -66 C296 -66 352 -13 352 99 C352 169 327 214 290 244 C326 266 360 309 360 378 L360 378 Z M240 351 C240 326 228 305 213 291 C203 296 182 308 170 316 C147 331 142 348 142 372 C142 399 157 418 180 431 C192 423 208 413 219 401 C231 388 240 371 240 351 L240 351 Z " />
<glyph glyph-name="dieresis" unicode="&#xa8;" horiz-adv-x="381" d="M330 590 L330 702 L231 702 L231 590 L330 590 Z M148 590 L148 702 L49 702 L49 590 L148 590 Z " />
<glyph glyph-name="copyright" unicode="&#xa9;" horiz-adv-x="592" d="M567 497 C567 657 452 770 293 770 C143 770 19 657 19 497 C19 342 128 223 293 223 C443 223 567 332 567 497 L567 497 Z M536 497 C536 362 428 252 293 252 C158 252 55 362 55 497 C55 632 158 741 293 741 C428 741 536 632 536 497 L536 497 Z M416 418 C416 440 411 467 409 478 L315 480 C319 461 321 435 321 424 C321 372 319 356 298 356 C267 356 264 370 264 500 C264 631 265 644 293 644 C307 644 312 633 312 583 C312 571 310 552 308 544 L400 545 C403 553 407 573 407 589 C407 670 368 701 293 701 C203 701 160 661 160 507 C160 344 196 299 295 299 C380 299 416 333 416 418 L416 418 Z " />
<glyph glyph-name="ordfeminine" unicode="&#xaa;" horiz-adv-x="477" d="M412 385 L412 439 C406 437 393 435 385 435 C371 435 360 444 360 458 C360 526 360 616 360 692 C360 734 333 780 232 780 C136 780 86 750 86 691 C86 665 91 655 99 647 L198 650 C194 658 192 674 192 685 C192 715 198 726 222 726 C243 726 250 715 250 676 C250 644 239 622 208 614 L176 606 C104 588 67 541 67 490 C67 388 135 374 192 374 C227 374 259 387 273 407 C280 387 301 374 343 374 C368 374 400 381 412 385 L412 385 Z M413 288 L413 344 L71 344 L71 288 L413 288 Z M250 484 C250 447 247 430 220 430 C195 430 187 445 187 498 C187 533 197 550 250 568 L250 484 Z " />
<glyph glyph-name="guillemotleft" unicode="&#xab;" horiz-adv-x="474" d="M434 35 L434 176 L350 265 L434 353 L434 494 L250 330 L250 201 L434 35 Z M231 35 L231 176 L148 265 L231 353 L231 494 L47 330 L47 201 L231 35 Z " />
<glyph glyph-name="logicalnot" unicode="&#xac;" horiz-adv-x="332" d="M298 371 C298 590 239 767 166 767 C94 767 34 590 34 371 C34 155 94 -22 166 -22 C239 -22 298 155 298 371 L298 371 Z M279 314 L208 290 L191 23 L155 251 L67 203 L121 379 L75 551 L155 506 L212 674 L215 435 L279 314 Z " />
<glyph glyph-name="registered" unicode="&#xae;" horiz-adv-x="592" d="M567 497 C567 657 453 770 293 770 C143 770 19 658 19 497 C19 336 133 223 293 223 C451 223 567 339 567 497 L567 497 Z M536 497 C536 362 428 252 293 252 C158 252 55 362 55 497 C55 632 158 741 293 741 C428 741 536 632 536 497 L536 497 Z M413 583 C413 662 390 704 319 704 L192 704 L192 302 L272 302 L272 458 L293 458 C310 458 315 443 315 417 C315 396 315 403 315 351 C315 325 320 307 323 302 L409 302 C407 309 403 330 403 347 C400 452 387 489 330 494 C389 498 413 519 413 583 L413 583 Z M326 588 C326 532 311 522 293 522 L272 522 L272 648 L292 648 C312 648 326 641 326 588 L326 588 Z " />
<glyph glyph-name="macron" unicode="&#xaf;" horiz-adv-x="381" d="M319 601 L319 666 L58 666 L58 601 L319 601 Z " />
<glyph glyph-name="degree" unicode="&#xb0;" horiz-adv-x="358" d="M308 629 C308 700 250 758 179 758 C108 758 50 700 50 629 C50 558 108 500 179 500 C250 500 308 558 308 629 L308 629 Z M233 629 C233 598 210 573 179 573 C148 573 125 598 125 629 C125 660 148 685 179 685 C210 685 233 660 233 629 L233 629 Z " />
<glyph glyph-name="plusminus" unicode="&#xb1;" horiz-adv-x="650" d="M618 0 L618 768 L507 768 C489 772 465 774 441 774 C381 774 360 762 336 747 C307 763 266 776 212 776 C120 776 61 723 61 656 L61 547 L2 547 L2 469 L61 469 L61 0 L201 0 L201 469 L269 469 L269 0 L409 0 L409 469 L458 469 L458 547 L409 547 L409 637 C409 662 414 690 444 690 C457 690 471 685 477 673 L477 0 L618 0 Z M275 679 C271 670 269 659 269 650 L269 547 L201 547 L201 651 C201 676 212 690 233 690 C253 690 266 685 275 679 L275 679 Z " />
<glyph glyph-name="twosuperior" unicode="&#xb2;" horiz-adv-x="332" d="M298 371 C298 590 239 767 166 767 C94 767 34 590 34 371 C34 155 94 -22 166 -22 C239 -22 298 155 298 371 L298 371 Z M279 314 L208 290 L191 23 L155 251 L67 203 L121 379 L75 551 L155 506 L212 674 L215 435 L279 314 Z " />
<glyph glyph-name="threesuperior" unicode="&#xb3;" horiz-adv-x="332" d="M298 371 C298 590 239 767 166 767 C94 767 34 590 34 371 C34 155 94 -22 166 -22 C239 -22 298 155 298 371 L298 371 Z M279 314 L208 290 L191 23 L155 251 L67 203 L121 379 L75 551 L155 506 L212 674 L215 435 L279 314 Z " />
<glyph glyph-name="acute" unicode="&#xb4;" horiz-adv-x="381" d="M297 708 L168 708 L126 584 L200 584 L297 708 Z " />
<glyph glyph-name="mu" unicode="&#xb5;" horiz-adv-x="332" d="M298 371 C298 590 239 767 166 767 C94 767 34 590 34 371 C34 155 94 -22 166 -22 C239 -22 298 155 298 371 L298 371 Z M279 314 L208 290 L191 23 L155 251 L67 203 L121 379 L75 551 L155 506 L212 674 L215 435 L279 314 Z " />
<glyph glyph-name="paragraph" unicode="&#xb6;" horiz-adv-x="480" d="M440 0 L440 768 L230 768 C121 768 19 707 19 522 C19 363 129 301 224 280 C234 278 246 275 250 274 L250 0 L321 0 L321 708 L369 708 L369 0 L440 0 Z M250 332 C215 352 193 367 193 520 C193 666 210 708 250 708 L250 332 Z " />
<glyph glyph-name="periodcentered" unicode="&#xb7;" horiz-adv-x="292" d="M247 410 C247 472 202 522 146 522 C90 522 45 472 45 410 C45 348 90 298 146 298 C202 298 247 348 247 410 L247 410 Z " />
<glyph glyph-name="cedilla" unicode="&#xb8;" horiz-adv-x="381" d="M313 -103 C313 -56 275 -20 209 -20 L169 -20 L151 -84 C163 -79 178 -77 189 -77 C210 -77 223 -87 223 -107 C223 -119 222 -134 192 -134 C147 -134 127 -124 97 -106 L65 -156 C86 -174 137 -191 194 -191 C269 -191 313 -156 313 -103 L313 -103 Z " />
<glyph glyph-name="onesuperior" unicode="&#xb9;" horiz-adv-x="332" d="M298 371 C298 590 239 767 166 767 C94 767 34 590 34 371 C34 155 94 -22 166 -22 C239 -22 298 155 298 371 L298 371 Z M279 314 L208 290 L191 23 L155 251 L67 203 L121 379 L75 551 L155 506 L212 674 L215 435 L279 314 Z " />
<glyph glyph-name="ordmasculine" unicode="&#xba;" horiz-adv-x="432" d="M376 572 C376 716 335 780 216 780 C90 780 56 718 56 572 C56 422 102 374 216 374 C340 374 376 422 376 572 L376 572 Z M366 288 L366 344 L63 344 L63 288 L366 288 Z M249 572 C249 452 242 438 216 438 C191 438 184 453 184 572 C184 698 187 718 216 718 C244 718 249 702 249 572 L249 572 Z " />
<glyph glyph-name="guillemotright" unicode="&#xbb;" horiz-adv-x="474" d="M429 201 L429 330 L245 494 L245 353 L328 265 L245 176 L245 35 L429 201 Z M226 201 L226 330 L42 494 L42 353 L126 265 L42 176 L42 35 L226 201 Z " />
<glyph glyph-name="onequarter" unicode="&#xbc;" horiz-adv-x="332" d="M298 371 C298 590 239 767 166 767 C94 767 34 590 34 371 C34 155 94 -22 166 -22 C239 -22 298 155 298 371 L298 371 Z M279 314 L208 290 L191 23 L155 251 L67 203 L121 379 L75 551 L155 506 L212 674 L215 435 L279 314 Z " />
<glyph glyph-name="onehalf" unicode="&#xbd;" horiz-adv-x="332" d="M298 371 C298 590 239 767 166 767 C94 767 34 590 34 371 C34 155 94 -22 166 -22 C239 -22 298 155 298 371 L298 371 Z M279 314 L208 290 L191 23 L155 251 L67 203 L121 379 L75 551 L155 506 L212 674 L215 435 L279 314 Z " />
<glyph glyph-name="threequarters" unicode="&#xbe;" horiz-adv-x="332" d="M298 371 C298 590 239 767 166 767 C94 767 34 590 34 371 C34 155 94 -22 166 -22 C239 -22 298 155 298 371 L298 371 Z M279 314 L208 290 L191 23 L155 251 L67 203 L121 379 L75 551 L155 506 L212 674 L215 435 L279 314 Z " />
<glyph glyph-name="questiondown" unicode="&#xbf;" horiz-adv-x="399" d="M351 603 L351 768 L215 768 L215 603 L351 603 Z M379 133 C379 167 374 193 367 210 L237 212 C242 196 245 174 245 151 C245 107 239 88 214 88 C177 88 172 110 172 245 C172 326 180 345 200 345 C228 345 232 329 238 267 L338 267 L338 535 L235 535 L235 416 C221 436 192 453 154 453 C83 453 23 425 23 249 C23 41 102 -12 208 -12 C330 -12 379 48 379 133 L379 133 Z " />
<glyph glyph-name="Agrave" unicode="&#xc0;" horiz-adv-x="423" d="M251 796 L209 895 L63 895 L168 796 L251 796 Z M416 0 L274 769 L129 769 L9 0 L146 0 L162 124 L236 124 L252 0 L416 0 Z M224 209 L173 209 C173 209 183 299 188 357 C191 392 194 459 196 535 C200 461 202 395 206 359 C213 301 224 209 224 209 L224 209 Z " />
<glyph glyph-name="Aacute" unicode="&#xc1;" horiz-adv-x="423" d="M346 895 L200 895 L158 796 L241 796 L346 895 Z M416 0 L274 769 L129 769 L9 0 L146 0 L162 124 L236 124 L252 0 L416 0 Z M224 209 L173 209 C173 209 183 299 188 357 C191 392 194 459 196 535 C200 461 202 395 206 359 C213 301 224 209 224 209 L224 209 Z " />
<glyph glyph-name="Acircumflex" unicode="&#xc2;" horiz-adv-x="423" d="M344 796 L252 895 L154 895 L61 796 L155 796 L203 829 L251 796 L344 796 Z M416 0 L274 769 L129 769 L9 0 L146 0 L162 124 L236 124 L252 0 L416 0 Z M224 209 L173 209 C173 209 183 299 188 357 C191 392 194 459 196 535 C200 461 202 395 206 359 C213 301 224 209 224 209 L224 209 Z " />
<glyph glyph-name="Atilde" unicode="&#xc3;" horiz-adv-x="423" d="M333 859 C333 881 324 900 324 900 L286 900 C286 872 282 859 261 859 C248 859 241 865 231 873 C227 876 216 885 212 888 C188 905 172 908 141 908 C88 908 77 874 77 843 C77 821 86 805 86 805 L124 805 C124 831 128 844 149 844 C160 844 167 838 176 831 C180 828 195 818 202 813 C215 804 235 796 262 796 C310 796 333 827 333 859 L333 859 Z M416 0 L274 769 L129 769 L9 0 L146 0 L162 124 L236 124 L252 0 L416 0 Z M224 209 L173 209 C173 209 183 299 188 357 C191 392 194 459 196 535 C200 461 202 395 206 359 C213 301 224 209 224 209 L224 209 Z " />
<glyph glyph-name="Adieresis" unicode="&#xc4;" horiz-adv-x="423" d="M344 800 L344 887 L245 887 L245 800 L344 800 Z M162 800 L162 887 L63 887 L63 800 L162 800 Z M416 0 L274 769 L129 769 L9 0 L146 0 L162 124 L236 124 L252 0 L416 0 Z M224 209 L173 209 C173 209 183 299 188 357 C191 392 194 459 196 535 C200 461 202 395 206 359 C213 301 224 209 224 209 L224 209 Z " />
<glyph glyph-name="Aring" unicode="&#xc5;" horiz-adv-x="423" d="M416 0 L283 723 C301 743 312 769 312 798 C312 860 262 910 200 910 C138 910 88 860 88 798 C88 767 100 739 120 719 L9 0 L146 0 L162 124 L236 124 L252 0 L416 0 Z M252 798 C252 769 229 746 200 746 C171 746 148 769 148 798 C148 827 171 850 200 850 C229 850 252 827 252 798 L252 798 Z M224 209 L173 209 C173 209 183 299 188 357 C191 392 194 459 196 535 C200 461 202 395 206 359 C213 301 224 209 224 209 L224 209 Z " />
<glyph glyph-name="AE" unicode="&#xc6;" horiz-adv-x="613" d="M606 0 L606 125 L432 125 L432 331 L564 331 L564 451 L432 451 L432 648 L583 648 L583 768 L223 768 L-5 0 L132 0 L165 124 L278 124 L278 0 L606 0 Z M278 219 L191 219 C191 219 211 299 224 357 C232 392 278 624 278 624 L278 219 Z " />
<glyph glyph-name="Ccedilla" unicode="&#xc7;" horiz-adv-x="427" d="M406 215 C406 263 404 295 399 339 L251 341 C256 310 258 273 258 240 C258 126 258 98 230 98 C200 98 196 112 196 376 C196 657 201 674 226 674 C252 674 252 654 252 586 C252 548 247 503 245 462 L389 466 C394 495 397 554 397 586 C397 709 352 780 223 780 C69 780 27 684 27 340 C27 30 86 -16 225 -16 C349 -16 406 66 406 215 L406 215 Z M327 -109 C327 -62 289 -26 223 -26 L183 -26 L165 -90 C177 -85 192 -83 203 -83 C224 -83 237 -93 237 -113 C237 -125 236 -140 206 -140 C161 -140 141 -130 111 -112 L79 -162 C100 -180 151 -197 208 -197 C283 -197 327 -162 327 -109 L327 -109 Z " />
<glyph glyph-name="Egrave" unicode="&#xc8;" horiz-adv-x="379" d="M267 796 L225 895 L79 895 L184 796 L267 796 Z M372 0 L372 125 L198 125 L198 331 L330 331 L330 451 L198 451 L198 648 L349 648 L349 768 L40 768 L40 0 L372 0 Z " />
<glyph glyph-name="Eacute" unicode="&#xc9;" horiz-adv-x="379" d="M348 895 L202 895 L160 796 L243 796 L348 895 Z M372 0 L372 125 L198 125 L198 331 L330 331 L330 451 L198 451 L198 648 L349 648 L349 768 L40 768 L40 0 L372 0 Z " />
<glyph glyph-name="Ecircumflex" unicode="&#xca;" horiz-adv-x="379" d="M342 796 L250 895 L152 895 L59 796 L153 796 L201 829 L249 796 L342 796 Z M372 0 L372 125 L198 125 L198 331 L330 331 L330 451 L198 451 L198 648 L349 648 L349 768 L40 768 L40 0 L372 0 Z " />
<glyph glyph-name="Edieresis" unicode="&#xcb;" horiz-adv-x="379" d="M349 800 L349 887 L245 887 L245 800 L349 800 Z M162 800 L162 887 L58 887 L58 800 L162 800 Z M372 0 L372 125 L198 125 L198 331 L330 331 L330 451 L198 451 L198 648 L349 648 L349 768 L40 768 L40 0 L372 0 Z " />
<glyph glyph-name="Igrave" unicode="&#xcc;" horiz-adv-x="240" d="M177 796 L135 895 L-11 895 L94 796 L177 796 Z M200 0 L200 768 L40 768 L40 0 L200 0 Z " />
<glyph glyph-name="Iacute" unicode="&#xcd;" horiz-adv-x="240" d="M262 895 L116 895 L74 796 L157 796 L262 895 Z M200 0 L200 768 L40 768 L40 0 L200 0 Z " />
<glyph glyph-name="Icircumflex" unicode="&#xce;" horiz-adv-x="240" d="M264 796 L172 895 L74 895 L-19 796 L75 796 L123 829 L171 796 L264 796 Z M200 0 L200 768 L40 768 L40 0 L200 0 Z " />
<glyph glyph-name="Idieresis" unicode="&#xcf;" horiz-adv-x="240" d="M271 796 L271 883 L167 883 L167 796 L271 796 Z M84 796 L84 883 L-20 883 L-20 796 L84 796 Z M200 0 L200 768 L40 768 L40 0 L200 0 Z " />
<glyph glyph-name="Eth" unicode="&#xd0;" horiz-adv-x="463" d="M436 345 C436 686 370 768 207 768 L42 768 L42 422 L0 422 L0 311 L42 311 L42 0 L235 0 C379 0 436 55 436 345 L436 345 Z M272 331 C272 123 259 120 211 120 L194 120 L194 311 L237 311 L237 422 L194 422 L194 648 L210 648 C260 648 272 628 272 331 L272 331 Z " />
<glyph glyph-name="Ntilde" unicode="&#xd1;" horiz-adv-x="460" d="M361 854 C361 876 352 895 352 895 L314 895 C314 867 310 854 289 854 C276 854 269 860 259 868 C255 871 244 880 240 883 C216 900 200 903 169 903 C116 903 105 869 105 838 C105 816 114 800 114 800 L152 800 C152 826 156 839 177 839 C188 839 195 833 204 826 C208 823 223 813 230 808 C243 799 263 791 290 791 C338 791 361 822 361 854 L361 854 Z M420 0 L420 768 L278 768 C278 768 278 677 278 618 C278 541 279 467 283 392 C277 426 273 446 258 495 C244 543 178 768 178 768 L40 768 L40 0 L182 0 C182 0 182 137 182 196 C182 286 181 304 175 407 C186 350 190 330 205 284 C223 227 296 0 296 0 L420 0 Z " />
<glyph glyph-name="Ograve" unicode="&#xd2;" horiz-adv-x="460" d="M279 796 L237 895 L91 895 L196 796 L279 796 Z M433 383 C433 715 369 780 225 780 C81 780 27 720 27 383 C27 40 96 -16 225 -16 C363 -16 433 52 433 383 L433 383 Z M266 383 C266 243 265 222 260 167 C255 115 248 102 230 102 C212 102 200 115 197 167 C194 221 194 243 194 383 C194 503 195 557 197 612 C199 664 208 679 228 679 C246 679 256 664 260 612 C264 557 266 504 266 383 L266 383 Z " />
<glyph glyph-name="Oacute" unicode="&#xd3;" horiz-adv-x="460" d="M372 895 L226 895 L184 796 L267 796 L372 895 Z M433 383 C433 715 369 780 225 780 C81 780 27 720 27 383 C27 40 96 -16 225 -16 C363 -16 433 52 433 383 L433 383 Z M266 383 C266 243 265 222 260 167 C255 115 248 102 230 102 C212 102 200 115 197 167 C194 221 194 243 194 383 C194 503 195 557 197 612 C199 664 208 679 228 679 C246 679 256 664 260 612 C264 557 266 504 266 383 L266 383 Z " />
<glyph glyph-name="Ocircumflex" unicode="&#xd4;" horiz-adv-x="460" d="M366 796 L274 895 L176 895 L83 796 L177 796 L225 829 L273 796 L366 796 Z M433 383 C433 715 369 780 225 780 C81 780 27 720 27 383 C27 40 96 -16 225 -16 C363 -16 433 52 433 383 L433 383 Z M266 383 C266 243 265 222 260 167 C255 115 248 102 230 102 C212 102 200 115 197 167 C194 221 194 243 194 383 C194 503 195 557 197 612 C199 664 208 679 228 679 C246 679 256 664 260 612 C264 557 266 504 266 383 L266 383 Z " />
<glyph glyph-name="Otilde" unicode="&#xd5;" horiz-adv-x="460" d="M357 854 C357 876 348 895 348 895 L310 895 C310 867 306 854 285 854 C272 854 265 860 255 868 C251 871 240 880 236 883 C212 900 196 903 165 903 C112 903 101 869 101 838 C101 816 110 800 110 800 L148 800 C148 826 152 839 173 839 C184 839 191 833 200 826 C204 823 219 813 226 808 C239 799 259 791 286 791 C334 791 357 822 357 854 L357 854 Z M433 383 C433 715 369 780 225 780 C81 780 27 720 27 383 C27 40 96 -16 225 -16 C363 -16 433 52 433 383 L433 383 Z M266 383 C266 243 265 222 260 167 C255 115 248 102 230 102 C212 102 200 115 197 167 C194 221 194 243 194 383 C194 503 195 557 197 612 C199 664 208 679 228 679 C246 679 256 664 260 612 C264 557 266 504 266 383 L266 383 Z " />
<glyph glyph-name="Odieresis" unicode="&#xd6;" horiz-adv-x="460" d="M364 800 L364 887 L265 887 L265 800 L364 800 Z M182 800 L182 887 L83 887 L83 800 L182 800 Z M433 383 C433 715 369 780 225 780 C81 780 27 720 27 383 C27 40 96 -16 225 -16 C363 -16 433 52 433 383 L433 383 Z M266 383 C266 243 265 222 260 167 C255 115 248 102 230 102 C212 102 200 115 197 167 C194 221 194 243 194 383 C194 503 195 557 197 612 C199 664 208 679 228 679 C246 679 256 664 260 612 C264 557 266 504 266 383 L266 383 Z " />
<glyph glyph-name="multiply" unicode="&#xd7;" horiz-adv-x="332" d="M298 371 C298 590 239 767 166 767 C94 767 34 590 34 371 C34 155 94 -22 166 -22 C239 -22 298 155 298 371 L298 371 Z M279 314 L208 290 L191 23 L155 251 L67 203 L121 379 L75 551 L155 506 L212 674 L215 435 L279 314 Z " />
<glyph glyph-name="Oslash" unicode="&#xd8;" horiz-adv-x="460" d="M435 774 L387 774 L367 729 C333 768 286 780 225 780 C81 780 27 720 27 383 C27 231 41 136 67 76 L27 -10 L75 -10 L94 32 C127 -6 170 -16 225 -16 C363 -16 433 52 433 383 C433 530 423 625 394 684 L435 774 Z M266 511 L190 345 C190 357 190 369 190 383 C190 503 192 557 195 612 C198 664 208 679 228 679 C246 679 253 664 260 612 C264 581 266 552 266 511 L266 511 Z M268 383 C268 243 267 222 262 167 C257 115 248 102 230 102 C212 102 205 111 197 167 C193 195 191 214 191 244 L268 410 C268 401 268 392 268 383 L268 383 Z " />
<glyph glyph-name="Ugrave" unicode="&#xd9;" horiz-adv-x="454" d="M290 796 L248 895 L102 895 L207 796 L290 796 Z M417 149 L417 768 L269 768 L269 163 C269 117 265 100 235 100 C207 100 201 119 201 163 L201 768 L43 768 L43 149 C43 39 109 -16 235 -16 C382 -16 417 48 417 149 L417 149 Z " />
<glyph glyph-name="Uacute" unicode="&#xda;" horiz-adv-x="454" d="M371 895 L225 895 L183 796 L266 796 L371 895 Z M417 149 L417 768 L269 768 L269 163 C269 117 265 100 235 100 C207 100 201 119 201 163 L201 768 L43 768 L43 149 C43 39 109 -16 235 -16 C382 -16 417 48 417 149 L417 149 Z " />
<glyph glyph-name="Ucircumflex" unicode="&#xdb;" horiz-adv-x="454" d="M373 796 L281 895 L183 895 L90 796 L184 796 L232 829 L280 796 L373 796 Z M417 149 L417 768 L269 768 L269 163 C269 117 265 100 235 100 C207 100 201 119 201 163 L201 768 L43 768 L43 149 C43 39 109 -16 235 -16 C382 -16 417 48 417 149 L417 149 Z " />
<glyph glyph-name="Udieresis" unicode="&#xdc;" horiz-adv-x="454" d="M373 800 L373 887 L274 887 L274 800 L373 800 Z M191 800 L191 887 L92 887 L92 800 L191 800 Z M417 149 L417 768 L269 768 L269 163 C269 117 265 100 235 100 C207 100 201 119 201 163 L201 768 L43 768 L43 149 C43 39 109 -16 235 -16 C382 -16 417 48 417 149 L417 149 Z " />
<glyph glyph-name="Yacute" unicode="&#xdd;" horiz-adv-x="434" d="M432 768 L288 768 L225 504 L156 768 L-7 768 L137 298 L137 0 L295 0 L295 298 L432 768 Z M337 920 L208 920 L166 796 L240 796 L337 920 Z " />
<glyph glyph-name="Thorn" unicode="&#xde;" horiz-adv-x="450" d="M433 400 C433 562 372 632 245 632 L198 632 L198 768 L40 768 L40 0 L198 0 L198 153 L258 153 C367 153 433 216 433 400 L433 400 Z M271 398 C271 300 263 271 218 271 L198 271 L198 514 L214 514 C244 514 271 503 271 398 L271 398 Z " />
<glyph glyph-name="germandbls" unicode="&#xdf;" horiz-adv-x="407" d="M388 217 C388 357 349 399 289 411 C336 422 374 449 374 568 C374 728 313 780 199 780 C82 780 32 726 32 589 L32 0 L167 0 L167 617 C167 666 174 685 201 685 C227 685 232 671 232 582 C232 464 227 458 194 458 L194 357 C228 357 237 340 237 236 C237 95 231 87 199 87 L194 87 L194 0 L222 0 C347 0 388 39 388 217 L388 217 Z " />
<glyph glyph-name="agrave" unicode="&#xe0;" horiz-adv-x="383" d="M375 94 C368 91 361 90 353 90 C338 90 333 101 333 119 L333 427 C333 527 281 556 179 556 C78 556 30 514 30 435 C30 399 39 382 43 367 L159 377 C156 393 154 413 154 428 C154 452 159 467 178 467 C198 467 204 454 204 417 C204 349 201 334 169 325 L136 316 C64 296 17 264 17 154 C17 10 93 -10 152 -10 C188 -10 204 -2 223 29 C228 2 261 -10 302 -10 C329 -10 355 -7 369 -1 L375 94 Z M204 128 C204 93 197 84 182 84 C170 84 160 91 160 146 C160 218 170 235 204 247 L204 128 Z M229 584 L187 708 L58 708 L155 584 L229 584 Z " />
<glyph glyph-name="aacute" unicode="&#xe1;" horiz-adv-x="383" d="M375 94 C368 91 361 90 353 90 C338 90 333 101 333 119 L333 427 C333 527 281 556 179 556 C78 556 30 514 30 435 C30 399 39 382 43 367 L159 377 C156 393 154 413 154 428 C154 452 159 467 178 467 C198 467 204 454 204 417 C204 349 201 334 169 325 L136 316 C64 296 17 264 17 154 C17 10 93 -10 152 -10 C188 -10 204 -2 223 29 C228 2 261 -10 302 -10 C329 -10 355 -7 369 -1 L375 94 Z M204 128 C204 93 197 84 182 84 C170 84 160 91 160 146 C160 218 170 235 204 247 L204 128 Z M307 708 L178 708 L136 584 L210 584 L307 708 Z " />
<glyph glyph-name="acircumflex" unicode="&#xe2;" horiz-adv-x="383" d="M328 584 L236 702 L138 702 L45 584 L139 584 L187 636 L235 584 L328 584 Z M375 94 C368 91 361 90 353 90 C338 90 333 101 333 119 L333 427 C333 527 281 556 179 556 C78 556 30 514 30 435 C30 399 39 382 43 367 L159 377 C156 393 154 413 154 428 C154 452 159 467 178 467 C198 467 204 454 204 417 C204 349 201 334 169 325 L136 316 C64 296 17 264 17 154 C17 10 93 -10 152 -10 C188 -10 204 -2 223 29 C228 2 261 -10 302 -10 C329 -10 355 -7 369 -1 L375 94 Z M204 128 C204 93 197 84 182 84 C170 84 160 91 160 146 C160 218 170 235 204 247 L204 128 Z " />
<glyph glyph-name="atilde" unicode="&#xe3;" horiz-adv-x="383" d="M320 647 C320 673 311 696 311 696 L273 696 C273 663 269 648 248 648 C238 648 233 651 218 664 C211 670 207 674 199 681 C177 701 159 705 128 705 C75 705 64 665 64 629 C64 603 73 584 73 584 L111 584 C111 615 115 630 136 630 C149 630 158 620 170 609 C174 606 185 596 189 593 C203 582 222 573 249 573 C297 573 320 610 320 647 L320 647 Z M375 94 C368 91 361 90 353 90 C338 90 333 101 333 119 L333 427 C333 527 281 556 179 556 C78 556 30 514 30 435 C30 399 39 382 43 367 L159 377 C156 393 154 413 154 428 C154 452 159 467 178 467 C198 467 204 454 204 417 C204 349 201 334 169 325 L136 316 C64 296 17 264 17 154 C17 10 93 -10 152 -10 C188 -10 204 -2 223 29 C228 2 261 -10 302 -10 C329 -10 355 -7 369 -1 L375 94 Z M204 128 C204 93 197 84 182 84 C170 84 160 91 160 146 C160 218 170 235 204 247 L204 128 Z " />
<glyph glyph-name="adieresis" unicode="&#xe4;" horiz-adv-x="383" d="M330 584 L330 696 L231 696 L231 584 L330 584 Z M148 584 L148 696 L49 696 L49 584 L148 584 Z M375 94 C368 91 361 90 353 90 C338 90 333 101 333 119 L333 427 C333 527 281 556 179 556 C78 556 30 514 30 435 C30 399 39 382 43 367 L159 377 C156 393 154 413 154 428 C154 452 159 467 178 467 C198 467 204 454 204 417 C204 349 201 334 169 325 L136 316 C64 296 17 264 17 154 C17 10 93 -10 152 -10 C188 -10 204 -2 223 29 C228 2 261 -10 302 -10 C329 -10 355 -7 369 -1 L375 94 Z M204 128 C204 93 197 84 182 84 C170 84 160 91 160 146 C160 218 170 235 204 247 L204 128 Z " />
<glyph glyph-name="aring" unicode="&#xe5;" horiz-adv-x="383" d="M296 688 C296 750 246 800 184 800 C122 800 72 750 72 688 C72 626 122 576 184 576 C246 576 296 626 296 688 L296 688 Z M375 94 C368 91 361 90 353 90 C338 90 333 101 333 119 L333 427 C333 527 281 556 179 556 C78 556 30 514 30 435 C30 399 39 382 43 367 L159 377 C156 393 154 413 154 428 C154 452 159 467 178 467 C198 467 204 454 204 417 C204 349 201 334 169 325 L136 316 C64 296 17 264 17 154 C17 10 93 -10 152 -10 C188 -10 204 -2 223 29 C228 2 261 -10 302 -10 C329 -10 355 -7 369 -1 L375 94 Z M204 128 C204 93 197 84 182 84 C170 84 160 91 160 146 C160 218 170 235 204 247 L204 128 Z M242 688 C242 656 216 630 184 630 C152 630 126 656 126 688 C126 720 152 746 184 746 C216 746 242 720 242 688 L242 688 Z " />
<glyph glyph-name="ae" unicode="&#xe6;" horiz-adv-x="528" d="M509 330 C509 491 468 556 358 556 C316 556 298 547 282 535 C282 535 256 556 181 556 C80 556 32 514 32 435 C32 403 40 381 45 367 L161 377 C158 394 156 413 156 428 C156 452 161 467 180 467 C200 467 211 454 211 417 C211 349 203 334 171 325 L138 316 C66 296 19 264 19 154 C19 10 95 -10 154 -10 C190 -10 223 0 242 31 C261 4 293 -10 366 -10 C461 -10 507 32 507 138 C507 154 504 195 501 208 L381 210 C383 194 386 165 386 151 C386 81 382 74 365 74 C344 74 337 85 335 199 C335 219 335 249 335 249 L501 249 C503 262 509 316 509 330 L509 330 Z M381 399 C381 383 379 340 378 327 L333 327 C333 327 333 359 333 384 C333 471 340 487 358 487 C380 487 381 462 381 399 L381 399 Z M206 128 C206 93 199 84 184 84 C172 84 162 91 162 146 C162 218 172 235 206 247 L206 128 Z " />
<glyph glyph-name="ccedilla" unicode="&#xe7;" horiz-adv-x="356" d="M340 158 C340 190 334 226 330 245 L205 248 C207 219 209 184 209 168 C209 90 200 77 188 77 C160 77 161 87 160 270 C159 457 163 473 183 473 C198 473 202 461 202 396 C202 370 199 347 196 332 L322 334 C325 350 328 377 328 396 C328 512 282 556 183 556 C88 556 19 523 19 281 C19 48 59 -10 186 -10 C298 -10 340 32 340 158 L340 158 Z M303 -103 C303 -56 265 -20 199 -20 L159 -20 L141 -84 C153 -79 168 -77 179 -77 C200 -77 213 -87 213 -107 C213 -119 212 -134 182 -134 C137 -134 117 -124 87 -106 L55 -156 C76 -174 127 -191 184 -191 C259 -191 303 -156 303 -103 L303 -103 Z " />
<glyph glyph-name="egrave" unicode="&#xe8;" horiz-adv-x="352" d="M332 330 C332 491 291 556 181 556 C69 556 18 490 18 249 C18 28 69 -10 189 -10 C284 -10 330 32 330 138 C330 154 327 195 324 208 L204 210 C206 194 209 165 209 151 C209 81 205 74 188 74 C167 74 160 85 158 199 C158 219 158 249 158 249 L324 249 C326 262 332 316 332 330 L332 330 Z M204 399 C204 383 202 340 201 327 L156 327 C156 327 156 359 156 384 C156 471 163 487 181 487 C203 487 204 462 204 399 L204 399 Z M230 584 L188 708 L59 708 L156 584 L230 584 Z " />
<glyph glyph-name="eacute" unicode="&#xe9;" horiz-adv-x="352" d="M332 330 C332 491 291 556 181 556 C69 556 18 490 18 249 C18 28 69 -10 189 -10 C284 -10 330 32 330 138 C330 154 327 195 324 208 L204 210 C206 194 209 165 209 151 C209 81 205 74 188 74 C167 74 160 85 158 199 C158 219 158 249 158 249 L324 249 C326 262 332 316 332 330 L332 330 Z M204 399 C204 383 202 340 201 327 L156 327 C156 327 156 359 156 384 C156 471 163 487 181 487 C203 487 204 462 204 399 L204 399 Z M317 708 L188 708 L146 584 L220 584 L317 708 Z " />
<glyph glyph-name="ecircumflex" unicode="&#xea;" horiz-adv-x="352" d="M321 584 L229 702 L131 702 L38 584 L132 584 L180 636 L228 584 L321 584 Z M332 330 C332 491 291 556 181 556 C69 556 18 490 18 249 C18 28 69 -10 189 -10 C284 -10 330 32 330 138 C330 154 327 195 324 208 L204 210 C206 194 209 165 209 151 C209 81 205 74 188 74 C167 74 160 85 158 199 C158 219 158 249 158 249 L324 249 C326 262 332 316 332 330 L332 330 Z M204 399 C204 383 202 340 201 327 L156 327 C156 327 156 359 156 384 C156 471 163 487 181 487 C203 487 204 462 204 399 L204 399 Z " />
<glyph glyph-name="edieresis" unicode="&#xeb;" horiz-adv-x="352" d="M315 584 L315 696 L216 696 L216 584 L315 584 Z M133 584 L133 696 L34 696 L34 584 L133 584 Z M332 330 C332 491 291 556 181 556 C69 556 18 490 18 249 C18 28 69 -10 189 -10 C284 -10 330 32 330 138 C330 154 327 195 324 208 L204 210 C206 194 209 165 209 151 C209 81 205 74 188 74 C167 74 160 85 158 199 C158 219 158 249 158 249 L324 249 C326 262 332 316 332 330 L332 330 Z M204 399 C204 383 202 340 201 327 L156 327 C156 327 156 359 156 384 C156 471 163 487 181 487 C203 487 204 462 204 399 L204 399 Z " />
<glyph glyph-name="igrave" unicode="&#xec;" horiz-adv-x="205" d="M173 0 L173 547 L32 547 L32 0 L173 0 Z M154 584 L112 708 L-17 708 L80 584 L154 584 Z " />
<glyph glyph-name="iacute" unicode="&#xed;" horiz-adv-x="205" d="M173 0 L173 547 L32 547 L32 0 L173 0 Z M218 708 L89 708 L47 584 L121 584 L218 708 Z " />
<glyph glyph-name="icircumflex" unicode="&#xee;" horiz-adv-x="205" d="M243 584 L151 702 L53 702 L-40 584 L54 584 L102 636 L150 584 L243 584 Z M173 0 L173 547 L32 547 L32 0 L173 0 Z " />
<glyph glyph-name="idieresis" unicode="&#xef;" horiz-adv-x="205" d="M234 584 L234 696 L135 696 L135 584 L234 584 Z M71 584 L71 696 L-28 696 L-28 584 L71 584 Z M173 0 L173 547 L32 547 L32 0 L173 0 Z " />
<glyph glyph-name="eth" unicode="&#xf0;" horiz-adv-x="372" d="M353 308 C353 441 339 552 311 633 C340 651 352 676 352 697 C352 726 328 743 319 749 L288 731 C291 728 294 720 294 713 C294 707 292 699 285 691 C253 749 209 780 155 780 C115 780 66 764 47 744 L75 655 C90 670 109 687 148 687 C159 687 169 683 177 674 C138 657 122 635 122 612 C122 586 143 567 155 562 L185 580 C182 585 181 590 181 594 C181 611 194 618 206 621 C212 600 215 573 215 542 C204 545 192 549 178 549 C79 549 19 461 19 266 C19 48 67 -10 186 -10 C315 -10 353 30 353 308 L353 308 Z M212 266 C212 82 204 73 186 73 C163 73 162 82 162 266 C162 456 168 467 186 467 C195 467 201 464 205 461 C208 445 212 382 212 266 L212 266 Z " />
<glyph glyph-name="ntilde" unicode="&#xf1;" horiz-adv-x="385" d="M325 647 C325 673 316 696 316 696 L278 696 C278 663 274 648 253 648 C242 648 238 651 223 664 C215 671 208 678 204 681 C183 700 166 705 133 705 C80 705 69 665 69 629 C69 603 78 584 78 584 L116 584 C116 615 120 630 141 630 C150 630 155 627 172 612 C178 607 188 598 194 593 C209 581 229 573 254 573 C302 573 325 610 325 647 L325 647 Z M356 0 L356 455 C356 510 329 556 251 556 C210 556 181 531 166 508 L166 547 L32 547 L32 0 L170 0 L170 406 C170 439 184 451 197 451 C209 451 219 444 219 424 L219 0 L356 0 Z " />
<glyph glyph-name="ograve" unicode="&#xf2;" horiz-adv-x="372" d="M353 266 C353 472 311 556 186 556 C56 556 19 478 19 266 C19 48 67 -10 186 -10 C315 -10 353 48 353 266 L353 266 Z M210 266 C210 82 204 73 186 73 C163 73 162 82 162 266 C162 456 168 467 186 467 C206 467 210 455 210 266 L210 266 Z M237 584 L195 708 L66 708 L163 584 L237 584 Z " />
<glyph glyph-name="oacute" unicode="&#xf3;" horiz-adv-x="372" d="M353 266 C353 472 311 556 186 556 C56 556 19 478 19 266 C19 48 67 -10 186 -10 C315 -10 353 48 353 266 L353 266 Z M210 266 C210 82 204 73 186 73 C163 73 162 82 162 266 C162 456 168 467 186 467 C206 467 210 455 210 266 L210 266 Z M297 708 L168 708 L126 584 L200 584 L297 708 Z " />
<glyph glyph-name="ocircumflex" unicode="&#xf4;" horiz-adv-x="372" d="M327 584 L235 702 L137 702 L44 584 L138 584 L186 636 L234 584 L327 584 Z M353 266 C353 472 311 556 186 556 C56 556 19 478 19 266 C19 48 67 -10 186 -10 C315 -10 353 48 353 266 L353 266 Z M210 266 C210 82 204 73 186 73 C163 73 162 82 162 266 C162 456 168 467 186 467 C206 467 210 455 210 266 L210 266 Z " />
<glyph glyph-name="otilde" unicode="&#xf5;" horiz-adv-x="372" d="M316 647 C316 673 307 696 307 696 L269 696 C269 663 265 648 244 648 C233 648 229 651 214 664 C206 671 199 678 195 681 C174 700 157 705 124 705 C71 705 60 665 60 629 C60 603 69 584 69 584 L107 584 C107 615 111 630 132 630 C141 630 146 627 163 612 C169 607 179 598 185 593 C200 581 220 573 245 573 C293 573 316 610 316 647 L316 647 Z M353 266 C353 472 311 556 186 556 C56 556 19 478 19 266 C19 48 67 -10 186 -10 C315 -10 353 48 353 266 L353 266 Z M210 266 C210 82 204 73 186 73 C163 73 162 82 162 266 C162 456 168 467 186 467 C206 467 210 455 210 266 L210 266 Z " />
<glyph glyph-name="odieresis" unicode="&#xf6;" horiz-adv-x="372" d="M325 584 L325 696 L226 696 L226 584 L325 584 Z M143 584 L143 696 L44 696 L44 584 L143 584 Z M353 266 C353 472 311 556 186 556 C56 556 19 478 19 266 C19 48 67 -10 186 -10 C315 -10 353 48 353 266 L353 266 Z M210 266 C210 82 204 73 186 73 C163 73 162 82 162 266 C162 456 168 467 186 467 C206 467 210 455 210 266 L210 266 Z " />
<glyph glyph-name="divide" unicode="&#xf7;" horiz-adv-x="332" d="M298 371 C298 590 239 767 166 767 C94 767 34 590 34 371 C34 155 94 -22 166 -22 C239 -22 298 155 298 371 L298 371 Z M279 314 L208 290 L191 23 L155 251 L67 203 L121 379 L75 551 L155 506 L212 674 L215 435 L279 314 Z " />
<glyph glyph-name="oslash" unicode="&#xf8;" horiz-adv-x="372" d="M353 266 C353 368 343 441 317 487 L353 556 L315 556 L295 517 C269 544 233 556 186 556 C56 556 19 478 19 266 C19 164 29 97 52 55 L19 -10 L57 -10 L75 25 C102 -1 138 -10 186 -10 C315 -10 353 48 353 266 L353 266 Z M213 358 L159 255 C159 450 168 467 186 467 C202 467 213 463 213 358 L213 358 Z M213 266 C213 82 204 73 186 73 C167 73 159 78 159 189 L213 292 C213 287 213 272 213 266 L213 266 Z " />
<glyph glyph-name="ugrave" unicode="&#xf9;" horiz-adv-x="386" d="M358 2 C357 6 355 19 355 27 C355 230 355 547 355 547 L217 547 L217 143 C217 110 203 98 190 98 C178 98 168 105 168 125 L168 547 L31 547 L31 92 C31 37 58 -9 136 -9 C177 -9 206 16 221 39 L226 -4 L358 2 Z M258 584 L216 708 L87 708 L184 584 L258 584 Z " />
<glyph glyph-name="uacute" unicode="&#xfa;" horiz-adv-x="386" d="M358 2 C357 6 355 19 355 27 C355 230 355 547 355 547 L217 547 L217 143 C217 110 203 98 190 98 C178 98 168 105 168 125 L168 547 L31 547 L31 92 C31 37 58 -9 136 -9 C177 -9 206 16 221 39 L226 -4 L358 2 Z M309 708 L180 708 L138 584 L212 584 L309 708 Z " />
<glyph glyph-name="ucircumflex" unicode="&#xfb;" horiz-adv-x="386" d="M335 584 L243 702 L145 702 L52 584 L146 584 L194 636 L242 584 L335 584 Z M358 2 C357 6 355 19 355 27 C355 230 355 547 355 547 L217 547 L217 143 C217 110 203 98 190 98 C178 98 168 105 168 125 L168 547 L31 547 L31 92 C31 37 58 -9 136 -9 C177 -9 206 16 221 39 L226 -4 L358 2 Z " />
<glyph glyph-name="udieresis" unicode="&#xfc;" horiz-adv-x="386" d="M333 584 L333 696 L234 696 L234 584 L333 584 Z M151 584 L151 696 L52 696 L52 584 L151 584 Z M358 2 C357 6 355 19 355 27 C355 230 355 547 355 547 L217 547 L217 143 C217 110 203 98 190 98 C178 98 168 105 168 125 L168 547 L31 547 L31 92 C31 37 58 -9 136 -9 C177 -9 206 16 221 39 L226 -4 L358 2 Z " />
<glyph glyph-name="yacute" unicode="&#xfd;" horiz-adv-x="379" d="M376 547 L250 547 L207 223 L132 547 L-8 547 L153 -10 C145 -51 141 -75 118 -75 C99 -75 91 -67 91 -53 C91 -42 93 -32 95 -24 L-19 -33 C-20 -46 -21 -61 -21 -74 C-21 -145 31 -176 115 -176 C205 -176 242 -133 268 0 L376 547 Z M305 708 L176 708 L134 584 L208 584 L305 708 Z " />
<glyph glyph-name="thorn" unicode="&#xfe;" horiz-adv-x="384" d="M361 271 C361 508 299 556 234 556 C192 556 176 530 166 512 L166 768 L32 768 L32 -176 L166 -176 L166 33 C175 -2 206 -10 223 -10 C313 -10 361 33 361 271 L361 271 Z M218 272 C218 103 217 74 192 74 C168 74 165 87 165 271 C165 440 172 459 192 459 C213 459 218 445 218 272 L218 272 Z " />
<glyph glyph-name="ydieresis" unicode="&#xff;" horiz-adv-x="379" d="M376 547 L250 547 L207 223 L132 547 L-8 547 L153 -10 C145 -51 141 -75 118 -75 C99 -75 91 -67 91 -53 C91 -42 93 -32 95 -24 L-19 -33 C-20 -46 -21 -61 -21 -74 C-21 -145 31 -176 115 -176 C205 -176 242 -133 268 0 L376 547 Z M332 590 L332 702 L233 702 L233 590 L332 590 Z M150 590 L150 702 L51 702 L51 590 L150 590 Z " />
<glyph glyph-name="dotlessi" unicode="&#x131;" horiz-adv-x="205" d="M173 0 L173 547 L32 547 L32 0 L173 0 Z " />
<glyph glyph-name="Lslash" unicode="&#x141;" horiz-adv-x="389" d="M378 0 L378 125 L203 125 L203 356 L373 507 L308 585 L203 491 L203 768 L45 768 L45 350 L-39 276 L26 199 L45 216 L45 0 L378 0 Z " />
<glyph glyph-name="lslash" unicode="&#x142;" horiz-adv-x="246" d="M291 427 L226 505 L193 476 L193 768 L53 768 L53 355 L-39 276 L26 199 L53 222 L53 0 L193 0 L193 342 L291 427 Z " />
<glyph glyph-name="OE" unicode="&#x152;" horiz-adv-x="614" d="M599 0 L599 125 L425 125 L425 331 L557 331 L557 451 L425 451 L425 648 L576 648 L576 768 L322 768 C284 768 241 774 225 774 C81 774 27 720 27 383 C27 40 96 -13 225 -13 C253 -13 333 0 352 0 L599 0 Z M274 383 C274 243 272 210 268 167 C263 115 252 102 234 102 C216 102 202 115 197 167 C193 213 194 243 194 383 C194 503 195 557 197 612 C199 664 212 679 232 679 C250 679 264 664 268 612 C272 557 274 504 274 383 L274 383 Z " />
<glyph glyph-name="oe" unicode="&#x153;" horiz-adv-x="539" d="M520 330 C520 491 479 556 369 556 C322 556 299 542 279 523 C252 544 238 556 186 556 C56 556 19 478 19 266 C19 48 67 -10 186 -10 C240 -10 257 -1 280 17 C311 -4 327 -10 377 -10 C472 -10 518 32 518 138 C518 154 515 195 512 208 L392 210 C394 194 397 165 397 151 C397 81 393 74 376 74 C355 74 348 85 346 199 C346 219 346 249 346 249 L512 249 C514 262 520 316 520 330 L520 330 Z M392 399 C392 383 390 340 389 327 L344 327 C344 327 344 359 344 384 C344 471 351 487 369 487 C391 487 392 462 392 399 L392 399 Z M210 266 C210 82 204 73 186 73 C163 73 162 82 162 266 C162 456 168 467 186 467 C206 467 210 455 210 266 L210 266 Z " />
<glyph glyph-name="Scaron" unicode="&#x160;" horiz-adv-x="443" d="M426 201 C426 339 392 413 300 461 L254 485 C211 507 182 525 182 611 C182 652 189 682 216 682 C244 682 253 665 253 600 C253 577 250 544 247 524 L384 536 C389 561 393 581 393 608 C393 721 331 780 213 780 C93 780 29 712 29 581 C29 491 57 406 136 365 L174 345 C242 309 265 286 265 178 C265 101 255 92 230 92 C204 92 188 103 188 189 C188 222 191 254 195 284 L54 279 C49 251 42 214 42 183 C42 33 113 -16 229 -16 C367 -16 426 60 426 201 L426 201 Z M356 918 L263 918 L215 866 L167 918 L73 918 L166 800 L264 800 L356 918 Z " />
<glyph glyph-name="scaron" unicode="&#x161;" horiz-adv-x="361" d="M343 155 C343 250 308 308 238 338 L199 355 C154 375 152 390 152 429 C152 456 162 471 179 471 C197 471 204 459 204 422 C204 408 202 386 201 379 L323 387 C325 397 325 406 325 425 C325 518 268 556 174 556 C89 556 18 507 18 407 C18 319 39 278 89 254 L124 237 C179 210 198 190 198 133 C198 95 193 77 169 77 C145 77 141 97 141 135 C141 149 144 168 148 188 L27 180 C23 158 21 145 21 122 C21 33 81 -10 174 -10 C287 -10 343 43 343 155 L343 155 Z M316 702 L223 702 L175 650 L127 702 L33 702 L126 584 L224 584 L316 702 Z " />
<glyph glyph-name="Ydieresis" unicode="&#x178;" horiz-adv-x="434" d="M371 800 L371 887 L267 887 L267 800 L371 800 Z M184 800 L184 887 L80 887 L80 800 L184 800 Z M432 768 L288 768 L225 504 L156 768 L-7 768 L137 298 L137 0 L295 0 L295 298 L432 768 Z " />
<glyph glyph-name="Zcaron" unicode="&#x17d;" horiz-adv-x="408" d="M384 0 L384 125 L191 125 L384 674 L384 768 L40 768 L40 648 L216 648 L13 92 L13 0 L384 0 Z M360 914 L267 914 L219 862 L171 914 L77 914 L170 796 L268 796 L360 914 Z " />
<glyph glyph-name="zcaron" unicode="&#x17e;" horiz-adv-x="316" d="M305 457 L305 547 L30 547 L30 463 L170 463 L12 75 L12 0 L302 0 L302 89 L153 89 L305 457 Z M318 702 L225 702 L177 650 L129 702 L35 702 L128 584 L226 584 L318 702 Z " />
<glyph glyph-name="florin" unicode="&#x192;" horiz-adv-x="357" d="M360 666 C360 739 305 776 226 776 C139 776 75 732 75 665 L75 436 L16 436 L16 358 L75 358 L75 -43 C75 -69 73 -90 50 -90 C33 -90 28 -81 28 -63 C28 -46 29 -31 33 -17 L-75 -18 C-81 -39 -82 -55 -82 -71 C-82 -144 -39 -181 69 -181 C163 -181 215 -134 215 -67 L215 358 L283 358 L283 436 L215 436 L215 655 C215 680 219 690 235 690 C254 690 257 674 257 639 C257 626 253 604 249 587 L349 599 C355 620 360 641 360 666 L360 666 Z " />
<glyph glyph-name="circumflex" unicode="&#x2c6;" horiz-adv-x="381" d="M341 584 L249 688 L126 688 L33 584 L130 584 L187 630 L245 584 L341 584 Z " />
<glyph glyph-name="caron" unicode="&#x2c7;" horiz-adv-x="381" d="M327 702 L234 702 L186 650 L138 702 L44 702 L137 584 L235 584 L327 702 Z " />
<glyph glyph-name="breve" unicode="&#x2d8;" horiz-adv-x="381" d="M328 691 L249 691 C249 671 222 652 190 652 C159 652 133 671 133 691 L54 691 C54 617 109 590 190 590 C271 590 328 618 328 691 L328 691 Z " />
<glyph glyph-name="dotaccent" unicode="&#x2d9;" horiz-adv-x="381" d="M256 590 L256 702 L140 702 L140 590 L256 590 Z " />
<glyph glyph-name="ring" unicode="&#x2da;" horiz-adv-x="381" d="M304 688 C304 750 254 800 192 800 C130 800 80 750 80 688 C80 626 130 576 192 576 C254 576 304 626 304 688 L304 688 Z M250 688 C250 656 224 630 192 630 C160 630 134 656 134 688 C134 720 160 746 192 746 C224 746 250 720 250 688 L250 688 Z " />
<glyph glyph-name="ogonek" unicode="&#x2db;" horiz-adv-x="381" d="M282 -90 L234 -64 C232 -72 228 -81 223 -87 C217 -95 207 -102 196 -102 C180 -102 172 -93 172 -75 C172 -51 196 -26 239 0 L190 0 C148 -16 109 -54 109 -90 C109 -125 141 -154 188 -154 C232 -154 263 -140 278 -104 C280 -99 282 -94 282 -90 L282 -90 Z " />
<glyph glyph-name="tilde" unicode="&#x2dc;" horiz-adv-x="381" d="M315 640 C315 659 306 675 306 675 L270 675 C270 673 270 671 270 668 C270 658 267 644 247 644 C236 644 226 648 216 654 C211 657 201 663 197 666 C179 677 160 683 128 683 C75 683 61 653 61 627 C61 608 70 595 70 595 L106 595 C106 597 106 601 106 605 C106 613 111 623 129 623 C145 623 153 617 164 611 C169 608 178 602 183 599 C196 591 213 584 238 584 C294 584 315 614 315 640 L315 640 Z " />
<glyph glyph-name="hungarumlaut" unicode="&#x2dd;" horiz-adv-x="381" d="M363 708 L252 708 L191 584 L256 584 L363 708 Z M226 708 L115 708 L73 584 L135 584 L226 708 Z " />
<glyph glyph-name="pi" unicode="&#x3c0;" horiz-adv-x="592" d="M567 497 C567 657 453 770 293 770 C143 770 19 658 19 497 C19 336 133 223 293 223 C451 223 567 339 567 497 L567 497 Z M536 497 C536 362 428 252 293 252 C158 252 55 362 55 497 C55 632 158 741 293 741 C428 741 536 632 536 497 L536 497 Z M418 578 C418 666 376 704 325 704 L202 704 L202 302 L283 302 L283 458 C293 457 307 457 317 457 C369 457 418 488 418 578 L418 578 Z M333 578 C333 532 320 519 302 519 L283 519 L283 646 C283 646 295 646 301 646 C317 646 333 633 333 578 L333 578 Z " />
<glyph glyph-name="endash" unicode="&#x2013;" horiz-adv-x="550" d="M550 291 L550 390 L0 390 L0 291 L550 291 Z " />
<glyph glyph-name="emdash" unicode="&#x2014;" horiz-adv-x="780" d="M780 291 L780 390 L0 390 L0 291 L780 291 Z " />
<glyph glyph-name="quoteleft" unicode="&#x2018;" horiz-adv-x="238" d="M189 475 L189 640 L123 640 C122 674 123 701 143 724 C158 742 172 751 180 756 L150 801 C139 796 130 790 118 781 C73 745 53 713 53 640 L53 475 L189 475 Z " />
<glyph glyph-name="quoteright" unicode="&#x2019;" horiz-adv-x="238" d="M184 603 L184 768 L49 768 L49 603 L113 603 C117 569 113 542 95 519 C81 501 68 492 58 487 L88 442 C100 447 109 453 120 462 C165 498 184 530 184 603 L184 603 Z " />
<glyph glyph-name="quotesinglbase" unicode="&#x201a;" horiz-adv-x="238" d="M184 0 L184 165 L49 165 L49 0 L113 0 C117 -34 113 -61 95 -84 C81 -102 67 -111 58 -116 L88 -161 C99 -156 109 -150 120 -141 C165 -105 184 -73 184 0 L184 0 Z " />
<glyph glyph-name="quotedblleft" unicode="&#x201c;" horiz-adv-x="425" d="M376 475 L376 640 L311 640 C308 674 312 700 330 724 C344 742 359 752 366 756 L337 801 C324 796 316 790 304 781 C260 745 240 713 240 640 L240 475 L376 475 Z M187 475 L187 640 L121 640 C119 674 122 701 141 724 C156 742 170 751 178 756 L148 801 C137 796 128 790 116 781 C71 745 51 713 51 640 L51 475 L187 475 Z " />
<glyph glyph-name="quotedblright" unicode="&#x201d;" horiz-adv-x="425" d="M374 603 L374 768 L238 768 L238 603 L304 603 C306 569 303 542 284 519 C269 501 256 492 247 487 L277 442 C286 446 297 453 309 462 C354 498 374 530 374 603 L374 603 Z M185 603 L185 768 L49 768 L49 603 L114 603 C117 569 113 543 95 519 C81 501 68 492 59 487 L88 442 C99 446 109 453 121 462 C165 498 185 530 185 603 L185 603 Z " />
<glyph glyph-name="quotedblbase" unicode="&#x201e;" horiz-adv-x="425" d="M378 0 L378 165 L242 165 L242 0 L308 0 C310 -34 307 -61 288 -84 C273 -102 260 -111 251 -116 L281 -161 C291 -157 302 -151 314 -141 C359 -106 378 -73 378 0 L378 0 Z M184 0 L184 165 L49 165 L49 0 L113 0 C117 -34 113 -61 95 -84 C81 -102 67 -111 58 -116 L88 -161 C99 -156 109 -150 120 -141 C165 -105 184 -73 184 0 L184 0 Z " />
<glyph glyph-name="dagger" unicode="&#x2020;" horiz-adv-x="407" d="M384 517 L384 617 L275 617 L275 774 L131 774 L131 617 L23 617 L23 517 L131 517 L131 -69 L275 -69 L275 517 L384 517 Z " />
<glyph glyph-name="daggerdbl" unicode="&#x2021;" horiz-adv-x="407" d="M384 150 L384 250 L275 250 L275 530 L384 530 L384 630 L275 630 L275 774 L131 774 L131 630 L23 630 L23 530 L131 530 L131 250 L23 250 L23 150 L131 150 L131 -59 L275 -59 L275 150 L384 150 Z " />
<glyph glyph-name="bullet" unicode="&#x2022;" horiz-adv-x="639" d="M562 379 C562 513 454 621 320 621 C186 621 78 513 78 379 C78 245 186 137 320 137 C454 137 562 245 562 379 L562 379 Z " />
<glyph glyph-name="ellipsis" unicode="&#x2026;" horiz-adv-x="795" d="M741 0 L741 165 L584 165 L584 0 L741 0 Z M476 0 L476 165 L319 165 L319 0 L476 0 Z M211 0 L211 165 L54 165 L54 0 L211 0 Z " />
<glyph glyph-name="perthousand" unicode="&#x2030;" horiz-adv-x="1036" d="M1018 194 C1018 378 965 423 869 423 C788 423 720 378 720 194 C720 27 780 -9 869 -9 C964 -9 1018 27 1018 194 L1018 194 Z M680 194 C680 378 627 423 531 423 C450 423 382 378 382 194 C382 27 442 -9 531 -9 C626 -9 680 27 680 194 L680 194 Z M656 760 L580 760 L46 0 L122 0 L656 760 Z M315 545 C315 729 261 774 166 774 C84 774 16 729 16 545 C16 378 76 342 166 342 C260 342 315 378 315 545 L315 545 Z M893 206 C893 76 892 65 868 65 C848 65 844 75 844 206 C844 336 847 349 868 349 C889 349 893 335 893 206 L893 206 Z M555 206 C555 76 554 65 530 65 C510 65 506 75 506 206 C506 336 509 349 530 349 C551 349 555 335 555 206 L555 206 Z M190 557 C190 427 188 416 164 416 C144 416 141 431 141 558 C141 688 141 700 164 700 C189 700 190 689 190 557 L190 557 Z " />
<glyph glyph-name="guilsinglleft" unicode="&#x2039;" horiz-adv-x="274" d="M231 35 L231 176 L148 265 L231 353 L231 494 L47 330 L47 201 L231 35 Z " />
<glyph glyph-name="guilsinglright" unicode="&#x203a;" horiz-adv-x="274" d="M226 201 L226 330 L42 494 L42 353 L126 265 L42 176 L42 35 L226 201 Z " />
<glyph glyph-name="fraction" unicode="&#x2044;" horiz-adv-x="250" d="M402 774 L319 774 L-152 -9 L-68 -9 L402 774 Z " />
<glyph glyph-name="trademark" unicode="&#x2122;" horiz-adv-x="563" d="M523 537 L523 768 L413 768 L393 680 L393 670 L388 670 L388 680 L369 768 L254 768 L254 537 L325 537 L325 683 L362 537 L418 537 L453 683 L453 537 L523 537 Z M228 722 L228 768 L26 768 L26 722 L87 722 L87 537 L166 537 L166 722 L228 722 Z " />
<glyph glyph-name="Omega" unicode="&#x2126;" horiz-adv-x="332" d="M298 371 C298 590 239 767 166 767 C94 767 34 590 34 371 C34 155 94 -22 166 -22 C239 -22 298 155 298 371 L298 371 Z M279 314 L208 290 L191 23 L155 251 L67 203 L121 379 L75 551 L155 506 L212 674 L215 435 L279 314 Z " />
<glyph glyph-name="partialdiff" unicode="&#x2202;" horiz-adv-x="332" d="M298 371 C298 590 239 767 166 767 C94 767 34 590 34 371 C34 155 94 -22 166 -22 C239 -22 298 155 298 371 L298 371 Z M279 314 L208 290 L191 23 L155 251 L67 203 L121 379 L75 551 L155 506 L212 674 L215 435 L279 314 Z " />
<glyph glyph-name="Delta" unicode="&#x2206;" horiz-adv-x="332" d="M298 371 C298 590 239 767 166 767 C94 767 34 590 34 371 C34 155 94 -22 166 -22 C239 -22 298 155 298 371 L298 371 Z M279 314 L208 290 L191 23 L155 251 L67 203 L121 379 L75 551 L155 506 L212 674 L215 435 L279 314 Z " />
<glyph glyph-name="product" unicode="&#x220f;" horiz-adv-x="332" d="M298 371 C298 590 239 767 166 767 C94 767 34 590 34 371 C34 155 94 -22 166 -22 C239 -22 298 155 298 371 L298 371 Z M279 314 L208 290 L191 23 L155 251 L67 203 L121 379 L75 551 L155 506 L212 674 L215 435 L279 314 Z " />
<glyph glyph-name="summation" unicode="&#x2211;" horiz-adv-x="332" d="M298 371 C298 590 239 767 166 767 C94 767 34 590 34 371 C34 155 94 -22 166 -22 C239 -22 298 155 298 371 L298 371 Z M279 314 L208 290 L191 23 L155 251 L67 203 L121 379 L75 551 L155 506 L212 674 L215 435 L279 314 Z " />
<glyph glyph-name="minus" unicode="&#x2212;" horiz-adv-x="332" d="M298 371 C298 590 239 767 166 767 C94 767 34 590 34 371 C34 155 94 -22 166 -22 C239 -22 298 155 298 371 L298 371 Z M279 314 L208 290 L191 23 L155 251 L67 203 L121 379 L75 551 L155 506 L212 674 L215 435 L279 314 Z " />
<glyph glyph-name="radical" unicode="&#x221a;" horiz-adv-x="745" d="M814 931 L665 868 C571 731 505 605 446 467 C388 333 328 156 291 -2 L156 330 L0 264 L249 -144 L354 -100 C389 66 449 238 536 445 C600 597 722 828 814 931 L814 931 Z " />
<glyph glyph-name="infinity" unicode="&#x221e;" horiz-adv-x="648" d="M618 0 L618 547 L477 547 L477 0 L618 0 Z M598 666 C592 737 548 774 444 774 C394 774 363 765 334 748 C306 764 260 776 219 776 C119 776 61 726 61 653 L61 547 L2 547 L2 469 L61 469 L61 0 L201 0 L201 469 L269 469 L269 0 L409 0 L409 469 L458 469 L458 547 L409 547 L409 643 C409 668 417 690 447 690 C469 690 484 674 484 639 C484 626 480 604 476 587 L587 599 C593 617 600 642 598 666 L598 666 Z M275 678 C272 671 269 657 269 645 L269 547 L201 547 L201 651 C201 680 214 690 236 690 C253 690 266 686 275 678 L275 678 Z " />
<glyph glyph-name="integral" unicode="&#x222b;" horiz-adv-x="332" d="M298 371 C298 590 239 767 166 767 C94 767 34 590 34 371 C34 155 94 -22 166 -22 C239 -22 298 155 298 371 L298 371 Z M279 314 L208 290 L191 23 L155 251 L67 203 L121 379 L75 551 L155 506 L212 674 L215 435 L279 314 Z " />
<glyph glyph-name="approxequal" unicode="&#x2248;" horiz-adv-x="332" d="M298 371 C298 590 239 767 166 767 C94 767 34 590 34 371 C34 155 94 -22 166 -22 C239 -22 298 155 298 371 L298 371 Z M279 314 L208 290 L191 23 L155 251 L67 203 L121 379 L75 551 L155 506 L212 674 L215 435 L279 314 Z " />
<glyph glyph-name="notequal" unicode="&#x2260;" horiz-adv-x="482" d="M554 666 C554 739 499 776 420 776 C377 776 347 769 320 750 C293 765 253 776 212 776 C120 776 61 723 61 656 L61 547 L2 547 L2 469 L61 469 L61 0 L201 0 L201 469 L269 469 L269 0 L409 0 L409 469 L477 469 L477 547 L409 547 L409 655 C409 680 413 690 429 690 C448 690 451 674 451 639 C451 626 447 604 443 587 L543 599 C549 620 554 641 554 666 L554 666 Z M270 679 C269 675 269 670 269 665 L269 547 L201 547 L201 651 C201 676 212 690 233 690 C250 690 261 685 270 679 L270 679 Z " />
<glyph glyph-name="lessequal" unicode="&#x2264;" horiz-adv-x="332" d="M298 371 C298 590 239 767 166 767 C94 767 34 590 34 371 C34 155 94 -22 166 -22 C239 -22 298 155 298 371 L298 371 Z M279 314 L208 290 L191 23 L155 251 L67 203 L121 379 L75 551 L155 506 L212 674 L215 435 L279 314 Z " />
<glyph glyph-name="greaterequal" unicode="&#x2265;" horiz-adv-x="332" d="M298 371 C298 590 239 767 166 767 C94 767 34 590 34 371 C34 155 94 -22 166 -22 C239 -22 298 155 298 371 L298 371 Z M279 314 L208 290 L191 23 L155 251 L67 203 L121 379 L75 551 L155 506 L212 674 L215 435 L279 314 Z " />
<glyph glyph-name="lozenge" unicode="&#x25ca;" horiz-adv-x="332" d="M298 371 C298 590 239 767 166 767 C94 767 34 590 34 371 C34 155 94 -22 166 -22 C239 -22 298 155 298 371 L298 371 Z M279 314 L208 290 L191 23 L155 251 L67 203 L121 379 L75 551 L155 506 L212 674 L215 435 L279 314 Z " />
<glyph glyph-name="fi" unicode="&#xfb01;" horiz-adv-x="442" d="M410 0 L410 547 L269 547 L269 0 L410 0 Z M390 658 C390 732 344 774 236 774 C121 774 61 714 61 637 L61 547 L2 547 L2 469 L61 469 L61 0 L201 0 L201 469 L250 469 L250 547 L201 547 L201 643 C201 668 209 690 239 690 C261 690 276 674 276 639 C276 626 272 604 268 587 L379 599 C384 616 390 636 390 658 L390 658 Z " />
<glyph glyph-name="fl" unicode="&#xfb02;" horiz-adv-x="446" d="M414 0 L414 768 L303 768 C285 772 260 774 236 774 C121 774 61 714 61 637 L61 547 L2 547 L2 469 L61 469 L61 0 L201 0 L201 469 L250 469 L250 547 L201 547 L201 643 C201 668 209 690 239 690 C252 690 267 685 273 673 L273 0 L414 0 Z " />
</font>
</svg>
