<?xml version="1.0" encoding="UTF-8"?>
<svg xmlns="http://www.w3.org/2000/svg" xmlns:xlink="http://www.w3.org/1999/xlink" version="1.2" >
<font id="BureauGrotesque-OneOne">
<font-face  font-family="BureauGrotesque" units-per-em="1000" ascent="750" descent="-250" font-style="normal" font-weight="400" font-stretch="normal" cap-height="750" x-height="500" underline-position="-123" underline-thickness="20" />
<missing-glyph  horiz-adv-x="500" d="" />
<glyph glyph-name="CR" unicode="&#xd;" horiz-adv-x="250" d="" />
<glyph glyph-name="space" unicode="&#x20;" horiz-adv-x="170" d="" />
<glyph glyph-name="exclam" unicode="&#x21;" horiz-adv-x="152" d="M111 484 L111 768 L41 768 L41 484 L57 253 L95 253 L111 484 Z M112 0 L112 135 L40 135 L40 0 L112 0 Z " />
<glyph glyph-name="quotedbl" unicode="&#x22;" horiz-adv-x="230" d="M199 768 L139 768 L144 593 L194 593 L199 768 Z M91 768 L31 768 L36 593 L86 593 L91 768 Z " />
<glyph glyph-name="numbersign" unicode="&#x23;" horiz-adv-x="376" d="M368 551 L290 551 L312 768 L270 768 L247 551 L164 551 L187 768 L145 768 L122 551 L40 551 L32 473 L114 473 L96 304 L19 304 L11 226 L88 226 L64 0 L106 0 L130 226 L213 226 L189 0 L232 0 L256 226 L338 226 L346 304 L264 304 L282 473 L360 473 L368 551 Z M239 473 L221 304 L138 304 L156 473 L239 473 Z " />
<glyph glyph-name="dollar" unicode="&#x24;" horiz-adv-x="316" d="M296 241 C296 326 265 396 161 463 L161 697 C190 693 209 666 209 562 C209 546 208 524 207 519 L267 527 C270 545 273 568 273 587 C273 684 236 738 161 744 L161 779 L131 779 L131 743 C70 734 20 677 20 564 C20 489 53 441 131 388 L131 88 C91 114 84 166 84 229 C84 253 87 282 88 289 L29 278 C27 264 24 235 24 204 C24 92 81 43 131 32 L131 3 L161 3 L161 30 C249 34 296 101 296 241 L296 241 Z M131 479 C99 502 80 543 80 581 C80 654 103 687 131 695 L131 479 Z M231 208 C231 139 207 83 161 81 L161 368 C206 335 231 279 231 208 L231 208 Z " />
<glyph glyph-name="percent" unicode="&#x25;" horiz-adv-x="475" d="M202 553 C202 723 172 774 107 774 C42 774 12 723 12 553 C12 403 42 352 107 352 C172 352 202 403 202 553 L202 553 Z M450 760 L400 760 L22 0 L72 0 L450 760 Z M462 192 C462 362 432 413 367 413 C302 413 272 362 272 192 C272 42 302 -9 367 -9 C432 -9 462 42 462 192 L462 192 Z M142 562 C142 428 132 405 107 405 C82 405 72 428 72 562 C72 698 82 721 107 721 C132 721 142 698 142 562 L142 562 Z M402 201 C402 67 392 44 367 44 C342 44 332 67 332 201 C332 337 342 360 367 360 C392 360 402 337 402 201 L402 201 Z " />
<glyph glyph-name="ampersand" unicode="&#x26;" horiz-adv-x="411" d="M402 84 C402 108 399 138 392 173 L332 163 C339 134 342 116 342 95 C342 70 336 57 328 56 C316 54 300 81 291 121 C344 258 361 398 361 518 L301 518 C306 467 285 271 259 201 L193 453 C255 522 297 580 297 653 C297 736 265 779 201 779 C149 779 103 722 103 623 C103 562 113 518 126 472 C55 396 13 317 13 197 C13 55 78 -9 145 -9 C184 -9 226 15 250 55 C268 13 288 -12 323 -12 C377 -12 402 15 402 84 L402 84 Z M240 645 C240 599 220 562 178 518 C167 571 165 598 165 627 C165 691 189 724 208 724 C229 724 240 698 240 645 L240 645 Z M225 120 C208 81 181 59 155 59 C116 59 83 101 83 199 C83 299 101 353 143 410 L225 120 Z " />
<glyph glyph-name="quotesingle" unicode="&#x27;" horiz-adv-x="122" d="M91 768 L31 768 L36 593 L86 593 L91 768 Z " />
<glyph glyph-name="parenleft" unicode="&#x28;" horiz-adv-x="209" d="M196 -116 C142 17 120 112 120 325 C120 537 142 633 196 766 L177 790 C104 696 46 558 46 325 C46 92 104 -46 177 -140 L196 -116 Z " />
<glyph glyph-name="parenright" unicode="&#x29;" horiz-adv-x="209" d="M163 325 C163 558 105 696 32 790 L13 766 C67 633 89 537 89 325 C89 112 67 17 13 -116 L32 -140 C105 -46 163 92 163 325 L163 325 Z " />
<glyph glyph-name="asterisk" unicode="&#x2a;" horiz-adv-x="255" d="M219 643 L177 670 L219 695 L192 738 L152 714 L152 768 L102 768 L102 714 L62 738 L35 695 L77 670 L35 643 L62 601 L102 625 L102 571 L152 571 L152 625 L192 600 L219 643 Z " />
<glyph glyph-name="plus" unicode="&#x2b;" horiz-adv-x="378" d="M337 315 L337 373 L220 373 L220 504 L158 504 L158 373 L41 373 L41 315 L158 315 L158 183 L220 183 L220 315 L337 315 Z " />
<glyph glyph-name="comma" unicode="&#x2c;" horiz-adv-x="151" d="M111 -4 C111 46 111 132 111 132 L41 132 L41 0 L68 0 C68 -34 65 -43 50 -68 L72 -102 C96 -78 111 -44 111 -4 L111 -4 Z " />
<glyph glyph-name="hyphen" unicode="&#x2d;" horiz-adv-x="263" d="M240 315 L240 373 L23 373 L23 315 L240 315 Z " />
<glyph glyph-name="period" unicode="&#x2e;" horiz-adv-x="150" d="M109 0 L109 132 L41 132 L41 0 L109 0 Z " />
<glyph glyph-name="slash" unicode="&#x2f;" horiz-adv-x="253" d="M252 768 L206 768 L1 0 L47 0 L252 768 Z " />
<glyph glyph-name="zero" unicode="0" horiz-adv-x="278" d="M258 369 C258 681 238 776 138 776 C38 776 20 681 20 369 C20 69 38 -9 138 -9 C238 -9 258 69 258 369 L258 369 Z M187 380 C187 110 183 45 139 45 C94 45 91 110 91 380 C91 635 93 725 138 725 C183 725 187 635 187 380 L187 380 Z " />
<glyph glyph-name="one" unicode="1" horiz-adv-x="229" d="M181 0 L181 774 L145 774 C124 713 78 675 12 659 L12 617 C43 617 91 628 113 641 C113 630 113 0 113 0 L181 0 Z " />
<glyph glyph-name="two" unicode="2" horiz-adv-x="278" d="M258 563 C258 710 221 776 137 776 C59 776 15 713 15 583 C15 547 20 479 24 453 L89 455 C85 494 81 546 81 577 C81 656 90 715 134 715 C175 715 188 673 188 563 C188 481 171 376 137 285 C114 225 64 116 22 55 L22 0 L256 0 L256 68 L99 68 C192 215 258 385 258 563 L258 563 Z " />
<glyph glyph-name="three" unicode="3" horiz-adv-x="282" d="M267 227 C267 362 238 415 174 436 C222 459 252 532 252 599 C252 698 219 771 135 771 C60 771 22 717 20 636 C20 613 22 587 28 560 L92 563 C88 585 87 606 87 624 C87 681 105 716 133 716 C164 716 182 688 182 603 C182 531 159 480 125 461 C117 456 99 450 81 447 L88 385 C100 389 108 390 122 390 C178 390 196 309 196 238 C196 161 191 108 180 80 C171 57 157 47 136 47 C114 47 99 59 91 83 C84 103 81 133 81 175 C81 208 86 244 88 260 L21 257 C17 227 15 197 15 160 C15 103 25 60 46 33 C68 4 94 -9 133 -9 C178 -9 206 6 228 38 C258 82 267 151 267 227 L267 227 Z " />
<glyph glyph-name="four" unicode="4" horiz-adv-x="293" d="M287 176 L287 238 L237 238 L237 768 L160 768 L12 264 L12 176 L171 176 L171 0 L237 0 L237 176 L287 176 Z M171 238 L66 238 L171 604 L171 238 Z " />
<glyph glyph-name="five" unicode="5" horiz-adv-x="285" d="M265 301 C265 485 229 557 159 557 C135 557 111 549 96 516 L114 705 L242 705 L249 768 L59 768 L27 383 L87 374 C94 447 105 493 142 493 C179 493 195 439 195 302 C195 91 170 53 132 53 C90 53 83 107 83 173 C83 201 85 231 88 253 L22 241 C18 218 15 186 15 155 C15 45 54 -9 130 -9 C212 -9 265 55 265 301 L265 301 Z " />
<glyph glyph-name="six" unicode="6" horiz-adv-x="287" d="M269 250 C269 419 231 485 160 485 C128 485 106 468 90 435 C90 559 103 720 144 720 C178 720 190 698 190 635 C190 607 186 585 184 573 L245 575 C249 598 253 619 253 642 C253 738 218 776 150 776 C73 776 20 715 20 387 C20 85 50 -9 145 -9 C224 -9 269 49 269 250 L269 250 Z M198 241 C198 86 184 50 146 50 C110 50 92 97 92 241 C92 387 107 428 144 428 C183 428 198 390 198 241 L198 241 Z " />
<glyph glyph-name="seven" unicode="7" horiz-adv-x="257" d="M254 719 L254 768 L0 768 C0 751 0 721 0 701 L192 701 C126 540 71 332 71 103 C71 60 74 18 77 0 L158 0 C153 39 148 95 148 152 C148 363 189 554 254 719 L254 719 Z " />
<glyph glyph-name="eight" unicode="8" horiz-adv-x="288" d="M270 213 C270 346 254 403 204 423 C237 438 259 480 259 578 C259 717 215 776 144 776 C73 776 29 715 29 579 C29 476 50 436 83 423 C41 405 18 349 18 213 C18 50 53 -9 144 -9 C235 -9 270 48 270 213 L270 213 Z M191 583 C189 489 176 449 144 449 C113 449 97 484 97 583 C97 682 109 722 144 722 C178 722 191 685 191 583 L191 583 Z M201 222 C201 74 183 46 144 46 C105 46 86 73 86 222 C86 358 105 397 144 397 C183 397 201 353 201 222 L201 222 Z " />
<glyph glyph-name="nine" unicode="9" horiz-adv-x="287" d="M267 380 C267 678 239 776 142 776 C62 776 18 711 18 517 C18 347 56 282 127 282 C161 282 184 300 197 332 C197 91 173 47 141 47 C109 47 97 69 97 132 C97 160 101 182 103 194 L42 192 C38 169 34 148 34 125 C34 33 62 -9 137 -9 C215 -9 267 45 267 380 L267 380 Z M195 526 C195 382 185 339 143 339 C102 339 89 381 89 526 C89 683 107 717 141 717 C177 717 195 659 195 526 L195 526 Z " />
<glyph glyph-name="colon" unicode="&#x3a;" horiz-adv-x="152" d="M111 419 L111 551 L41 551 L41 419 L111 419 Z M111 0 L111 132 L41 132 L41 0 L111 0 Z " />
<glyph glyph-name="semicolon" unicode="&#x3b;" horiz-adv-x="152" d="M111 419 L111 551 L41 551 L41 419 L111 419 Z M111 -4 C111 46 111 132 111 132 L41 132 L41 0 L68 0 C68 -34 65 -43 50 -68 L72 -102 C96 -78 111 -44 111 -4 L111 -4 Z " />
<glyph glyph-name="less" unicode="&#x3c;" horiz-adv-x="220" d="M191 123 L191 208 L69 341 L191 475 L191 559 L18 371 L18 310 L191 123 Z " />
<glyph glyph-name="equal" unicode="&#x3d;" horiz-adv-x="343" d="M304 386 L304 448 L45 448 L45 386 L304 386 Z M304 235 L304 297 L45 297 L45 235 L304 235 Z " />
<glyph glyph-name="greater" unicode="&#x3e;" horiz-adv-x="220" d="M201 310 L201 371 L28 559 L28 475 L150 341 L28 208 L28 123 L201 310 Z " />
<glyph glyph-name="question" unicode="&#x3f;" horiz-adv-x="260" d="M248 536 C248 736 199 779 128 779 C50 779 18 726 18 647 C18 616 21 591 25 577 L88 574 C86 589 82 616 82 636 C82 700 92 719 125 719 C162 719 177 691 177 573 C177 459 170 395 139 395 C105 395 96 422 93 491 L45 491 L45 243 L97 243 L95 372 C106 345 131 330 158 330 C214 330 248 378 248 536 L248 536 Z M109 0 L109 132 L39 132 L39 0 L109 0 Z " />
<glyph glyph-name="at" unicode="&#x40;" horiz-adv-x="588" d="M557 413 C557 665 453 768 307 768 C149 768 35 631 35 340 C35 42 127 -74 304 -74 C378 -74 420 -46 471 9 L448 33 C408 -16 359 -41 307 -41 C157 -41 74 71 74 339 C74 593 172 736 303 736 C434 736 523 631 523 407 C523 249 472 175 430 175 C408 175 396 194 398 222 C402 263 420 448 420 451 C426 516 397 580 319 580 C235 580 197 528 194 461 C194 449 196 434 197 424 L261 445 C253 489 269 523 312 523 C344 523 356 490 353 453 C353 450 348 407 348 407 C309 402 272 395 244 379 C195 353 162 308 162 224 C162 152 199 127 245 127 C300 127 333 183 341 202 C345 154 370 127 417 127 C492 127 557 228 557 413 L557 413 Z M344 366 C343 354 337 295 335 274 C331 230 306 188 263 188 C240 188 229 205 230 253 C232 292 248 319 275 338 C295 351 320 361 344 366 L344 366 Z " />
<glyph glyph-name="A" unicode="A" horiz-adv-x="276" d="M265 0 L169 774 L100 774 L11 0 L76 0 L88 138 L178 138 L192 0 L265 0 Z M171 199 L95 199 L134 611 L171 199 Z " />
<glyph glyph-name="B" unicode="B" horiz-adv-x="313" d="M294 217 C294 332 253 404 203 410 C252 422 278 481 278 565 C278 692 249 768 148 768 C105 768 37 768 37 768 L37 0 C37 0 111 0 156 0 C247 0 294 64 294 217 L294 217 Z M208 565 C208 486 193 439 154 439 C136 439 106 439 106 439 L106 712 C106 712 127 712 141 712 C194 712 208 665 208 565 L208 565 Z M219 225 C219 88 198 58 151 58 C133 58 106 58 106 58 L106 383 C106 383 134 383 152 383 C197 383 219 309 219 225 L219 225 Z " />
<glyph glyph-name="C" unicode="C" horiz-adv-x="278" d="M255 323 L192 323 C210 134 187 47 151 47 C99 47 95 154 95 376 C95 649 110 721 146 721 C190 721 203 651 189 482 L251 484 C264 656 260 779 148 779 C50 779 22 678 22 358 C22 78 47 -12 147 -12 C257 -12 275 128 255 323 L255 323 Z " />
<glyph glyph-name="D" unicode="D" horiz-adv-x="313" d="M291 345 C291 718 234 768 145 768 C104 768 37 768 37 768 L37 0 C37 0 106 0 151 0 C260 0 291 64 291 345 L291 345 Z M218 327 C218 83 197 60 138 60 C126 60 107 60 107 60 L107 712 C107 712 125 712 135 712 C195 712 218 640 218 327 L218 327 Z " />
<glyph glyph-name="E" unicode="E" horiz-adv-x="247" d="M242 0 L242 59 L106 59 L106 362 L212 362 L212 421 L106 421 L106 709 L226 709 L226 768 L37 768 L37 0 L242 0 Z " />
<glyph glyph-name="F" unicode="F" horiz-adv-x="230" d="M225 709 L225 768 L37 768 L37 0 L107 0 L107 356 L204 356 L204 418 L107 418 L107 709 L225 709 Z " />
<glyph glyph-name="G" unicode="G" horiz-adv-x="298" d="M272 -6 L272 390 L144 390 L144 335 L206 335 C206 335 206 225 206 164 C206 82 195 44 156 44 C112 44 94 74 94 362 C94 683 110 723 154 723 C185 723 198 680 198 585 C198 560 197 531 195 499 L259 503 C261 534 262 562 262 588 C262 718 235 779 154 779 C55 779 22 698 22 351 C22 37 58 -12 150 -12 C192 -12 218 15 228 43 L240 -6 L272 -6 Z " />
<glyph glyph-name="H" unicode="H" horiz-adv-x="318" d="M281 0 L281 768 L211 768 L211 429 L107 429 L107 768 L37 768 L37 0 L107 0 L107 367 L211 367 L211 0 L281 0 Z " />
<glyph glyph-name="I" unicode="I" horiz-adv-x="144" d="M107 0 L107 768 L37 768 L37 0 L107 0 Z " />
<glyph glyph-name="J" unicode="J" horiz-adv-x="284" d="M249 155 C249 208 249 768 249 768 L179 768 C179 768 179 288 179 175 C179 71 167 47 130 47 C99 47 82 68 82 149 C82 194 86 244 94 278 L26 276 C20 248 13 194 13 160 C13 34 52 -12 132 -12 C214 -12 249 39 249 155 L249 155 Z " />
<glyph glyph-name="K" unicode="K" horiz-adv-x="303" d="M309 0 L168 417 L298 768 L227 768 L107 429 L107 768 L37 768 L37 0 L107 0 L107 380 L234 0 L309 0 Z " />
<glyph glyph-name="L" unicode="L" horiz-adv-x="250" d="M250 0 L250 60 L107 60 L107 768 L37 768 L37 0 L250 0 Z " />
<glyph glyph-name="M" unicode="M" horiz-adv-x="382" d="M345 0 L345 768 L264 768 L192 230 L118 768 L37 768 L37 0 L100 0 L100 500 L171 0 L213 0 L282 500 L282 0 L345 0 Z " />
<glyph glyph-name="N" unicode="N" horiz-adv-x="305" d="M268 0 L268 768 L206 768 L206 265 L101 768 L37 768 L37 0 L100 0 L100 505 L208 0 L268 0 Z " />
<glyph glyph-name="O" unicode="O" horiz-adv-x="293" d="M271 378 C271 682 250 779 146 779 C42 779 22 682 22 378 C22 74 42 -12 146 -12 C250 -12 271 74 271 378 L271 378 Z M198 380 C198 112 201 45 146 45 C91 45 95 112 95 380 C95 634 91 724 145 724 C201 724 198 634 198 380 L198 380 Z " />
<glyph glyph-name="P" unicode="P" horiz-adv-x="291" d="M278 547 C278 710 236 768 162 768 C110 768 37 768 37 768 L37 0 L107 0 L107 341 C107 341 134 341 154 341 C232 341 278 368 278 547 L278 547 Z M209 543 C209 437 196 396 148 396 C132 396 107 396 107 396 L107 712 C107 712 126 712 138 712 C188 712 209 675 209 543 L209 543 Z " />
<glyph glyph-name="Q" unicode="Q" horiz-adv-x="294" d="M271 378 C271 682 250 779 146 779 C40 779 22 682 22 378 C22 83 44 8 114 -8 C111 -25 107 -46 107 -69 C107 -134 145 -156 185 -156 C234 -156 254 -121 254 -86 C254 -73 252 -60 247 -48 L216 -48 C217 -55 218 -67 218 -73 C218 -98 210 -112 190 -112 C165 -112 153 -94 153 -57 C153 -45 155 -23 158 -11 C250 -1 271 77 271 378 L271 378 Z M199 380 C199 119 200 43 146 43 C90 43 94 112 94 380 C94 622 90 724 145 724 C200 724 199 620 199 380 L199 380 Z " />
<glyph glyph-name="R" unicode="R" horiz-adv-x="309" d="M302 0 C273 42 270 117 268 217 C268 329 257 383 202 394 C258 405 283 454 283 573 C283 700 249 768 159 768 C114 768 37 768 37 768 L37 0 L107 0 L107 371 C107 371 133 371 147 371 C185 371 199 336 199 267 C199 224 199 171 199 141 C199 85 210 26 224 0 L302 0 Z M212 550 C212 459 196 425 157 425 C138 425 107 425 107 425 L107 716 C107 716 134 716 149 716 C193 716 212 671 212 550 L212 550 Z " />
<glyph glyph-name="S" unicode="S" horiz-adv-x="283" d="M271 200 C271 322 241 379 163 445 C105 494 84 507 84 614 C84 692 102 726 133 726 C165 726 184 692 184 612 C184 592 183 555 180 535 L242 546 C246 567 249 603 249 621 C249 717 215 779 133 779 C58 779 14 714 14 585 C14 485 45 434 112 380 C179 326 201 278 201 173 C201 62 174 45 145 45 C109 45 90 65 90 161 C90 198 93 248 97 278 L33 270 C28 243 23 193 23 164 C23 27 70 -12 143 -12 C233 -12 271 63 271 200 L271 200 Z " />
<glyph glyph-name="T" unicode="T" horiz-adv-x="271" d="M265 709 L265 768 L6 768 L6 709 L100 709 L100 0 L171 0 L171 709 L265 709 Z " />
<glyph glyph-name="U" unicode="U" horiz-adv-x="320" d="M285 124 C285 375 285 768 285 768 L215 768 C215 768 215 371 215 118 C215 74 201 48 160 48 C119 48 105 73 105 118 C105 371 105 768 105 768 L35 768 C35 768 35 375 35 124 C35 35 70 -12 160 -12 C250 -12 285 36 285 124 L285 124 Z " />
<glyph glyph-name="V" unicode="V" horiz-adv-x="272" d="M270 768 L204 768 L139 151 L71 768 L2 768 L103 -5 L170 -5 L270 768 Z " />
<glyph glyph-name="W" unicode="W" horiz-adv-x="386" d="M380 768 L319 768 C319 768 296 513 292 461 C289 419 274 210 274 210 C274 210 255 418 251 461 C247 512 227 720 223 768 L163 768 C159 720 139 512 134 458 C130 417 111 210 111 210 C111 210 98 417 96 460 C93 512 71 768 71 768 L6 768 L78 -3 L140 -3 C140 -3 164 232 168 276 C181 424 193 552 193 552 C193 552 203 424 217 276 C221 232 244 -3 244 -3 L302 -3 L380 768 Z " />
<glyph glyph-name="X" unicode="X" horiz-adv-x="268" d="M270 0 L173 398 L266 768 L198 768 L136 479 L77 768 L8 768 L90 399 L-1 0 L68 0 L129 315 L200 0 L270 0 Z " />
<glyph glyph-name="Y" unicode="Y" horiz-adv-x="282" d="M281 768 L212 768 L143 410 L70 768 L-3 768 L106 301 L106 0 L176 0 L176 302 L281 768 Z " />
<glyph glyph-name="Z" unicode="Z" horiz-adv-x="257" d="M247 706 L247 768 L26 768 L26 709 L179 709 L7 61 L7 0 L244 0 L244 60 L75 60 L247 706 Z " />
<glyph glyph-name="bracketleft" unicode="&#x5b;" horiz-adv-x="194" d="M175 -166 L175 -107 L104 -107 L104 709 L175 709 L175 768 L41 768 L41 -166 L175 -166 Z " />
<glyph glyph-name="backslash" unicode="&#x5c;" horiz-adv-x="253" d="M252 0 L47 768 L1 768 L206 0 L252 0 Z " />
<glyph glyph-name="bracketright" unicode="&#x5d;" horiz-adv-x="194" d="M153 -166 L153 768 L20 768 L20 709 L90 709 L90 -107 L20 -107 L20 -166 L153 -166 Z " />
<glyph glyph-name="asciicircum" unicode="&#x5e;" horiz-adv-x="237" d="M204 644 L147 768 L94 768 L36 644 L87 644 L120 714 L153 644 L204 644 Z " />
<glyph glyph-name="underscore" unicode="&#x5f;" horiz-adv-x="331" d="M332 -190 L332 -140 L0 -140 L0 -190 L332 -190 Z " />
<glyph glyph-name="grave" unicode="&#x60;" horiz-adv-x="315" d="M197 662 L173 768 L101 768 L159 662 L197 662 Z " />
<glyph glyph-name="a" unicode="a" horiz-adv-x="249" d="M248 6 L248 43 C243 39 237 36 229 36 C216 36 212 48 212 77 C212 97 212 330 212 453 C212 516 190 557 125 557 C62 557 28 525 28 442 C28 417 32 397 35 386 L90 389 C87 404 84 429 84 446 C84 498 96 517 120 517 C144 517 152 497 152 437 C152 401 151 381 150 361 C149 344 147 343 121 330 C55 296 17 256 17 159 C17 89 25 49 41 24 C58 -2 79 -8 104 -8 C136 -8 148 9 160 26 C165 4 182 -8 203 -8 C221 -8 238 -1 248 6 L248 6 Z M151 89 C151 65 140 37 117 37 C89 37 79 57 79 147 C79 232 92 276 151 301 C151 301 151 164 151 89 L151 89 Z " />
<glyph glyph-name="b" unicode="b" horiz-adv-x="254" d="M234 275 C234 509 202 557 144 557 C117 557 98 541 84 514 C84 526 84 768 84 768 L23 768 L23 0 L41 0 L66 41 C80 7 104 -7 133 -7 C203 -7 234 50 234 275 L234 275 Z M170 276 C170 78 165 40 126 40 C105 40 91 55 86 93 C83 117 82 159 82 275 C82 480 97 511 127 511 C162 511 170 476 170 276 L170 276 Z " />
<glyph glyph-name="c" unicode="c" horiz-adv-x="238" d="M222 152 C222 177 218 212 215 226 L160 229 C161 214 164 174 164 158 C164 59 157 34 129 34 C93 34 84 61 84 270 C84 478 92 513 124 513 C155 513 158 473 158 408 C158 389 156 365 155 352 L212 354 C214 366 216 394 216 411 C216 517 190 557 124 557 C53 557 20 512 20 281 C20 43 45 -9 126 -9 C205 -9 222 38 222 152 L222 152 Z " />
<glyph glyph-name="d" unicode="d" horiz-adv-x="257" d="M232 0 L232 768 L170 768 C170 768 170 524 170 512 C156 544 140 557 115 557 C59 557 20 504 20 269 C20 48 49 -7 113 -7 C139 -7 165 15 173 50 L173 0 L232 0 Z M171 275 C171 89 158 40 127 40 C94 40 84 81 84 276 C84 470 93 510 127 510 C161 510 171 448 171 275 L171 275 Z " />
<glyph glyph-name="e" unicode="e" horiz-adv-x="242" d="M223 126 C223 149 221 183 219 195 L166 197 C167 184 169 165 169 152 C169 59 160 34 130 34 C83 34 82 146 82 264 L219 264 C220 275 222 308 222 337 C222 491 198 557 125 557 C53 557 20 504 20 249 C20 27 52 -9 130 -9 C195 -9 223 36 223 126 L223 126 Z M165 382 C165 354 165 330 163 306 L81 306 C81 454 92 514 124 514 C152 514 165 485 165 382 L165 382 Z " />
<glyph glyph-name="f" unicode="f" horiz-adv-x="161" d="M206 677 C206 743 178 776 126 776 C75 776 43 747 43 666 C43 645 43 551 43 551 L2 551 L2 505 L43 505 L43 0 L105 0 L105 505 L163 505 L163 551 L105 551 C105 551 105 659 105 673 C105 714 113 728 128 728 C147 728 155 708 155 670 C155 658 153 637 152 625 L203 631 C205 646 206 660 206 677 L206 677 Z " />
<glyph glyph-name="g" unicode="g" horiz-adv-x="280" d="M292 593 L235 593 L215 522 C201 543 171 557 143 557 C73 557 29 489 29 367 C29 279 50 229 74 211 C46 197 15 174 15 133 C15 98 36 77 63 69 C26 45 0 -6 0 -54 C0 -154 59 -200 145 -200 C225 -200 280 -151 280 -29 C280 68 236 123 170 123 C163 123 123 123 120 123 C92 123 77 133 77 153 C77 172 89 184 107 194 C117 191 135 189 146 189 C216 189 254 242 254 367 C254 423 248 463 236 487 L292 593 Z M190 370 C190 269 178 236 139 236 C101 236 92 273 92 370 C92 471 108 508 143 508 C177 508 190 479 190 370 L190 370 Z M221 -49 C221 -116 190 -155 144 -155 C91 -155 57 -121 57 -44 C57 -8 73 34 101 64 C108 64 141 64 147 64 C197 64 221 26 221 -49 L221 -49 Z " />
<glyph glyph-name="h" unicode="h" horiz-adv-x="247" d="M226 0 C226 0 226 398 226 476 C226 530 197 557 151 557 C118 557 99 542 85 516 C85 520 85 768 85 768 L23 768 L23 0 L85 0 C85 0 85 380 85 441 C85 485 106 509 128 509 C154 509 163 495 163 466 C163 425 163 0 163 0 L226 0 Z " />
<glyph glyph-name="i" unicode="i" horiz-adv-x="108" d="M87 641 L87 724 L21 724 L21 641 L87 641 Z M85 0 L85 551 L23 551 L23 0 L85 0 Z " />
<glyph glyph-name="j" unicode="j" horiz-adv-x="121" d="M99 641 L99 724 L35 724 L35 641 L99 641 Z M98 -82 C98 -43 98 551 98 551 L36 551 C36 551 36 -43 36 -86 C36 -120 27 -132 8 -132 C-12 -132 -23 -110 -23 -83 C-23 -68 -21 -56 -19 -39 L-75 -42 C-77 -56 -79 -72 -79 -86 C-79 -146 -41 -181 9 -181 C64 -181 98 -145 98 -82 L98 -82 Z " />
<glyph glyph-name="k" unicode="k" horiz-adv-x="249" d="M253 0 L137 309 L248 551 L185 551 L85 326 L85 768 L23 768 L23 0 L85 0 L85 221 L96 244 L186 0 L253 0 Z " />
<glyph glyph-name="l" unicode="l" horiz-adv-x="108" d="M85 0 L85 768 L23 768 L23 0 L85 0 Z " />
<glyph glyph-name="m" unicode="m" horiz-adv-x="385" d="M363 0 C363 0 363 420 363 476 C363 530 334 557 289 557 C259 557 234 543 220 510 C210 536 192 557 151 557 C118 557 94 538 84 514 C84 532 84 551 84 551 L23 551 L23 0 L86 0 C86 0 86 276 86 444 C86 486 107 509 130 509 C151 509 163 496 163 468 C163 406 163 0 163 0 L225 0 C225 0 225 419 225 441 C225 486 246 509 266 509 C292 509 300 493 300 467 C300 406 300 0 300 0 L363 0 Z " />
<glyph glyph-name="n" unicode="n" horiz-adv-x="248" d="M226 0 C226 0 226 415 226 476 C226 529 197 557 151 557 C117 557 100 542 84 516 C84 533 84 551 84 551 L23 551 L23 0 L85 0 C85 0 85 399 85 441 C85 484 106 509 128 509 C151 509 163 494 163 464 C163 404 163 0 163 0 L226 0 Z " />
<glyph glyph-name="o" unicode="o" horiz-adv-x="253" d="M233 274 C233 509 199 557 126 557 C53 557 20 509 20 274 C20 39 53 -9 126 -9 C199 -9 233 39 233 274 L233 274 Z M169 275 C169 77 160 36 126 36 C92 36 84 77 84 273 C84 471 92 512 126 512 C160 512 169 471 169 275 L169 275 Z " />
<glyph glyph-name="p" unicode="p" horiz-adv-x="256" d="M234 271 C234 503 201 557 147 557 C113 557 95 536 84 510 C84 521 84 551 84 551 L23 551 L23 -175 L84 -175 L84 30 C91 9 112 -7 136 -7 C203 -7 234 36 234 271 L234 271 Z M170 272 C170 68 164 38 127 38 C92 38 82 89 82 271 C82 477 98 509 129 509 C159 509 170 467 170 272 L170 272 Z " />
<glyph glyph-name="q" unicode="q" horiz-adv-x="255" d="M232 -176 L232 551 L213 551 L186 505 C175 531 157 557 123 557 C56 557 20 499 20 269 C20 51 48 -7 113 -7 C145 -7 163 16 171 46 L171 -176 L232 -176 Z M171 275 C171 93 161 41 127 41 C95 41 84 78 84 276 C84 479 95 513 127 513 C159 513 171 473 171 275 L171 275 Z " />
<glyph glyph-name="r" unicode="r" horiz-adv-x="209" d="M201 442 C201 524 181 557 140 557 C112 557 91 530 84 498 L84 551 L23 551 L23 0 L85 0 C85 0 85 329 85 390 C85 475 109 501 125 501 C140 501 147 489 147 436 C147 400 141 351 137 326 L193 332 C197 362 201 403 201 442 L201 442 Z " />
<glyph glyph-name="s" unicode="s" horiz-adv-x="239" d="M224 151 C224 224 203 263 138 321 C79 374 77 385 77 438 C77 490 93 509 115 509 C137 509 152 492 152 442 C152 426 148 390 147 379 L202 382 C204 392 207 421 207 438 C207 521 171 557 116 557 C60 557 17 513 17 413 C17 340 38 309 84 269 C144 217 160 188 160 129 C160 70 145 41 113 41 C83 41 74 66 74 124 C74 144 76 173 80 196 L25 186 C22 164 19 130 19 111 C19 31 52 -9 114 -9 C186 -9 224 45 224 151 L224 151 Z " />
<glyph glyph-name="t" unicode="t" horiz-adv-x="175" d="M172 10 L172 57 C160 51 149 47 132 47 C112 47 100 54 100 89 C100 131 100 505 100 505 L166 505 L166 551 L100 551 L100 704 L37 704 L37 551 L-3 551 L-3 505 L38 505 C38 505 38 115 38 70 C38 20 59 -9 106 -9 C136 -9 162 2 172 10 L172 10 Z " />
<glyph glyph-name="u" unicode="u" horiz-adv-x="248" d="M225 0 L225 551 L163 551 C163 551 163 165 163 128 C163 79 146 44 118 44 C92 44 85 61 85 88 C85 135 85 551 85 551 L22 551 C22 551 22 139 22 77 C22 21 47 -7 94 -7 C125 -7 152 10 165 41 C164 25 164 13 164 0 L225 0 Z " />
<glyph glyph-name="v" unicode="v" horiz-adv-x="219" d="M213 551 L152 551 L109 136 L65 551 L2 551 L76 0 L139 0 L213 551 Z " />
<glyph glyph-name="w" unicode="w" horiz-adv-x="328" d="M323 551 L264 551 L225 185 L191 551 L135 551 L103 182 L63 551 L2 551 L73 0 L129 0 L162 358 L197 0 L253 0 L323 551 Z " />
<glyph glyph-name="x" unicode="x" horiz-adv-x="233" d="M236 0 L149 290 L227 551 L162 551 L117 377 L73 551 L6 551 L83 292 L-3 0 L61 0 L114 204 L168 0 L236 0 Z " />
<glyph glyph-name="y" unicode="y" horiz-adv-x="240" d="M230 551 L167 551 L122 133 L64 551 L-1 551 L98 -15 C88 -110 73 -130 53 -130 C31 -130 22 -117 22 -80 C22 -67 24 -53 25 -43 L-29 -53 C-31 -68 -31 -82 -31 -95 C-31 -145 -5 -177 53 -177 C114 -177 135 -137 154 0 C159 37 230 551 230 551 L230 551 Z " />
<glyph glyph-name="z" unicode="z" horiz-adv-x="190" d="M184 500 L184 551 L27 551 L27 502 L122 502 L4 43 L4 0 L183 0 L183 52 L69 52 L184 500 Z " />
<glyph glyph-name="braceleft" unicode="&#x7b;" horiz-adv-x="196" d="M184 711 L184 768 C184 768 158 768 141 768 C96 768 73 744 73 688 C73 652 73 419 73 385 C73 343 61 328 32 328 C31 328 27 328 26 328 L26 276 C27 276 31 276 32 276 C61 276 73 257 73 222 C73 187 73 -64 73 -99 C73 -157 98 -176 140 -176 C157 -176 183 -176 183 -176 L183 -118 C183 -118 167 -118 158 -118 C143 -118 135 -114 135 -92 C135 -52 135 203 135 249 C135 284 122 302 98 302 C122 302 135 318 135 358 C135 405 135 640 135 680 C135 702 143 711 159 711 C168 711 184 711 184 711 L184 711 Z " />
<glyph glyph-name="bar" unicode="&#x7c;" horiz-adv-x="131" d="M90 -190 L90 788 L39 788 L39 -190 L90 -190 Z " />
<glyph glyph-name="braceright" unicode="&#x7d;" horiz-adv-x="196" d="M170 276 L170 328 C169 328 165 328 164 328 C135 328 123 343 123 385 C123 419 123 652 123 688 C123 744 100 768 55 768 C38 768 12 768 12 768 L12 711 C12 711 28 711 37 711 C53 711 61 702 61 680 C61 640 61 405 61 358 C61 318 74 302 98 302 C74 302 61 284 61 249 C61 203 61 -52 61 -92 C61 -114 53 -118 38 -118 C29 -118 13 -118 13 -118 L13 -176 C13 -176 39 -176 56 -176 C98 -176 123 -157 123 -99 C123 -64 123 187 123 222 C123 257 135 276 164 276 C165 276 169 276 170 276 L170 276 Z " />
<glyph glyph-name="asciitilde" unicode="&#x7e;" horiz-adv-x="219" d="M215 724 C215 742 208 764 206 768 L176 768 C180 760 182 751 182 745 C182 731 176 724 168 724 C160 724 153 727 145 733 C119 751 106 760 92 769 C83 775 69 781 51 781 C16 781 4 750 4 722 C4 703 10 685 13 678 L43 678 C39 686 37 695 37 701 C37 716 44 722 51 722 C58 722 63 720 74 713 C97 697 107 690 124 679 C137 671 154 665 168 665 C202 665 215 695 215 724 L215 724 Z " />
<glyph glyph-name="nbspace" unicode="&#xa0;" horiz-adv-x="85" d="" />
<glyph glyph-name="exclamdown" unicode="&#xa1;" horiz-adv-x="152" d="M112 633 L112 768 L40 768 L40 633 L112 633 Z M111 0 L111 284 L95 515 L57 515 L41 284 L41 0 L111 0 Z " />
<glyph glyph-name="cent" unicode="&#xa2;" horiz-adv-x="242" d="M219 423 C219 444 217 466 215 480 L157 482 C158 458 159 440 159 430 C159 355 145 352 126 352 C101 352 88 361 88 497 C88 634 104 643 126 643 C147 643 155 635 155 575 C155 563 153 542 152 537 L212 539 C214 552 215 567 215 580 C215 646 196 677 147 683 L147 727 L102 727 L102 683 C53 677 22 644 22 504 C22 367 41 323 102 315 L102 268 L147 268 L147 315 C205 328 219 359 219 423 L219 423 Z " />
<glyph glyph-name="sterling" unicode="&#xa3;" horiz-adv-x="344" d="M320 138 C320 178 314 202 307 236 L248 243 C253 214 257 172 257 151 C257 92 250 69 228 69 C214 69 192 92 178 108 C190 154 195 180 195 256 C195 283 192 305 189 324 L273 324 L273 384 L179 384 C166 448 164 504 164 574 C164 660 175 723 198 723 C217 723 233 674 233 577 C233 543 230 508 226 479 L291 488 C296 509 297 538 297 571 C297 690 258 774 198 774 C125 774 97 688 97 555 C97 495 106 442 115 384 L40 384 L40 324 L124 324 C132 276 135 239 135 220 C135 198 133 170 128 148 C111 163 96 169 81 169 C47 169 9 140 9 80 C9 23 42 -12 84 -12 C120 -12 148 21 156 55 C168 37 180 21 192 8 C205 -4 219 -12 239 -12 C302 -12 320 71 320 138 L320 138 Z M116 91 C114 67 99 49 88 49 C72 49 64 59 64 78 C64 98 73 109 84 109 C96 109 104 106 116 91 L116 91 Z " />
<glyph glyph-name="currency" unicode="&#xa4;" horiz-adv-x="302" d="M257 388 C257 562 209 705 150 705 C91 705 45 562 45 388 C45 214 91 73 150 73 C209 73 257 214 257 388 L257 388 Z M244 356 L191 333 L179 116 L150 238 L73 253 L118 366 L79 520 L125 496 L151 648 L180 486 L244 356 Z " />
<glyph glyph-name="yen" unicode="&#xa5;" horiz-adv-x="282" d="M287 301 L287 332 L183 332 L193 378 L287 378 L287 409 L200 409 L281 768 L212 768 L143 410 L70 768 L-3 768 L81 409 L9 409 L9 378 L88 378 L99 332 L9 332 L9 301 L106 301 L106 0 L176 0 L176 301 L287 301 Z " />
<glyph glyph-name="brokenbar" unicode="&#xa6;" horiz-adv-x="302" d="M257 388 C257 562 209 705 150 705 C91 705 45 562 45 388 C45 214 91 73 150 73 C209 73 257 214 257 388 L257 388 Z M244 356 L191 333 L179 116 L150 238 L73 253 L118 366 L79 520 L125 496 L151 648 L180 486 L244 356 Z " />
<glyph glyph-name="section" unicode="&#xa7;" horiz-adv-x="265" d="M245 97 C245 155 232 188 185 246 C221 279 245 313 245 370 C245 432 218 470 152 527 C104 568 89 605 89 648 C89 689 100 726 125 726 C145 726 161 714 161 649 C161 628 158 597 152 562 L202 560 C209 592 215 630 215 664 C215 748 171 779 132 779 C76 779 29 745 29 638 C29 577 52 542 88 502 C47 454 30 427 30 371 C30 326 62 284 108 231 C154 178 180 130 180 90 C180 20 160 -5 134 -5 C112 -5 94 21 93 79 C93 107 95 144 103 191 L52 183 C44 149 39 114 39 81 C39 5 66 -57 134 -57 C205 -57 245 -5 245 97 L245 97 Z M185 359 C185 337 178 307 153 281 C96 345 91 372 91 392 C91 420 99 441 121 467 C169 421 185 385 185 359 L185 359 Z " />
<glyph glyph-name="dieresis" unicode="&#xa8;" horiz-adv-x="315" d="M273 709 L273 768 L179 768 L179 709 L273 709 Z M136 709 L136 768 L42 768 L42 709 L136 709 Z " />
<glyph glyph-name="copyright" unicode="&#xa9;" horiz-adv-x="520" d="M480 543 C480 667 382 768 261 768 C139 768 40 667 40 543 C40 420 139 320 261 320 C382 320 480 420 480 543 L480 543 Z M453 543 C453 432 368 344 261 344 C153 344 68 432 68 543 C68 655 153 744 261 744 C368 744 453 655 453 543 L453 543 Z M342 481 C342 495 339 518 336 530 L289 532 C293 513 294 495 294 486 C294 428 288 418 266 418 C241 418 229 428 229 548 C229 669 241 678 262 678 C284 678 289 667 289 645 C289 620 287 611 284 584 L330 585 C333 591 336 611 336 621 C336 679 325 713 262 713 C211 713 177 694 177 552 C177 424 187 383 264 383 C335 383 342 414 342 481 L342 481 Z " />
<glyph glyph-name="ordfeminine" unicode="&#xaa;" horiz-adv-x="267" d="M242 383 L242 406 C238 404 232 402 225 402 C214 402 213 413 213 425 C213 521 213 625 213 711 C213 763 191 779 125 779 C62 779 32 753 32 694 C32 671 37 657 42 646 L92 649 C89 662 87 672 87 684 C87 734 100 747 121 747 C150 747 157 738 157 675 C157 640 135 621 100 608 C42 586 21 540 21 489 C21 387 65 373 103 373 C126 373 144 381 156 406 C162 388 176 373 205 373 C222 373 234 378 242 383 L242 383 Z M244 296 L244 338 L23 338 L23 296 L244 296 Z M157 484 C157 439 145 422 122 422 C93 422 84 438 84 498 C84 530 83 570 140 591 C145 593 153 598 157 602 L157 484 Z " />
<glyph glyph-name="guillemotleft" unicode="&#xab;" horiz-adv-x="245" d="M224 175 L224 262 L164 344 L224 424 L224 512 L130 391 L130 297 L224 175 Z M119 175 L119 262 L59 344 L119 424 L119 512 L25 391 L25 297 L119 175 Z " />
<glyph glyph-name="logicalnot" unicode="&#xac;" horiz-adv-x="302" d="M257 388 C257 562 209 705 150 705 C91 705 45 562 45 388 C45 214 91 73 150 73 C209 73 257 214 257 388 L257 388 Z M244 356 L191 333 L179 116 L150 238 L73 253 L118 366 L79 520 L125 496 L151 648 L180 486 L244 356 Z " />
<glyph glyph-name="registered" unicode="&#xae;" horiz-adv-x="520" d="M480 543 C480 667 382 768 261 768 C139 768 40 667 40 543 C40 420 139 320 261 320 C382 320 480 420 480 543 L480 543 Z M453 543 C453 432 368 344 261 344 C153 344 68 432 68 543 C68 655 153 744 261 744 C368 744 453 655 453 543 L453 543 Z M349 613 C349 680 331 706 266 706 C234 706 186 706 186 706 L186 384 L238 384 L238 518 C238 518 254 518 261 518 C283 518 288 501 288 474 C288 467 288 441 288 434 C288 418 291 396 295 384 L347 384 C341 406 340 429 340 452 C340 510 335 536 301 540 C339 550 349 574 349 613 L349 613 Z M290 616 C290 562 276 557 249 557 C245 557 238 557 238 557 L238 677 C238 677 245 677 253 677 C280 677 290 659 290 616 L290 616 Z " />
<glyph glyph-name="macron" unicode="&#xaf;" horiz-adv-x="315" d="M259 709 L259 768 L56 768 L56 709 L259 709 Z " />
<glyph glyph-name="degree" unicode="&#xb0;" horiz-adv-x="188" d="M166 690 C166 729 133 762 94 762 C55 762 22 729 22 690 C22 651 55 619 94 619 C133 619 166 651 166 690 L166 690 Z M138 690 C138 666 118 647 94 647 C70 647 50 666 50 690 C50 714 70 734 94 734 C118 734 138 714 138 690 L138 690 Z " />
<glyph glyph-name="plusminus" unicode="&#xb1;" horiz-adv-x="395" d="M372 0 L372 768 L318 762 C306 768 283 776 259 776 C235 776 217 770 202 754 C185 768 167 776 140 776 C87 776 43 747 43 666 C43 645 43 551 43 551 L2 551 L2 505 L43 505 L43 0 L105 0 L105 505 L176 505 L176 0 L238 0 L238 505 L296 505 L296 551 L238 551 C238 551 238 659 238 673 C238 715 245 728 261 728 C284 728 295 720 309 702 C309 691 309 0 309 0 L372 0 Z M179 700 C178 691 176 677 176 666 C176 645 176 551 176 551 L105 551 C105 551 105 659 105 673 C105 713 117 728 142 728 C162 728 174 713 179 700 L179 700 Z " />
<glyph glyph-name="twosuperior" unicode="&#xb2;" horiz-adv-x="302" d="M257 388 C257 562 209 705 150 705 C91 705 45 562 45 388 C45 214 91 73 150 73 C209 73 257 214 257 388 L257 388 Z M244 356 L191 333 L179 116 L150 238 L73 253 L118 366 L79 520 L125 496 L151 648 L180 486 L244 356 Z " />
<glyph glyph-name="threesuperior" unicode="&#xb3;" horiz-adv-x="302" d="M257 388 C257 562 209 705 150 705 C91 705 45 562 45 388 C45 214 91 73 150 73 C209 73 257 214 257 388 L257 388 Z M244 356 L191 333 L179 116 L150 238 L73 253 L118 366 L79 520 L125 496 L151 648 L180 486 L244 356 Z " />
<glyph glyph-name="acute" unicode="&#xb4;" horiz-adv-x="315" d="M214 768 L142 768 L118 662 L156 662 L214 768 Z " />
<glyph glyph-name="mu" unicode="&#xb5;" horiz-adv-x="302" d="M257 388 C257 562 209 705 150 705 C91 705 45 562 45 388 C45 214 91 73 150 73 C209 73 257 214 257 388 L257 388 Z M244 356 L191 333 L179 116 L150 238 L73 253 L118 366 L79 520 L125 496 L151 648 L180 486 L244 356 Z " />
<glyph glyph-name="paragraph" unicode="&#xb6;" horiz-adv-x="269" d="M232 0 L232 768 C232 768 162 768 124 768 C53 768 22 707 22 522 C22 345 68 288 143 274 L143 0 L178 0 L178 730 L197 730 L197 0 L232 0 Z M143 311 C119 329 116 350 116 520 C116 707 120 730 143 730 L143 311 Z " />
<glyph glyph-name="periodcentered" unicode="&#xb7;" horiz-adv-x="150" d="M109 306 L109 438 L41 438 L41 306 L109 306 Z " />
<glyph glyph-name="cedilla" unicode="&#xb8;" horiz-adv-x="315" d="M249 -87 C249 -28 208 -9 160 -9 C155 -9 150 -9 150 -9 L142 -50 C146 -49 155 -49 160 -49 C182 -49 201 -61 201 -87 C201 -110 187 -126 162 -126 C148 -126 121 -119 104 -103 L88 -139 C112 -160 141 -166 166 -166 C204 -166 249 -143 249 -87 L249 -87 Z " />
<glyph glyph-name="onesuperior" unicode="&#xb9;" horiz-adv-x="302" d="M257 388 C257 562 209 705 150 705 C91 705 45 562 45 388 C45 214 91 73 150 73 C209 73 257 214 257 388 L257 388 Z M244 356 L191 333 L179 116 L150 238 L73 253 L118 366 L79 520 L125 496 L151 648 L180 486 L244 356 Z " />
<glyph glyph-name="ordmasculine" unicode="&#xba;" horiz-adv-x="272" d="M247 571 C247 715 217 779 136 779 C52 779 25 717 25 571 C25 421 60 373 136 373 C221 373 247 421 247 571 L247 571 Z M249 296 L249 338 L23 338 L23 296 L249 296 Z M182 571 C182 424 169 415 136 415 C105 415 90 426 90 571 C90 715 103 734 136 734 C169 734 182 716 182 571 L182 571 Z " />
<glyph glyph-name="guillemotright" unicode="&#xbb;" horiz-adv-x="245" d="M220 297 L220 391 L126 512 L126 424 L186 344 L126 262 L126 175 L220 297 Z M115 297 L115 391 L21 512 L21 424 L81 344 L21 262 L21 175 L115 297 Z " />
<glyph glyph-name="onequarter" unicode="&#xbc;" horiz-adv-x="302" d="M257 388 C257 562 209 705 150 705 C91 705 45 562 45 388 C45 214 91 73 150 73 C209 73 257 214 257 388 L257 388 Z M244 356 L191 333 L179 116 L150 238 L73 253 L118 366 L79 520 L125 496 L151 648 L180 486 L244 356 Z " />
<glyph glyph-name="onehalf" unicode="&#xbd;" horiz-adv-x="302" d="M257 388 C257 562 209 705 150 705 C91 705 45 562 45 388 C45 214 91 73 150 73 C209 73 257 214 257 388 L257 388 Z M244 356 L191 333 L179 116 L150 238 L73 253 L118 366 L79 520 L125 496 L151 648 L180 486 L244 356 Z " />
<glyph glyph-name="threequarters" unicode="&#xbe;" horiz-adv-x="302" d="M257 388 C257 562 209 705 150 705 C91 705 45 562 45 388 C45 214 91 73 150 73 C209 73 257 214 257 388 L257 388 Z M244 356 L191 333 L179 116 L150 238 L73 253 L118 366 L79 520 L125 496 L151 648 L180 486 L244 356 Z " />
<glyph glyph-name="questiondown" unicode="&#xbf;" horiz-adv-x="260" d="M219 635 L219 767 L149 767 L149 635 L219 635 Z M240 120 C240 151 237 176 233 190 L170 193 C172 178 176 151 176 131 C176 67 166 48 133 48 C96 48 81 76 81 194 C81 308 88 372 119 372 C153 372 162 341 165 276 L213 276 L213 524 L161 524 L163 395 C152 422 127 437 100 437 C44 437 10 389 10 231 C10 31 59 -12 130 -12 C208 -12 240 41 240 120 L240 120 Z " />
<glyph glyph-name="Agrave" unicode="&#xc0;" horiz-adv-x="276" d="M265 0 L169 774 L100 774 L11 0 L76 0 L88 138 L178 138 L192 0 L265 0 Z M171 199 L95 199 L134 611 L171 199 Z M160 800 L136 906 L64 906 L122 800 L160 800 Z " />
<glyph glyph-name="Aacute" unicode="&#xc1;" horiz-adv-x="276" d="M265 0 L169 774 L100 774 L11 0 L76 0 L88 138 L178 138 L192 0 L265 0 Z M171 199 L95 199 L134 611 L171 199 Z M203 906 L131 906 L107 800 L145 800 L203 906 Z " />
<glyph glyph-name="Acircumflex" unicode="&#xc2;" horiz-adv-x="276" d="M265 0 L169 774 L100 774 L11 0 L76 0 L88 138 L178 138 L192 0 L265 0 Z M171 199 L95 199 L134 611 L171 199 Z M215 800 L166 906 L109 906 L60 800 L101 800 L137 850 L174 800 L215 800 Z " />
<glyph glyph-name="Atilde" unicode="&#xc3;" horiz-adv-x="276" d="M265 0 L169 774 L100 774 L11 0 L76 0 L88 138 L178 138 L192 0 L265 0 Z M171 199 L95 199 L134 611 L171 199 Z M230 848 C230 857 227 866 223 873 L194 873 C195 871 196 867 196 862 C196 855 193 848 180 848 C168 848 155 858 144 866 C133 873 119 879 90 879 C54 879 44 855 44 835 C44 822 47 815 51 809 L80 809 C79 811 78 815 78 819 C78 825 82 831 96 831 C109 831 119 822 131 813 C143 804 157 800 176 800 C217 800 230 825 230 848 L230 848 Z " />
<glyph glyph-name="Adieresis" unicode="&#xc4;" horiz-adv-x="276" d="M265 0 L169 774 L100 774 L11 0 L76 0 L88 138 L178 138 L192 0 L265 0 Z M171 199 L95 199 L134 611 L171 199 Z M254 800 L254 859 L160 859 L160 800 L254 800 Z M117 800 L117 859 L23 859 L23 800 L117 800 Z " />
<glyph glyph-name="Aring" unicode="&#xc5;" horiz-adv-x="276" d="M265 0 L174 733 C196 746 212 771 212 799 C212 842 178 877 135 877 C92 877 58 842 58 799 C58 769 75 746 95 734 L11 0 L76 0 L88 138 L178 138 L192 0 L265 0 Z M171 799 C171 778 156 761 135 761 C114 761 99 778 99 799 C99 821 114 839 135 839 C156 839 171 821 171 799 L171 799 Z M171 199 L95 199 L134 611 L171 199 Z " />
<glyph glyph-name="AE" unicode="&#xc6;" horiz-adv-x="387" d="M382 0 L382 59 L246 59 L246 362 L352 362 L352 421 L246 421 L246 710 L366 710 L366 768 L163 768 L-21 0 L44 0 L73 138 L177 138 L177 0 L382 0 Z M177 199 L88 199 L177 610 L177 199 Z " />
<glyph glyph-name="Ccedilla" unicode="&#xc7;" horiz-adv-x="278" d="M255 323 L192 323 C210 134 187 47 151 47 C99 47 95 154 95 376 C95 649 110 721 146 721 C190 721 203 651 189 482 L251 484 C264 656 260 779 148 779 C50 779 22 678 22 358 C22 78 47 -12 147 -12 C257 -12 275 128 255 323 L255 323 Z M227 -93 C227 -34 186 -15 138 -15 C133 -15 128 -15 128 -15 L120 -56 C124 -55 133 -55 138 -55 C160 -55 179 -67 179 -93 C179 -116 165 -132 140 -132 C126 -132 99 -125 82 -109 L66 -145 C90 -166 119 -172 144 -172 C182 -172 227 -149 227 -93 L227 -93 Z " />
<glyph glyph-name="Egrave" unicode="&#xc8;" horiz-adv-x="247" d="M242 0 L242 59 L106 59 L106 362 L212 362 L212 421 L106 421 L106 709 L226 709 L226 768 L37 768 L37 0 L242 0 Z M181 800 L157 906 L85 906 L143 800 L181 800 Z " />
<glyph glyph-name="Eacute" unicode="&#xc9;" horiz-adv-x="247" d="M242 0 L242 59 L106 59 L106 362 L212 362 L212 421 L106 421 L106 709 L226 709 L226 768 L37 768 L37 0 L242 0 Z M201 906 L129 906 L105 800 L143 800 L201 906 Z " />
<glyph glyph-name="Ecircumflex" unicode="&#xca;" horiz-adv-x="247" d="M242 0 L242 59 L106 59 L106 362 L212 362 L212 421 L106 421 L106 709 L226 709 L226 768 L37 768 L37 0 L242 0 Z M206 800 L157 906 L100 906 L51 800 L92 800 L128 850 L165 800 L206 800 Z " />
<glyph glyph-name="Edieresis" unicode="&#xcb;" horiz-adv-x="247" d="M242 0 L242 59 L106 59 L106 362 L212 362 L212 421 L106 421 L106 709 L226 709 L226 768 L37 768 L37 0 L242 0 Z M249 800 L249 859 L155 859 L155 800 L249 800 Z M112 800 L112 859 L18 859 L18 800 L112 800 Z " />
<glyph glyph-name="Igrave" unicode="&#xcc;" horiz-adv-x="144" d="M107 0 L107 768 L37 768 L37 0 L107 0 Z M140 906 L68 906 L44 800 L82 800 L140 906 Z " />
<glyph glyph-name="Iacute" unicode="&#xcd;" horiz-adv-x="144" d="M107 0 L107 768 L37 768 L37 0 L107 0 Z M140 906 L68 906 L44 800 L82 800 L140 906 Z " />
<glyph glyph-name="Icircumflex" unicode="&#xce;" horiz-adv-x="144" d="M107 0 L107 768 L37 768 L37 0 L107 0 Z M151 800 L102 906 L45 906 L-4 800 L37 800 L73 850 L110 800 L151 800 Z " />
<glyph glyph-name="Idieresis" unicode="&#xcf;" horiz-adv-x="144" d="M107 0 L107 768 L37 768 L37 0 L107 0 Z M191 800 L191 859 L97 859 L97 800 L191 800 Z M54 800 L54 859 L-40 859 L-40 800 L54 800 Z " />
<glyph glyph-name="Eth" unicode="&#xd0;" horiz-adv-x="313" d="M291 345 C291 718 234 768 145 768 C104 768 37 768 37 768 L37 412 L-8 412 L-8 354 L37 354 L37 0 C37 0 106 0 151 0 C260 0 291 64 291 345 L291 345 Z M218 327 C218 83 197 60 138 60 C126 60 107 60 107 60 L107 354 L185 354 L185 412 L107 412 L107 712 C107 712 125 712 135 712 C195 712 218 640 218 327 L218 327 Z " />
<glyph glyph-name="Ntilde" unicode="&#xd1;" horiz-adv-x="305" d="M268 0 L268 768 L206 768 L206 265 L101 768 L37 768 L37 0 L100 0 L100 505 L208 0 L268 0 Z M258 859 C258 877 251 899 249 903 L219 903 C223 895 225 886 225 880 C225 866 219 859 211 859 C203 859 196 862 188 868 C162 886 149 895 135 904 C126 910 112 916 94 916 C59 916 47 885 47 857 C47 838 53 820 56 813 L86 813 C82 821 80 830 80 836 C80 851 87 857 94 857 C101 857 106 855 117 848 C140 832 150 825 167 814 C180 806 197 800 211 800 C245 800 258 830 258 859 L258 859 Z " />
<glyph glyph-name="Ograve" unicode="&#xd2;" horiz-adv-x="293" d="M271 378 C271 682 250 779 146 779 C42 779 22 682 22 378 C22 74 42 -12 146 -12 C250 -12 271 74 271 378 L271 378 Z M198 380 C198 112 201 45 146 45 C91 45 95 112 95 380 C95 634 91 724 145 724 C201 724 198 634 198 380 L198 380 Z M181 800 L157 906 L85 906 L143 800 L181 800 Z " />
<glyph glyph-name="Oacute" unicode="&#xd3;" horiz-adv-x="293" d="M271 378 C271 682 250 779 146 779 C42 779 22 682 22 378 C22 74 42 -12 146 -12 C250 -12 271 74 271 378 L271 378 Z M198 380 C198 112 201 45 146 45 C91 45 95 112 95 380 C95 634 91 724 145 724 C201 724 198 634 198 380 L198 380 Z M183 800 L159 906 L87 906 L145 800 L183 800 Z " />
<glyph glyph-name="Ocircumflex" unicode="&#xd4;" horiz-adv-x="293" d="M271 378 C271 682 250 779 146 779 C42 779 22 682 22 378 C22 74 42 -12 146 -12 C250 -12 271 74 271 378 L271 378 Z M198 380 C198 112 201 45 146 45 C91 45 95 112 95 380 C95 634 91 724 145 724 C201 724 198 634 198 380 L198 380 Z M223 800 L174 906 L117 906 L68 800 L109 800 L145 850 L182 800 L223 800 Z " />
<glyph glyph-name="Otilde" unicode="&#xd5;" horiz-adv-x="293" d="M271 378 C271 682 250 779 146 779 C42 779 22 682 22 378 C22 74 42 -12 146 -12 C250 -12 271 74 271 378 L271 378 Z M198 380 C198 112 201 45 146 45 C91 45 95 112 95 380 C95 634 91 724 145 724 C201 724 198 634 198 380 L198 380 Z M242 848 C242 857 239 866 235 873 L206 873 C207 871 208 867 208 862 C208 855 205 848 192 848 C180 848 167 858 156 866 C145 873 131 879 102 879 C66 879 56 855 56 835 C56 822 59 815 63 809 L92 809 C91 811 90 815 90 819 C90 825 94 831 108 831 C121 831 131 822 143 813 C155 804 169 800 188 800 C229 800 242 825 242 848 L242 848 Z " />
<glyph glyph-name="Odieresis" unicode="&#xd6;" horiz-adv-x="293" d="M271 378 C271 682 250 779 146 779 C42 779 22 682 22 378 C22 74 42 -12 146 -12 C250 -12 271 74 271 378 L271 378 Z M198 380 C198 112 201 45 146 45 C91 45 95 112 95 380 C95 634 91 724 145 724 C201 724 198 634 198 380 L198 380 Z M262 800 L262 859 L168 859 L168 800 L262 800 Z M125 800 L125 859 L31 859 L31 800 L125 800 Z " />
<glyph glyph-name="multiply" unicode="&#xd7;" horiz-adv-x="302" d="M257 388 C257 562 209 705 150 705 C91 705 45 562 45 388 C45 214 91 73 150 73 C209 73 257 214 257 388 L257 388 Z M244 356 L191 333 L179 116 L150 238 L73 253 L118 366 L79 520 L125 496 L151 648 L180 486 L244 356 Z " />
<glyph glyph-name="Oslash" unicode="&#xd8;" horiz-adv-x="293" d="M273 789 L227 789 L217 752 C199 771 176 779 146 779 C42 779 22 682 22 378 C22 250 25 160 37 100 L4 -22 L50 -22 L64 27 C82 -1 109 -12 146 -12 C250 -12 271 74 271 378 C271 531 265 632 247 694 L273 789 Z M191 663 L95 304 C95 326 95 355 95 380 C95 634 91 724 145 724 C171 724 183 706 191 663 L191 663 Z M198 380 C198 112 201 45 146 45 C112 45 102 69 97 144 L198 520 C198 482 198 432 198 380 L198 380 Z " />
<glyph glyph-name="Ugrave" unicode="&#xd9;" horiz-adv-x="320" d="M285 124 C285 375 285 768 285 768 L215 768 C215 768 215 371 215 118 C215 74 201 48 160 48 C119 48 105 73 105 118 C105 371 105 768 105 768 L35 768 C35 768 35 375 35 124 C35 35 70 -12 160 -12 C250 -12 285 36 285 124 L285 124 Z M195 800 L171 906 L99 906 L157 800 L195 800 Z " />
<glyph glyph-name="Uacute" unicode="&#xda;" horiz-adv-x="320" d="M285 124 C285 375 285 768 285 768 L215 768 C215 768 215 371 215 118 C215 74 201 48 160 48 C119 48 105 73 105 118 C105 371 105 768 105 768 L35 768 C35 768 35 375 35 124 C35 35 70 -12 160 -12 C250 -12 285 36 285 124 L285 124 Z M220 906 L148 906 L124 800 L162 800 L220 906 Z " />
<glyph glyph-name="Ucircumflex" unicode="&#xdb;" horiz-adv-x="320" d="M285 124 C285 375 285 768 285 768 L215 768 C215 768 215 371 215 118 C215 74 201 48 160 48 C119 48 105 73 105 118 C105 371 105 768 105 768 L35 768 C35 768 35 375 35 124 C35 35 70 -12 160 -12 C250 -12 285 36 285 124 L285 124 Z M240 800 L191 906 L134 906 L85 800 L126 800 L162 850 L199 800 L240 800 Z " />
<glyph glyph-name="Udieresis" unicode="&#xdc;" horiz-adv-x="320" d="M285 124 C285 375 285 768 285 768 L215 768 C215 768 215 371 215 118 C215 74 201 48 160 48 C119 48 105 73 105 118 C105 371 105 768 105 768 L35 768 C35 768 35 375 35 124 C35 35 70 -12 160 -12 C250 -12 285 36 285 124 L285 124 Z M276 800 L276 859 L182 859 L182 800 L276 800 Z M139 800 L139 859 L45 859 L45 800 L139 800 Z " />
<glyph glyph-name="Yacute" unicode="&#xdd;" horiz-adv-x="282" d="M281 768 L212 768 L143 410 L70 768 L-3 768 L106 301 L106 0 L176 0 L176 302 L281 768 Z M200 906 L128 906 L104 800 L142 800 L200 906 Z " />
<glyph glyph-name="Thorn" unicode="&#xde;" horiz-adv-x="291" d="M278 375 C278 538 236 596 162 596 C148 596 126 596 107 596 C107 608 107 759 107 768 C71 768 37 768 37 768 L37 0 L107 0 L107 169 C107 169 134 169 154 169 C232 169 278 196 278 375 L278 375 Z M209 371 C209 265 196 224 148 224 C132 224 107 224 107 224 L107 540 C107 540 125 540 137 540 C188 540 209 504 209 371 L209 371 Z " />
<glyph glyph-name="germandbls" unicode="&#xdf;" horiz-adv-x="337" d="M285 217 C285 341 252 389 198 411 C237 422 273 449 273 568 C273 710 238 779 155 779 C78 779 37 715 37 597 C37 478 37 210 37 0 L104 0 C104 218 104 470 104 576 C104 695 126 724 152 724 C185 724 206 695 206 576 C206 453 182 439 150 439 L150 377 C184 377 214 323 214 236 C214 66 177 61 150 61 L150 0 C231 0 285 40 285 217 L285 217 Z " />
<glyph glyph-name="agrave" unicode="&#xe0;" horiz-adv-x="249" d="M248 6 L248 43 C243 39 237 36 229 36 C216 36 212 48 212 77 C212 97 212 330 212 453 C212 516 190 557 125 557 C62 557 28 525 28 442 C28 417 32 397 35 386 L90 389 C87 404 84 429 84 446 C84 498 96 517 120 517 C144 517 152 497 152 437 C152 401 151 381 150 361 C149 344 147 343 121 330 C55 296 17 256 17 159 C17 89 25 49 41 24 C58 -2 79 -8 104 -8 C136 -8 148 9 160 26 C165 4 182 -8 203 -8 C221 -8 238 -1 248 6 L248 6 Z M151 89 C151 65 140 37 117 37 C89 37 79 57 79 147 C79 232 92 276 151 301 C151 301 151 164 151 89 L151 89 Z M152 587 L128 693 L56 693 L114 587 L152 587 Z " />
<glyph glyph-name="aacute" unicode="&#xe1;" horiz-adv-x="249" d="M248 6 L248 43 C243 39 237 36 229 36 C216 36 212 48 212 77 C212 97 212 330 212 453 C212 516 190 557 125 557 C62 557 28 525 28 442 C28 417 32 397 35 386 L90 389 C87 404 84 429 84 446 C84 498 96 517 120 517 C144 517 152 497 152 437 C152 401 151 381 150 361 C149 344 147 343 121 330 C55 296 17 256 17 159 C17 89 25 49 41 24 C58 -2 79 -8 104 -8 C136 -8 148 9 160 26 C165 4 182 -8 203 -8 C221 -8 238 -1 248 6 L248 6 Z M151 89 C151 65 140 37 117 37 C89 37 79 57 79 147 C79 232 92 276 151 301 C151 301 151 164 151 89 L151 89 Z M187 693 L115 693 L91 587 L129 587 L187 693 Z " />
<glyph glyph-name="acircumflex" unicode="&#xe2;" horiz-adv-x="249" d="M248 6 L248 43 C243 39 237 36 229 36 C216 36 212 48 212 77 C212 97 212 330 212 453 C212 516 190 557 125 557 C62 557 28 525 28 442 C28 417 32 397 35 386 L90 389 C87 404 84 429 84 446 C84 498 96 517 120 517 C144 517 152 497 152 437 C152 401 151 381 150 361 C149 344 147 343 121 330 C55 296 17 256 17 159 C17 89 25 49 41 24 C58 -2 79 -8 104 -8 C136 -8 148 9 160 26 C165 4 182 -8 203 -8 C221 -8 238 -1 248 6 L248 6 Z M151 89 C151 65 140 37 117 37 C89 37 79 57 79 147 C79 232 92 276 151 301 C151 301 151 164 151 89 L151 89 Z M200 587 L151 693 L94 693 L45 587 L86 587 L122 637 L159 587 L200 587 Z " />
<glyph glyph-name="atilde" unicode="&#xe3;" horiz-adv-x="249" d="M248 6 L248 43 C243 39 237 36 229 36 C216 36 212 48 212 77 C212 97 212 330 212 453 C212 516 190 557 125 557 C62 557 28 525 28 442 C28 417 32 397 35 386 L90 389 C87 404 84 429 84 446 C84 498 96 517 120 517 C144 517 152 497 152 437 C152 401 151 381 150 361 C149 344 147 343 121 330 C55 296 17 256 17 159 C17 89 25 49 41 24 C58 -2 79 -8 104 -8 C136 -8 148 9 160 26 C165 4 182 -8 203 -8 C221 -8 238 -1 248 6 L248 6 Z M151 89 C151 65 140 37 117 37 C89 37 79 57 79 147 C79 232 92 276 151 301 C151 301 151 164 151 89 L151 89 Z M218 635 C218 644 215 653 211 660 L182 660 C183 658 184 654 184 649 C184 642 181 635 168 635 C156 635 143 645 132 653 C121 660 107 666 78 666 C42 666 32 642 32 622 C32 609 35 602 39 596 L68 596 C67 598 66 602 66 606 C66 612 70 618 84 618 C97 618 107 609 119 600 C131 591 145 587 164 587 C205 587 218 612 218 635 L218 635 Z " />
<glyph glyph-name="adieresis" unicode="&#xe4;" horiz-adv-x="249" d="M248 6 L248 43 C243 39 237 36 229 36 C216 36 212 48 212 77 C212 97 212 330 212 453 C212 516 190 557 125 557 C62 557 28 525 28 442 C28 417 32 397 35 386 L90 389 C87 404 84 429 84 446 C84 498 96 517 120 517 C144 517 152 497 152 437 C152 401 151 381 150 361 C149 344 147 343 121 330 C55 296 17 256 17 159 C17 89 25 49 41 24 C58 -2 79 -8 104 -8 C136 -8 148 9 160 26 C165 4 182 -8 203 -8 C221 -8 238 -1 248 6 L248 6 Z M151 89 C151 65 140 37 117 37 C89 37 79 57 79 147 C79 232 92 276 151 301 C151 301 151 164 151 89 L151 89 Z M243 587 L243 646 L149 646 L149 587 L243 587 Z M106 587 L106 646 L12 646 L12 587 L106 587 Z " />
<glyph glyph-name="aring" unicode="&#xe5;" horiz-adv-x="249" d="M199 664 C199 707 165 741 122 741 C79 741 45 707 45 664 C45 621 79 587 122 587 C165 587 199 621 199 664 L199 664 Z M158 664 C158 643 143 625 122 625 C101 625 86 643 86 664 C86 685 101 703 122 703 C143 703 158 685 158 664 L158 664 Z M248 6 L248 43 C243 39 237 36 229 36 C216 36 212 48 212 77 C212 97 212 330 212 453 C212 516 190 557 125 557 C62 557 28 525 28 442 C28 417 32 397 35 386 L90 389 C87 404 84 429 84 446 C84 498 96 517 120 517 C144 517 152 497 152 437 C152 401 151 381 150 361 C149 344 147 343 121 330 C55 296 17 256 17 159 C17 89 25 49 41 24 C58 -2 79 -8 104 -8 C136 -8 148 9 160 26 C165 4 182 -8 203 -8 C221 -8 238 -1 248 6 L248 6 Z M151 89 C151 65 140 37 117 37 C89 37 79 57 79 147 C79 232 92 276 151 301 C151 301 151 164 151 89 L151 89 Z " />
<glyph glyph-name="ae" unicode="&#xe6;" horiz-adv-x="374" d="M355 126 C355 149 353 183 351 195 L298 197 C299 184 301 165 301 152 C301 59 292 34 262 34 C215 34 214 146 214 264 L351 264 C352 275 354 308 354 337 C354 491 330 557 257 557 C230 557 208 549 193 528 C180 546 158 557 125 557 C61 557 28 523 28 443 C28 418 32 397 35 386 L90 389 C87 404 84 429 84 446 C84 497 96 517 120 517 C144 517 152 496 152 437 C152 393 151 381 150 361 C149 344 147 343 121 330 C55 296 17 256 17 159 C17 89 25 48 41 24 C56 -2 81 -8 104 -8 C143 -8 160 18 173 47 C190 4 220 -9 262 -9 C327 -9 355 36 355 126 L355 126 Z M297 382 C297 354 297 330 295 306 L213 306 C213 454 224 514 256 514 C284 514 297 485 297 382 L297 382 Z M151 89 C151 65 140 37 117 37 C89 37 79 57 79 147 C79 232 92 276 151 301 C151 301 151 172 151 89 L151 89 Z " />
<glyph glyph-name="ccedilla" unicode="&#xe7;" horiz-adv-x="238" d="M222 152 C222 177 218 212 215 226 L160 229 C161 214 164 174 164 158 C164 59 157 34 129 34 C93 34 84 61 84 270 C84 478 92 513 124 513 C155 513 158 473 158 408 C158 389 156 365 155 352 L212 354 C214 366 216 394 216 411 C216 517 190 557 124 557 C53 557 20 512 20 281 C20 43 45 -9 126 -9 C205 -9 222 38 222 152 L222 152 Z M207 -90 C207 -31 166 -12 118 -12 C113 -12 108 -12 108 -12 L100 -53 C104 -52 113 -52 118 -52 C140 -52 159 -64 159 -90 C159 -113 145 -129 120 -129 C106 -129 79 -122 62 -106 L46 -142 C70 -163 99 -169 124 -169 C162 -169 207 -146 207 -90 L207 -90 Z " />
<glyph glyph-name="egrave" unicode="&#xe8;" horiz-adv-x="242" d="M223 126 C223 149 221 183 219 195 L166 197 C167 184 169 165 169 152 C169 59 160 34 130 34 C83 34 82 146 82 264 L219 264 C220 275 222 308 222 337 C222 491 198 557 125 557 C53 557 20 504 20 249 C20 27 52 -9 130 -9 C195 -9 223 36 223 126 L223 126 Z M165 382 C165 354 165 330 163 306 L81 306 C81 454 92 514 124 514 C152 514 165 485 165 382 L165 382 Z M167 587 L143 693 L71 693 L129 587 L167 587 Z " />
<glyph glyph-name="eacute" unicode="&#xe9;" horiz-adv-x="242" d="M223 126 C223 149 221 183 219 195 L166 197 C167 184 169 165 169 152 C169 59 160 34 130 34 C83 34 82 146 82 264 L219 264 C220 275 222 308 222 337 C222 491 198 557 125 557 C53 557 20 504 20 249 C20 27 52 -9 130 -9 C195 -9 223 36 223 126 L223 126 Z M165 382 C165 354 165 330 163 306 L81 306 C81 454 92 514 124 514 C152 514 165 485 165 382 L165 382 Z M189 693 L117 693 L93 587 L131 587 L189 693 Z " />
<glyph glyph-name="ecircumflex" unicode="&#xea;" horiz-adv-x="242" d="M223 126 C223 149 221 183 219 195 L166 197 C167 184 169 165 169 152 C169 59 160 34 130 34 C83 34 82 146 82 264 L219 264 C220 275 222 308 222 337 C222 491 198 557 125 557 C53 557 20 504 20 249 C20 27 52 -9 130 -9 C195 -9 223 36 223 126 L223 126 Z M165 382 C165 354 165 330 163 306 L81 306 C81 454 92 514 124 514 C152 514 165 485 165 382 L165 382 Z M202 587 L153 693 L96 693 L47 587 L88 587 L124 637 L161 587 L202 587 Z " />
<glyph glyph-name="edieresis" unicode="&#xeb;" horiz-adv-x="242" d="M223 126 C223 149 221 183 219 195 L166 197 C167 184 169 165 169 152 C169 59 160 34 130 34 C83 34 82 146 82 264 L219 264 C220 275 222 308 222 337 C222 491 198 557 125 557 C53 557 20 504 20 249 C20 27 52 -9 130 -9 C195 -9 223 36 223 126 L223 126 Z M165 382 C165 354 165 330 163 306 L81 306 C81 454 92 514 124 514 C152 514 165 485 165 382 L165 382 Z M240 587 L240 646 L146 646 L146 587 L240 587 Z M103 587 L103 646 L9 646 L9 587 L103 587 Z " />
<glyph glyph-name="igrave" unicode="&#xec;" horiz-adv-x="108" d="M85 0 L85 551 L23 551 L23 0 L85 0 Z M79 587 L55 693 L-17 693 L41 587 L79 587 Z " />
<glyph glyph-name="iacute" unicode="&#xed;" horiz-adv-x="108" d="M85 0 L85 551 L23 551 L23 0 L85 0 Z M128 693 L56 693 L32 587 L70 587 L128 693 Z " />
<glyph glyph-name="icircumflex" unicode="&#xee;" horiz-adv-x="108" d="M85 0 L85 551 L23 551 L23 0 L85 0 Z M132 587 L83 693 L26 693 L-23 587 L18 587 L54 637 L91 587 L132 587 Z " />
<glyph glyph-name="idieresis" unicode="&#xef;" horiz-adv-x="108" d="M85 0 L85 551 L23 551 L23 0 L85 0 Z M170 587 L170 646 L76 646 L76 587 L170 587 Z M33 587 L33 646 L-61 646 L-61 587 L33 587 Z " />
<glyph glyph-name="eth" unicode="&#xf0;" horiz-adv-x="256" d="M267 713 C267 732 256 749 239 757 L224 748 C234 734 232 716 212 710 C200 777 173 800 133 800 C90 800 70 770 52 744 L89 714 C106 742 117 752 130 752 C144 752 155 740 161 701 C124 695 107 672 107 649 C107 633 116 617 135 607 L151 618 C137 635 142 648 167 653 C171 612 173 581 173 509 C159 541 141 557 116 557 C60 557 21 504 21 269 C21 48 50 -7 117 -7 C205 -7 233 105 233 276 C233 429 233 570 221 660 C256 671 267 693 267 713 L267 713 Z M172 275 C172 98 154 40 126 40 C93 40 85 81 85 276 C85 470 94 510 128 510 C162 510 172 448 172 275 L172 275 Z " />
<glyph glyph-name="ntilde" unicode="&#xf1;" horiz-adv-x="248" d="M226 0 C226 0 226 415 226 476 C226 529 197 557 151 557 C117 557 100 542 84 516 C84 533 84 551 84 551 L23 551 L23 0 L85 0 C85 0 85 399 85 441 C85 484 106 509 128 509 C151 509 163 494 163 464 C163 404 163 0 163 0 L226 0 Z M216 635 C216 644 213 653 209 660 L180 660 C181 658 182 654 182 649 C182 642 179 635 166 635 C154 635 141 645 130 653 C119 660 105 666 76 666 C40 666 30 642 30 622 C30 609 33 602 37 596 L66 596 C65 598 64 602 64 606 C64 612 68 618 82 618 C95 618 105 609 117 600 C129 591 143 587 162 587 C203 587 216 612 216 635 L216 635 Z " />
<glyph glyph-name="ograve" unicode="&#xf2;" horiz-adv-x="253" d="M233 274 C233 509 199 557 126 557 C53 557 20 509 20 274 C20 39 53 -9 126 -9 C199 -9 233 39 233 274 L233 274 Z M169 275 C169 77 160 36 126 36 C92 36 84 77 84 273 C84 471 92 512 126 512 C160 512 169 471 169 275 L169 275 Z M164 587 L140 693 L68 693 L126 587 L164 587 Z " />
<glyph glyph-name="oacute" unicode="&#xf3;" horiz-adv-x="253" d="M233 274 C233 509 199 557 126 557 C53 557 20 509 20 274 C20 39 53 -9 126 -9 C199 -9 233 39 233 274 L233 274 Z M169 275 C169 77 160 36 126 36 C92 36 84 77 84 273 C84 471 92 512 126 512 C160 512 169 471 169 275 L169 275 Z M182 693 L110 693 L86 587 L124 587 L182 693 Z " />
<glyph glyph-name="ocircumflex" unicode="&#xf4;" horiz-adv-x="253" d="M233 274 C233 509 199 557 126 557 C53 557 20 509 20 274 C20 39 53 -9 126 -9 C199 -9 233 39 233 274 L233 274 Z M169 275 C169 77 160 36 126 36 C92 36 84 77 84 273 C84 471 92 512 126 512 C160 512 169 471 169 275 L169 275 Z M202 587 L153 693 L96 693 L47 587 L88 587 L124 637 L161 587 L202 587 Z " />
<glyph glyph-name="otilde" unicode="&#xf5;" horiz-adv-x="253" d="M233 274 C233 509 199 557 126 557 C53 557 20 509 20 274 C20 39 53 -9 126 -9 C199 -9 233 39 233 274 L233 274 Z M169 275 C169 77 160 36 126 36 C92 36 84 77 84 273 C84 471 92 512 126 512 C160 512 169 471 169 275 L169 275 Z M220 635 C220 644 217 653 213 660 L184 660 C185 658 186 654 186 649 C186 642 183 635 170 635 C158 635 145 645 134 653 C123 660 109 666 80 666 C44 666 34 642 34 622 C34 609 37 602 41 596 L70 596 C69 598 68 602 68 606 C68 612 72 618 86 618 C99 618 109 609 121 600 C133 591 147 587 166 587 C207 587 220 612 220 635 L220 635 Z " />
<glyph glyph-name="odieresis" unicode="&#xf6;" horiz-adv-x="253" d="M233 274 C233 509 199 557 126 557 C53 557 20 509 20 274 C20 39 53 -9 126 -9 C199 -9 233 39 233 274 L233 274 Z M169 275 C169 77 160 36 126 36 C92 36 84 77 84 273 C84 471 92 512 126 512 C160 512 169 471 169 275 L169 275 Z M242 587 L242 646 L148 646 L148 587 L242 587 Z M105 587 L105 646 L11 646 L11 587 L105 587 Z " />
<glyph glyph-name="divide" unicode="&#xf7;" horiz-adv-x="302" d="M257 388 C257 562 209 705 150 705 C91 705 45 562 45 388 C45 214 91 73 150 73 C209 73 257 214 257 388 L257 388 Z M244 356 L191 333 L179 116 L150 238 L73 253 L118 366 L79 520 L125 496 L151 648 L180 486 L244 356 Z " />
<glyph glyph-name="oslash" unicode="&#xf8;" horiz-adv-x="253" d="M263 570 L220 570 L200 518 C182 548 158 557 126 557 C53 557 20 509 20 274 C20 192 24 132 32 90 L-11 -22 L33 -22 L53 29 C70 0 94 -9 126 -9 C199 -9 233 39 233 274 C233 357 229 416 220 459 L263 570 Z M165 434 L84 217 C84 233 84 255 84 273 C84 471 92 512 126 512 C147 512 159 498 165 434 L165 434 Z M169 275 C169 77 160 36 126 36 C104 36 94 51 88 114 L169 332 C169 316 169 294 169 275 L169 275 Z " />
<glyph glyph-name="ugrave" unicode="&#xf9;" horiz-adv-x="248" d="M225 0 L225 551 L163 551 C163 551 163 165 163 128 C163 79 146 44 118 44 C92 44 85 61 85 88 C85 135 85 551 85 551 L22 551 C22 551 22 139 22 77 C22 21 47 -7 94 -7 C125 -7 152 10 165 41 C164 25 164 13 164 0 L225 0 Z M164 587 L140 693 L68 693 L126 587 L164 587 Z " />
<glyph glyph-name="uacute" unicode="&#xfa;" horiz-adv-x="248" d="M225 0 L225 551 L163 551 C163 551 163 165 163 128 C163 79 146 44 118 44 C92 44 85 61 85 88 C85 135 85 551 85 551 L22 551 C22 551 22 139 22 77 C22 21 47 -7 94 -7 C125 -7 152 10 165 41 C164 25 164 13 164 0 L225 0 Z M182 693 L110 693 L86 587 L124 587 L182 693 Z " />
<glyph glyph-name="ucircumflex" unicode="&#xfb;" horiz-adv-x="248" d="M225 0 L225 551 L163 551 C163 551 163 165 163 128 C163 79 146 44 118 44 C92 44 85 61 85 88 C85 135 85 551 85 551 L22 551 C22 551 22 139 22 77 C22 21 47 -7 94 -7 C125 -7 152 10 165 41 C164 25 164 13 164 0 L225 0 Z M202 587 L153 693 L96 693 L47 587 L88 587 L124 637 L161 587 L202 587 Z " />
<glyph glyph-name="udieresis" unicode="&#xfc;" horiz-adv-x="248" d="M225 0 L225 551 L163 551 C163 551 163 165 163 128 C163 79 146 44 118 44 C92 44 85 61 85 88 C85 135 85 551 85 551 L22 551 C22 551 22 139 22 77 C22 21 47 -7 94 -7 C125 -7 152 10 165 41 C164 25 164 13 164 0 L225 0 Z M239 587 L239 646 L145 646 L145 587 L239 587 Z M102 587 L102 646 L8 646 L8 587 L102 587 Z " />
<glyph glyph-name="yacute" unicode="&#xfd;" horiz-adv-x="240" d="M230 551 L167 551 L122 133 L64 551 L-1 551 L98 -15 C88 -110 73 -130 53 -130 C31 -130 22 -117 22 -80 C22 -67 24 -53 25 -43 L-29 -53 C-31 -68 -31 -82 -31 -95 C-31 -145 -5 -177 53 -177 C114 -177 135 -137 154 0 C159 37 230 551 230 551 L230 551 Z M186 693 L114 693 L90 587 L128 587 L186 693 Z " />
<glyph glyph-name="thorn" unicode="&#xfe;" horiz-adv-x="256" d="M234 271 C234 503 201 557 147 557 C113 557 95 536 84 510 C84 521 84 768 84 768 L23 768 L23 -175 L84 -175 L84 28 C91 7 112 -9 136 -9 C203 -9 234 34 234 271 L234 271 Z M170 272 C170 67 164 36 127 36 C92 36 82 87 82 271 C82 477 98 509 129 509 C159 509 170 467 170 272 L170 272 Z " />
<glyph glyph-name="ydieresis" unicode="&#xff;" horiz-adv-x="240" d="M230 551 L167 551 L122 133 L64 551 L-1 551 L98 -15 C88 -110 73 -130 53 -130 C31 -130 22 -117 22 -80 C22 -67 24 -53 25 -43 L-29 -53 C-31 -68 -31 -82 -31 -95 C-31 -145 -5 -177 53 -177 C114 -177 135 -137 154 0 C159 37 230 551 230 551 L230 551 Z M232 587 L232 646 L138 646 L138 587 L232 587 Z M95 587 L95 646 L1 646 L1 587 L95 587 Z " />
<glyph glyph-name="dotlessi" unicode="&#x131;" horiz-adv-x="108" d="M85 0 L85 551 L23 551 L23 0 L85 0 Z " />
<glyph glyph-name="Lslash" unicode="&#x141;" horiz-adv-x="250" d="M250 0 L250 60 L107 60 L107 337 L222 434 L187 477 L107 409 L107 768 L37 768 L37 350 L-31 292 L4 249 L37 277 L37 0 L250 0 Z " />
<glyph glyph-name="lslash" unicode="&#x142;" horiz-adv-x="188" d="M210 424 L175 467 L125 424 L125 768 L63 768 L63 372 L-1 317 L34 274 L63 299 L63 0 L125 0 L125 351 L210 424 Z " />
<glyph glyph-name="OE" unicode="&#x152;" horiz-adv-x="408" d="M403 0 L403 59 L267 59 L267 362 L373 362 L373 421 L267 421 L267 709 L387 709 L387 768 L197 768 C183 775 168 779 146 779 C42 779 22 682 22 378 C22 74 42 -12 146 -12 C168 -12 185 -7 200 0 L403 0 Z M198 380 C198 90 195 45 146 45 C91 45 95 112 95 380 C95 634 91 724 145 724 C195 724 198 668 198 380 L198 380 Z " />
<glyph glyph-name="oe" unicode="&#x153;" horiz-adv-x="391" d="M372 126 C372 149 370 183 368 195 L315 197 C316 184 318 165 318 152 C318 59 309 34 279 34 C232 34 231 146 231 264 L368 264 C369 275 371 308 371 337 C371 491 347 557 274 557 C241 557 218 546 202 512 C186 545 160 557 126 557 C53 557 20 509 20 274 C20 39 53 -9 126 -9 C158 -9 181 0 199 30 C218 -1 241 -9 279 -9 C344 -9 372 36 372 126 L372 126 Z M314 382 C314 354 314 330 312 306 L230 306 C230 454 241 514 273 514 C301 514 314 485 314 382 L314 382 Z M169 275 C169 77 160 36 126 36 C92 36 84 77 84 273 C84 471 92 512 126 512 C160 512 169 471 169 275 L169 275 Z " />
<glyph glyph-name="Scaron" unicode="&#x160;" horiz-adv-x="283" d="M271 200 C271 322 241 379 163 445 C105 494 84 507 84 614 C84 692 102 726 133 726 C165 726 184 692 184 612 C184 592 183 555 180 535 L242 546 C246 567 249 603 249 621 C249 717 215 779 133 779 C58 779 14 714 14 585 C14 485 45 434 112 380 C179 326 201 278 201 173 C201 62 174 45 145 45 C109 45 90 65 90 161 C90 198 93 248 97 278 L33 270 C28 243 23 193 23 164 C23 27 70 -12 143 -12 C233 -12 271 63 271 200 L271 200 Z M213 906 L172 906 L135 856 L99 906 L58 906 L107 800 L164 800 L213 906 Z " />
<glyph glyph-name="scaron" unicode="&#x161;" horiz-adv-x="239" d="M224 151 C224 224 203 263 138 321 C79 374 77 385 77 438 C77 490 93 509 115 509 C137 509 152 492 152 442 C152 426 148 390 147 379 L202 382 C204 392 207 421 207 438 C207 521 171 557 116 557 C60 557 17 513 17 413 C17 340 38 309 84 269 C144 217 160 188 160 129 C160 70 145 41 113 41 C83 41 74 66 74 124 C74 144 76 173 80 196 L25 186 C22 164 19 130 19 111 C19 31 52 -9 114 -9 C186 -9 224 45 224 151 L224 151 Z M193 693 L152 693 L115 643 L79 693 L38 693 L87 587 L144 587 L193 693 Z " />
<glyph glyph-name="Ydieresis" unicode="&#x178;" horiz-adv-x="282" d="M281 768 L212 768 L143 410 L70 768 L-3 768 L106 301 L106 0 L176 0 L176 302 L281 768 Z M258 800 L258 859 L164 859 L164 800 L258 800 Z M121 800 L121 859 L27 859 L27 800 L121 800 Z " />
<glyph glyph-name="Zcaron" unicode="&#x17d;" horiz-adv-x="257" d="M247 706 L247 768 L26 768 L26 709 L179 709 L7 61 L7 0 L244 0 L244 60 L75 60 L247 706 Z M224 906 L183 906 L146 856 L110 906 L69 906 L118 800 L175 800 L224 906 Z " />
<glyph glyph-name="zcaron" unicode="&#x17e;" horiz-adv-x="190" d="M184 500 L184 551 L27 551 L27 502 L122 502 L4 43 L4 0 L183 0 L183 52 L69 52 L184 500 Z M187 693 L146 693 L109 643 L73 693 L32 693 L81 587 L138 587 L187 693 Z " />
<glyph glyph-name="florin" unicode="&#x192;" horiz-adv-x="257" d="M239 666 C239 739 213 776 169 776 C129 776 96 744 96 676 C96 629 96 551 96 551 L63 551 L63 505 L96 505 C96 505 96 217 96 60 C96 35 92 30 84 30 C71 30 67 46 67 83 C67 96 68 110 70 134 L21 133 C19 111 17 100 17 75 C17 4 46 -26 87 -26 C127 -26 157 7 157 74 C157 219 157 505 157 505 L195 505 L195 551 L157 551 C157 551 157 636 157 685 C157 709 162 720 170 720 C184 720 190 709 190 658 C190 645 188 622 186 598 L235 599 C237 621 239 641 239 666 L239 666 Z " />
<glyph glyph-name="circumflex" unicode="&#x2c6;" horiz-adv-x="315" d="M235 662 L186 768 L129 768 L80 662 L121 662 L157 712 L194 662 L235 662 Z " />
<glyph glyph-name="caron" unicode="&#x2c7;" horiz-adv-x="315" d="M235 768 L194 768 L157 718 L121 768 L80 768 L129 662 L186 662 L235 768 Z " />
<glyph glyph-name="breve" unicode="&#x2d8;" horiz-adv-x="315" d="M263 768 L203 768 C203 748 194 725 158 725 C122 725 113 748 113 768 L53 768 C53 732 78 677 158 677 C238 677 263 732 263 768 L263 768 Z " />
<glyph glyph-name="dotaccent" unicode="&#x2d9;" horiz-adv-x="315" d="M210 702 L210 768 L104 768 L104 702 L210 702 Z " />
<glyph glyph-name="ring" unicode="&#x2da;" horiz-adv-x="315" d="M234 691 C234 734 200 768 157 768 C114 768 80 734 80 691 C80 648 114 614 157 614 C200 614 234 648 234 691 L234 691 Z M193 691 C193 670 178 652 157 652 C136 652 121 670 121 691 C121 712 136 730 157 730 C178 730 193 712 193 691 L193 691 Z " />
<glyph glyph-name="ogonek" unicode="&#x2db;" horiz-adv-x="315" d="M214 -106 C214 -95 209 -82 201 -74 L166 -87 C171 -93 174 -100 174 -106 C174 -115 170 -123 159 -123 C147 -123 138 -115 138 -96 C138 -52 163 -25 195 0 L152 0 C121 -16 93 -57 93 -87 C93 -128 112 -159 161 -159 C198 -159 214 -130 214 -106 L214 -106 Z " />
<glyph glyph-name="tilde" unicode="&#x2dc;" horiz-adv-x="315" d="M251 737 C251 746 248 755 244 762 L215 762 C216 760 217 756 217 751 C217 744 214 737 201 737 C189 737 176 747 165 755 C154 762 140 768 111 768 C75 768 65 744 65 724 C65 711 68 704 72 698 L101 698 C100 700 99 704 99 708 C99 714 103 720 117 720 C130 720 140 711 152 702 C164 693 178 689 197 689 C238 689 251 714 251 737 L251 737 Z " />
<glyph glyph-name="hungarumlaut" unicode="&#x2dd;" horiz-adv-x="315" d="M267 768 L195 768 L161 662 L199 662 L267 768 Z M171 768 L99 768 L65 662 L103 662 L171 768 Z " />
<glyph glyph-name="pi" unicode="&#x3c0;" horiz-adv-x="520" d="M480 543 C480 667 382 768 261 768 C139 768 40 667 40 543 C40 420 139 320 261 320 C382 320 480 420 480 543 L480 543 Z M453 543 C453 432 368 344 261 344 C153 344 68 432 68 543 C68 655 153 744 261 744 C368 744 453 655 453 543 L453 543 Z M360 614 C360 680 324 706 269 706 C224 706 193 706 193 706 L193 384 L245 384 L245 508 C245 508 257 508 259 508 C328 508 360 535 360 614 L360 614 Z M303 611 C303 563 294 545 258 545 C255 545 245 545 245 545 L245 673 C245 673 257 673 262 673 C294 673 303 657 303 611 L303 611 Z " />
<glyph glyph-name="endash" unicode="&#x2013;" horiz-adv-x="517" d="M489 315 L489 373 L25 373 L25 315 L489 315 Z " />
<glyph glyph-name="emdash" unicode="&#x2014;" horiz-adv-x="764" d="M739 315 L739 373 L25 373 L25 315 L739 315 Z " />
<glyph glyph-name="quoteleft" unicode="&#x2018;" horiz-adv-x="148" d="M110 545 L110 677 L83 677 C83 711 86 720 101 745 L79 779 C55 755 40 721 40 681 C40 631 40 545 40 545 L110 545 Z " />
<glyph glyph-name="quoteright" unicode="&#x2019;" horiz-adv-x="148" d="M108 632 C108 682 108 768 108 768 L38 768 L38 636 L65 636 C65 602 62 593 47 568 L69 534 C93 558 108 592 108 632 L108 632 Z " />
<glyph glyph-name="quotesinglbase" unicode="&#x201a;" horiz-adv-x="148" d="M108 -4 C108 46 108 132 108 132 L38 132 L38 0 L65 0 C65 -34 62 -43 47 -68 L69 -102 C93 -78 108 -44 108 -4 L108 -4 Z " />
<glyph glyph-name="quotedblleft" unicode="&#x201c;" horiz-adv-x="263" d="M225 545 L225 677 L198 677 C198 711 201 720 216 745 L194 779 C170 755 155 721 155 681 C155 631 155 545 155 545 L225 545 Z M110 545 L110 677 L83 677 C83 711 86 720 101 745 L79 779 C55 755 40 721 40 681 C40 631 40 545 40 545 L110 545 Z " />
<glyph glyph-name="quotedblright" unicode="&#x201d;" horiz-adv-x="263" d="M223 632 C223 682 223 768 223 768 L153 768 L153 636 L180 636 C180 602 177 593 162 568 L184 534 C208 558 223 592 223 632 L223 632 Z M108 632 C108 682 108 768 108 768 L38 768 L38 636 L65 636 C65 602 62 593 47 568 L69 534 C93 558 108 592 108 632 L108 632 Z " />
<glyph glyph-name="quotedblbase" unicode="&#x201e;" horiz-adv-x="263" d="M223 -4 C223 46 223 132 223 132 L153 132 L153 0 L180 0 C180 -34 177 -43 162 -68 L184 -102 C208 -78 223 -44 223 -4 L223 -4 Z M108 -4 C108 46 108 132 108 132 L38 132 L38 0 L65 0 C65 -34 62 -43 47 -68 L69 -102 C93 -78 108 -44 108 -4 L108 -4 Z " />
<glyph glyph-name="dagger" unicode="&#x2020;" horiz-adv-x="273" d="M253 568 L253 628 L169 628 L169 768 L104 768 L104 628 L20 628 L20 568 L104 568 L104 -43 L169 -43 L169 568 L253 568 Z " />
<glyph glyph-name="daggerdbl" unicode="&#x2021;" horiz-adv-x="273" d="M253 193 L253 253 L169 253 L169 568 L253 568 L253 628 L169 628 L169 768 L104 768 L104 628 L20 628 L20 568 L104 568 L104 253 L20 253 L20 193 L104 193 L104 -43 L169 -43 L169 193 L253 193 Z " />
<glyph glyph-name="bullet" unicode="&#x2022;" horiz-adv-x="270" d="M255 384 C255 450 201 504 135 504 C69 504 15 450 15 384 C15 318 69 264 135 264 C201 264 255 318 255 384 L255 384 Z " />
<glyph glyph-name="ellipsis" unicode="&#x2026;" horiz-adv-x="363" d="M322 0 L322 132 L257 132 L257 0 L322 0 Z M214 0 L214 132 L149 132 L149 0 L214 0 Z M106 0 L106 132 L41 132 L41 0 L106 0 Z " />
<glyph glyph-name="perthousand" unicode="&#x2030;" horiz-adv-x="699" d="M687 192 C687 362 657 413 592 413 C527 413 497 362 497 192 C497 42 527 -9 592 -9 C657 -9 687 42 687 192 L687 192 Z M202 553 C202 723 172 774 107 774 C42 774 12 723 12 553 C12 403 42 352 107 352 C172 352 202 403 202 553 L202 553 Z M450 760 L400 760 L22 0 L72 0 L450 760 Z M462 192 C462 362 432 413 367 413 C302 413 272 362 272 192 C272 42 302 -9 367 -9 C432 -9 462 42 462 192 L462 192 Z M627 201 C627 67 617 44 592 44 C567 44 557 67 557 201 C557 337 567 360 592 360 C617 360 627 337 627 201 L627 201 Z M142 562 C142 428 132 405 107 405 C82 405 72 428 72 562 C72 698 82 721 107 721 C133 721 142 698 142 562 L142 562 Z M402 201 C402 67 392 44 367 44 C342 44 332 67 332 201 C332 337 342 360 367 360 C392 360 402 337 402 201 L402 201 Z " />
<glyph glyph-name="guilsinglleft" unicode="&#x2039;" horiz-adv-x="140" d="M119 175 L119 262 L59 344 L119 424 L119 512 L25 391 L25 297 L119 175 Z " />
<glyph glyph-name="guilsinglright" unicode="&#x203a;" horiz-adv-x="140" d="M115 297 L115 391 L21 512 L21 424 L81 344 L21 262 L21 175 L115 297 Z " />
<glyph glyph-name="fraction" unicode="&#x2044;" horiz-adv-x="215" d="M346 779 L302 779 L-142 -28 L-98 -28 L346 779 Z " />
<glyph glyph-name="trademark" unicode="&#x2122;" horiz-adv-x="321" d="M306 537 L306 768 L248 768 L225 614 L202 768 L144 768 L144 537 L184 537 L184 702 L210 537 L240 537 L266 702 L266 537 L306 537 Z M125 729 L125 768 L7 768 L7 729 L46 729 L46 537 L86 537 L86 729 L125 729 Z " />
<glyph glyph-name="Omega" unicode="&#x2126;" horiz-adv-x="302" d="M257 388 C257 562 209 705 150 705 C91 705 45 562 45 388 C45 214 91 73 150 73 C209 73 257 214 257 388 L257 388 Z M244 356 L191 333 L179 116 L150 238 L73 253 L118 366 L79 520 L125 496 L151 648 L180 486 L244 356 Z " />
<glyph glyph-name="partialdiff" unicode="&#x2202;" horiz-adv-x="302" d="M257 388 C257 562 209 705 150 705 C91 705 45 562 45 388 C45 214 91 73 150 73 C209 73 257 214 257 388 L257 388 Z M244 356 L191 333 L179 116 L150 238 L73 253 L118 366 L79 520 L125 496 L151 648 L180 486 L244 356 Z " />
<glyph glyph-name="Delta" unicode="&#x2206;" horiz-adv-x="302" d="M257 388 C257 562 209 705 150 705 C91 705 45 562 45 388 C45 214 91 73 150 73 C209 73 257 214 257 388 L257 388 Z M244 356 L191 333 L179 116 L150 238 L73 253 L118 366 L79 520 L125 496 L151 648 L180 486 L244 356 Z " />
<glyph glyph-name="product" unicode="&#x220f;" horiz-adv-x="302" d="M257 388 C257 562 209 705 150 705 C91 705 45 562 45 388 C45 214 91 73 150 73 C209 73 257 214 257 388 L257 388 Z M244 356 L191 333 L179 116 L150 238 L73 253 L118 366 L79 520 L125 496 L151 648 L180 486 L244 356 Z " />
<glyph glyph-name="summation" unicode="&#x2211;" horiz-adv-x="302" d="M257 388 C257 562 209 705 150 705 C91 705 45 562 45 388 C45 214 91 73 150 73 C209 73 257 214 257 388 L257 388 Z M244 356 L191 333 L179 116 L150 238 L73 253 L118 366 L79 520 L125 496 L151 648 L180 486 L244 356 Z " />
<glyph glyph-name="minus" unicode="&#x2212;" horiz-adv-x="302" d="M257 388 C257 562 209 705 150 705 C91 705 45 562 45 388 C45 214 91 73 150 73 C209 73 257 214 257 388 L257 388 Z M244 356 L191 333 L179 116 L150 238 L73 253 L118 366 L79 520 L125 496 L151 648 L180 486 L244 356 Z " />
<glyph glyph-name="radical" unicode="&#x221a;" horiz-adv-x="469" d="M506 829 L416 777 C358 664 319 559 283 445 C248 334 211 181 189 51 L91 315 L17 280 L164 -62 L227 -25 C248 112 285 255 337 427 C376 553 450 745 506 829 L506 829 Z " />
<glyph glyph-name="infinity" unicode="&#x221e;" horiz-adv-x="393" d="M370 0 L370 551 L238 551 C238 551 238 659 238 673 C238 714 246 728 261 728 C280 728 288 708 288 670 C288 658 286 637 285 625 L336 631 C338 646 339 660 339 677 C339 743 311 776 259 776 C235 776 217 770 202 754 C185 768 167 776 140 776 C87 776 43 747 43 666 C43 645 43 551 43 551 L2 551 L2 505 L43 505 L43 0 L105 0 L105 505 L176 505 L176 0 L238 0 L238 505 L309 505 L309 0 L370 0 Z M179 700 C178 691 176 677 176 666 C176 645 176 551 176 551 L105 551 C105 551 105 659 105 673 C105 713 117 728 142 728 C162 728 174 713 179 700 L179 700 Z " />
<glyph glyph-name="integral" unicode="&#x222b;" horiz-adv-x="302" d="M257 388 C257 562 209 705 150 705 C91 705 45 562 45 388 C45 214 91 73 150 73 C209 73 257 214 257 388 L257 388 Z M244 356 L191 333 L179 116 L150 238 L73 253 L118 366 L79 520 L125 496 L151 648 L180 486 L244 356 Z " />
<glyph glyph-name="approxequal" unicode="&#x2248;" horiz-adv-x="302" d="M257 388 C257 562 209 705 150 705 C91 705 45 562 45 388 C45 214 91 73 150 73 C209 73 257 214 257 388 L257 388 Z M244 356 L191 333 L179 116 L150 238 L73 253 L118 366 L79 520 L125 496 L151 648 L180 486 L244 356 Z " />
<glyph glyph-name="notequal" unicode="&#x2260;" horiz-adv-x="294" d="M339 677 C339 743 311 776 259 776 C235 776 217 770 202 754 C185 768 167 776 140 776 C87 776 43 747 43 666 C43 645 43 551 43 551 L2 551 L2 505 L43 505 L43 0 L105 0 L105 505 L176 505 L176 0 L238 0 L238 505 L296 505 L296 551 L238 551 C238 551 238 659 238 673 C238 714 246 728 261 728 C280 728 288 708 288 670 C288 656 286 636 285 625 L336 631 C338 646 339 660 339 677 L339 677 Z M179 700 C178 691 176 677 176 666 C176 645 176 551 176 551 L105 551 C105 551 105 659 105 673 C105 713 117 728 142 728 C162 728 174 713 179 700 L179 700 Z " />
<glyph glyph-name="lessequal" unicode="&#x2264;" horiz-adv-x="302" d="M257 388 C257 562 209 705 150 705 C91 705 45 562 45 388 C45 214 91 73 150 73 C209 73 257 214 257 388 L257 388 Z M244 356 L191 333 L179 116 L150 238 L73 253 L118 366 L79 520 L125 496 L151 648 L180 486 L244 356 Z " />
<glyph glyph-name="greaterequal" unicode="&#x2265;" horiz-adv-x="302" d="M257 388 C257 562 209 705 150 705 C91 705 45 562 45 388 C45 214 91 73 150 73 C209 73 257 214 257 388 L257 388 Z M244 356 L191 333 L179 116 L150 238 L73 253 L118 366 L79 520 L125 496 L151 648 L180 486 L244 356 Z " />
<glyph glyph-name="lozenge" unicode="&#x25ca;" horiz-adv-x="302" d="M257 388 C257 562 209 705 150 705 C91 705 45 562 45 388 C45 214 91 73 150 73 C209 73 257 214 257 388 L257 388 Z M244 356 L191 333 L179 116 L150 238 L73 253 L118 366 L79 520 L125 496 L151 648 L180 486 L244 356 Z " />
<glyph glyph-name="fi" unicode="&#xfb01;" horiz-adv-x="261" d="M238 0 L238 551 L187 551 L106 551 C106 551 106 659 106 673 C106 714 115 728 129 728 C148 728 156 704 156 670 C156 658 154 637 153 625 L204 631 C206 646 207 660 207 677 C207 743 179 776 127 776 C76 776 43 749 43 668 C43 647 43 551 43 551 L2 551 L2 505 L43 505 L43 0 L106 0 L106 505 L177 505 L177 0 L238 0 Z " />
<glyph glyph-name="fl" unicode="&#xfb02;" horiz-adv-x="263" d="M240 0 L240 768 L186 762 C174 768 151 776 127 776 C76 776 43 749 43 668 C43 647 43 551 43 551 L2 551 L2 505 L43 505 L43 0 L106 0 L106 505 L164 505 L164 551 L106 551 C106 551 106 666 106 680 C106 715 113 728 129 728 C152 728 163 720 177 702 C177 691 177 0 177 0 L240 0 Z " />
</font>
</svg>
