<?xml version="1.0" encoding="UTF-8"?>
<svg xmlns="http://www.w3.org/2000/svg" xmlns:xlink="http://www.w3.org/1999/xlink" version="1.2" >
<font id="BureauGrotesque-OneFive">
<font-face  font-family="BureauGrotesque" units-per-em="1000" ascent="750" descent="-250" font-style="normal" font-weight="400" font-stretch="normal" cap-height="750" x-height="500" underline-position="-123" underline-thickness="20" />
<missing-glyph  horiz-adv-x="500" d="" />
<glyph glyph-name="CR" unicode="&#xd;" horiz-adv-x="250" d="" />
<glyph glyph-name="space" unicode="&#x20;" horiz-adv-x="230" d="" />
<glyph glyph-name="exclam" unicode="&#x21;" horiz-adv-x="210" d="M170 483 L170 768 L40 768 L40 483 L72 234 L137 234 L170 483 Z M168 0 L168 165 L42 165 L42 0 L168 0 Z " />
<glyph glyph-name="quotedbl" unicode="&#x22;" horiz-adv-x="330" d="M290 519 L290 768 L188 768 L188 519 L290 519 Z M142 519 L142 768 L40 768 L40 519 L142 519 Z " />
<glyph glyph-name="numbersign" unicode="&#x23;" horiz-adv-x="513" d="M513 551 L410 551 L438 768 L360 768 L329 551 L228 551 L258 768 L179 768 L149 551 L44 551 L29 443 L134 443 L118 326 L14 326 L0 217 L104 217 L75 0 L154 0 L184 217 L285 217 L255 0 L335 0 L364 217 L469 217 L484 326 L379 326 L394 443 L499 443 L513 551 Z M315 443 L299 326 L198 326 L214 443 L315 443 Z " />
<glyph glyph-name="dollar" unicode="&#x24;" horiz-adv-x="403" d="M390 241 C390 365 326 424 247 466 C174 505 152 529 152 580 C152 632 164 660 197 660 C234 660 245 633 245 562 C245 546 243 530 241 519 L351 527 C355 544 359 571 359 587 C359 691 310 729 243 739 L243 780 L163 780 L163 742 C84 732 24 684 24 554 C24 453 70 404 171 348 C234 313 259 282 259 208 C259 139 242 119 210 119 C175 119 160 151 160 229 C160 251 161 278 164 289 L46 278 C44 264 38 233 38 204 C38 82 98 48 163 33 L163 -33 L243 -33 L243 32 C341 47 390 96 390 241 L390 241 Z " />
<glyph glyph-name="percent" unicode="&#x25;" horiz-adv-x="637" d="M286 545 C286 729 238 774 151 774 C77 774 15 729 15 545 C15 378 70 342 151 342 C237 342 286 378 286 545 L286 545 Z M596 760 L527 760 L42 0 L111 0 L596 760 Z M618 194 C618 378 570 423 483 423 C409 423 347 378 347 194 C347 27 402 -9 483 -9 C569 -9 618 27 618 194 L618 194 Z M173 557 C173 427 172 416 150 416 C132 416 128 426 128 557 C128 687 131 700 150 700 C169 700 173 686 173 557 L173 557 Z M505 206 C505 76 504 65 482 65 C464 65 460 75 460 206 C460 336 463 349 482 349 C501 349 505 335 505 206 L505 206 Z " />
<glyph glyph-name="ampersand" unicode="&#x26;" horiz-adv-x="558" d="M544 122 C544 146 540 161 533 180 L474 170 C478 160 481 146 481 129 C481 106 469 98 453 98 C435 98 423 110 407 150 C433 196 453 260 466 308 C481 364 496 460 496 518 L411 518 C411 492 402 417 396 386 C390 356 374 299 364 275 L305 460 C357 505 410 571 410 642 C410 730 375 780 278 780 C179 780 140 716 140 618 C140 569 159 507 166 481 C87 422 22 329 22 214 C22 72 108 -10 199 -10 C249 -10 296 8 323 35 C345 4 364 -10 416 -10 C491 -10 544 35 544 122 L544 122 Z M313 642 C313 611 298 584 278 558 C270 584 262 611 262 637 C262 677 266 698 285 698 C304 698 313 684 313 642 L313 642 Z M281 123 C276 116 254 107 239 107 C195 107 161 142 161 220 C161 275 169 322 202 359 L281 123 Z " />
<glyph glyph-name="quotesingle" unicode="&#x27;" horiz-adv-x="182" d="M142 519 L142 768 L40 768 L40 519 L142 519 Z " />
<glyph glyph-name="parenleft" unicode="&#x28;" horiz-adv-x="285" d="M255 -141 C204 40 195 138 195 327 C195 511 204 637 251 782 L233 797 C134 707 53 538 52 328 C51 112 110 -39 239 -153 L255 -141 Z " />
<glyph glyph-name="parenright" unicode="&#x29;" horiz-adv-x="285" d="M233 329 C232 539 151 708 52 798 L34 783 C81 638 90 512 90 328 C90 139 81 41 30 -140 L46 -152 C175 -38 234 113 233 329 L233 329 Z " />
<glyph glyph-name="asterisk" unicode="&#x2a;" horiz-adv-x="351" d="M317 604 L230 634 L230 638 L315 666 L265 745 L204 684 L201 687 L221 774 L128 774 L148 686 L143 684 L79 745 L32 667 L118 638 L118 632 L31 604 L79 531 L144 588 L148 585 L128 498 L221 498 L201 585 L204 588 L267 531 L317 604 Z " />
<glyph glyph-name="plus" unicode="&#x2b;" horiz-adv-x="506" d="M475 307 L475 415 L314 415 L314 579 L191 579 L191 415 L27 415 L27 307 L191 307 L191 144 L314 144 L314 307 L475 307 Z " />
<glyph glyph-name="comma" unicode="&#x2c;" horiz-adv-x="241" d="M194 19 C194 75 194 165 194 165 L48 165 L48 0 L114 0 C116 -34 111 -50 100 -68 C88 -87 75 -97 62 -106 L82 -161 C95 -155 126 -134 150 -108 C177 -79 194 -44 194 19 L194 19 Z " />
<glyph glyph-name="hyphen" unicode="&#x2d;" horiz-adv-x="358" d="M335 267 L335 378 L23 378 L23 267 L335 267 Z " />
<glyph glyph-name="period" unicode="&#x2e;" horiz-adv-x="239" d="M191 0 L191 165 L48 165 L48 0 L191 0 Z " />
<glyph glyph-name="slash" unicode="&#x2f;" horiz-adv-x="341" d="M337 768 L268 768 L1 0 L71 0 L337 768 Z " />
<glyph glyph-name="zero" unicode="0" horiz-adv-x="389" d="M364 367 C364 711 322 774 195 774 C67 774 25 706 25 367 C25 42 68 -10 195 -10 C317 -10 364 42 364 367 L364 367 Z M226 383 C226 243 227 201 222 146 C217 86 216 74 195 74 C173 74 171 87 167 148 C163 202 162 245 162 385 C162 505 163 572 167 626 C171 682 174 696 195 696 C215 696 218 683 222 624 C226 569 226 504 226 383 L226 383 Z " />
<glyph glyph-name="one" unicode="1" horiz-adv-x="306" d="M264 0 L264 774 L190 774 C177 750 155 729 125 712 C96 696 66 686 15 680 L15 604 L130 604 L130 0 L264 0 Z " />
<glyph glyph-name="two" unicode="2" horiz-adv-x="398" d="M375 560 C375 704 319 774 204 774 C95 774 30 704 30 572 C30 534 44 463 51 433 L175 437 C168 480 162 526 162 558 C162 644 169 669 198 669 C224 669 235 651 235 561 C235 385 192 276 37 77 L37 0 L368 0 L368 126 C368 126 296 126 243 126 C227 126 193 123 182 121 C304 265 375 412 375 560 L375 560 Z " />
<glyph glyph-name="three" unicode="3" horiz-adv-x="391" d="M376 217 C376 345 327 414 259 419 C319 428 354 473 354 557 C354 709 311 774 186 774 C80 774 23 703 23 605 C23 571 28 549 32 535 L156 530 C154 545 149 571 149 597 C149 646 154 675 183 675 C211 675 216 656 216 571 C216 494 207 465 166 465 C142 465 103 465 103 465 L103 360 C103 360 141 360 166 360 C213 360 232 322 232 232 C232 130 225 98 189 98 C160 98 149 123 149 201 C149 233 155 269 159 286 L31 282 C24 252 21 222 21 172 C21 62 72 -10 185 -10 C302 -10 376 42 376 217 L376 217 Z " />
<glyph glyph-name="four" unicode="4" horiz-adv-x="415" d="M405 158 L405 266 L348 266 L348 768 L208 768 L22 307 L22 158 L214 158 L214 0 L348 0 L348 158 L405 158 Z M219 549 L216 266 L112 266 L219 549 Z " />
<glyph glyph-name="five" unicode="5" horiz-adv-x="405" d="M380 281 C380 474 316 557 229 557 C192 557 172 542 158 518 L166 658 L333 658 C337 675 339 694 340 712 C341 729 341 750 341 768 L54 768 L50 357 L164 354 C163 414 168 448 198 448 C226 448 241 415 241 281 C241 118 240 97 206 97 C178 97 170 112 170 195 C170 218 173 251 177 268 L51 259 C47 241 40 200 40 166 C40 48 96 -10 203 -10 C313 -10 380 55 380 281 L380 281 Z " />
<glyph glyph-name="six" unicode="6" horiz-adv-x="395" d="M377 255 C377 420 322 495 235 495 C197 495 176 479 159 447 C158 466 157 486 157 504 C157 648 165 682 201 682 C225 682 236 669 236 613 C236 588 232 563 229 551 L346 555 C351 577 354 600 354 628 C354 719 308 774 209 774 C92 774 25 714 25 387 C25 88 66 -10 201 -10 C312 -10 377 55 377 255 L377 255 Z M239 246 C239 104 228 89 202 89 C172 89 161 105 161 246 C161 378 166 404 201 404 C231 404 239 388 239 246 L239 246 Z " />
<glyph glyph-name="seven" unicode="7" horiz-adv-x="345" d="M344 676 L344 768 L5 768 C4 758 0 723 0 708 C0 687 1 657 7 637 L210 637 C134 494 71 288 71 78 C71 48 75 19 77 0 L233 0 C227 43 222 100 222 164 C222 368 260 513 344 676 L344 676 Z " />
<glyph glyph-name="eight" unicode="8" horiz-adv-x="396" d="M375 214 C375 348 346 405 293 425 C335 447 361 483 361 569 C361 707 309 774 198 774 C86 774 35 709 35 569 C35 486 53 444 103 425 C49 402 21 336 21 214 C21 54 78 -10 198 -10 C322 -10 375 54 375 214 L375 214 Z M228 579 C228 483 221 469 198 469 C174 469 168 481 168 579 C168 670 169 684 198 684 C223 684 228 666 228 579 L228 579 Z M237 227 C237 96 226 82 197 82 C169 82 159 99 159 227 C159 353 169 377 198 377 C227 377 237 356 237 227 L237 227 Z " />
<glyph glyph-name="nine" unicode="9" horiz-adv-x="396" d="M371 377 C371 661 330 774 195 774 C84 774 19 709 19 509 C19 344 68 265 161 265 C200 265 226 285 237 317 C238 301 239 284 239 260 C239 100 229 82 195 82 C170 82 161 88 161 151 C161 183 166 207 168 213 L55 209 C48 184 47 164 47 136 C47 41 88 -10 187 -10 C313 -10 371 50 371 377 L371 377 Z M235 518 C235 386 230 354 195 354 C165 354 158 376 158 518 C158 657 167 679 193 679 C227 679 235 656 235 518 L235 518 Z " />
<glyph glyph-name="colon" unicode="&#x3a;" horiz-adv-x="231" d="M183 373 L183 538 L48 538 L48 373 L183 373 Z M183 0 L183 165 L48 165 L48 0 L183 0 Z " />
<glyph glyph-name="semicolon" unicode="&#x3b;" horiz-adv-x="231" d="M183 373 L183 538 L48 538 L48 373 L183 373 Z M183 19 C183 75 183 165 183 165 L48 165 L48 0 L105 0 C107 -34 102 -50 91 -68 C79 -87 66 -97 53 -106 L73 -161 C86 -155 117 -134 141 -108 C168 -79 183 -44 183 19 L183 19 Z " />
<glyph glyph-name="less" unicode="&#x3c;" horiz-adv-x="315" d="M277 116 L277 255 L130 362 L277 469 L277 608 L23 406 L23 318 L277 116 Z " />
<glyph glyph-name="equal" unicode="&#x3d;" horiz-adv-x="419" d="M392 419 L392 529 L27 529 L27 419 L392 419 Z M392 215 L392 325 L27 325 L27 215 L392 215 Z " />
<glyph glyph-name="greater" unicode="&#x3e;" horiz-adv-x="315" d="M292 318 L292 406 L38 608 L38 469 L186 362 L38 255 L38 116 L292 318 Z " />
<glyph glyph-name="question" unicode="&#x3f;" horiz-adv-x="363" d="M343 519 C343 727 271 780 175 780 C64 780 19 720 19 635 C19 601 24 575 30 558 L148 556 C145 570 141 594 141 617 C141 661 146 680 169 680 C203 680 207 658 207 523 C207 442 200 423 182 423 C156 423 153 439 147 501 L56 501 L56 233 L150 233 L150 352 C163 332 189 315 224 315 C288 315 343 343 343 519 L343 519 Z M165 0 L165 165 L39 165 L39 0 L165 0 Z " />
<glyph glyph-name="at" unicode="&#x40;" horiz-adv-x="794" d="M752 421 C752 657 601 780 413 780 C174 780 32 603 32 350 C32 94 167 -68 399 -68 C502 -68 577 -21 625 24 L596 69 C554 21 477 -20 403 -20 C215 -20 90 127 90 349 C90 566 216 735 405 735 C562 735 699 635 699 420 C699 263 626 206 582 206 C567 206 556 217 556 230 C556 238 557 246 559 263 C561 277 567 316 572 349 C577 379 583 434 583 465 C583 549 537 603 433 603 C283 603 241 534 245 426 C271 431 383 447 383 447 C382 452 382 458 382 463 C382 490 393 510 413 510 C439 510 450 494 450 470 C450 460 447 438 444 423 C328 412 215 382 215 234 C215 157 265 125 323 125 C405 125 428 160 446 188 C451 155 481 130 553 130 C650 130 752 239 752 421 L752 421 Z M433 342 C431 321 427 293 425 279 C420 245 399 228 377 228 C355 228 343 238 343 265 C343 313 365 343 412 343 C420 343 428 343 433 342 L433 342 Z " />
<glyph glyph-name="A" unicode="A" horiz-adv-x="385" d="M378 0 L249 774 L117 774 L8 0 L133 0 L147 124 L215 124 L229 0 L378 0 Z M204 209 L157 209 C157 209 166 299 171 357 C174 392 176 459 178 535 C182 461 183 395 187 359 C193 301 204 209 204 209 L204 209 Z " />
<glyph glyph-name="B" unicode="B" horiz-adv-x="416" d="M399 217 C399 342 348 409 282 409 C343 412 377 463 377 557 C377 688 342 768 209 768 C143 768 36 768 36 768 L36 0 C36 0 141 0 208 0 C328 0 399 58 399 217 L399 217 Z M246 555 C246 489 239 457 203 457 C190 457 169 457 169 457 L169 678 C169 678 184 678 193 678 C237 678 246 645 246 555 L246 555 Z M256 232 C256 115 245 90 204 90 C190 90 169 90 169 90 L169 361 C169 361 189 361 202 361 C246 361 256 317 256 232 L256 232 Z " />
<glyph glyph-name="C" unicode="C" horiz-adv-x="389" d="M368 215 C368 263 366 295 362 339 L238 341 C242 300 245 254 245 221 C245 107 241 81 213 81 C181 81 171 112 171 376 C171 657 181 688 207 688 C232 688 239 668 239 600 C239 562 235 503 233 462 L353 466 C357 495 360 554 360 586 C360 709 324 780 206 780 C66 780 28 684 28 340 C28 30 82 -13 208 -13 C321 -13 368 66 368 215 L368 215 Z " />
<glyph glyph-name="D" unicode="D" horiz-adv-x="418" d="M396 345 C396 686 336 768 188 768 C130 768 36 768 36 768 L36 0 C36 0 145 0 214 0 C345 0 396 55 396 345 L396 345 Z M254 331 C254 110 241 95 185 95 C180 95 171 95 171 95 L171 681 C171 681 179 681 184 681 C239 681 254 623 254 331 L254 331 Z " />
<glyph glyph-name="E" unicode="E" horiz-adv-x="356" d="M338 0 L338 115 L171 115 L171 338 L300 338 L300 445 L171 445 L171 653 L317 653 L317 768 L36 768 L36 0 L338 0 Z " />
<glyph glyph-name="F" unicode="F" horiz-adv-x="326" d="M310 653 L310 768 L36 768 L36 0 L174 0 L174 327 L292 327 L292 437 L174 437 L174 653 L310 653 Z " />
<glyph glyph-name="G" unicode="G" horiz-adv-x="416" d="M382 -6 L382 410 L207 410 L207 311 L261 311 C262 290 263 267 263 230 C263 85 242 78 214 78 C182 78 169 93 169 363 C169 658 177 688 212 688 C240 688 246 669 246 579 C246 547 242 516 237 485 L361 490 C366 514 372 552 372 579 C372 722 330 780 217 780 C81 780 28 708 28 356 C28 32 87 -16 206 -16 C256 -16 284 11 300 50 L330 -6 L382 -6 Z " />
<glyph glyph-name="H" unicode="H" horiz-adv-x="416" d="M380 0 L380 768 L242 768 L242 476 L174 476 L174 768 L36 768 L36 0 L174 0 L174 361 L242 361 L242 0 L380 0 Z " />
<glyph glyph-name="I" unicode="I" horiz-adv-x="216" d="M180 0 L180 768 L36 768 L36 0 L180 0 Z " />
<glyph glyph-name="J" unicode="J" horiz-adv-x="393" d="M357 216 C357 431 357 768 357 768 L217 768 C217 768 217 401 217 167 C217 100 207 89 184 89 C164 89 144 103 144 167 C144 207 150 259 159 295 L25 292 C17 259 10 209 10 179 C10 41 63 -16 186 -16 C324 -16 357 41 357 216 L357 216 Z " />
<glyph glyph-name="K" unicode="K" horiz-adv-x="452" d="M453 0 L280 406 L439 768 L290 768 L174 477 L174 768 L36 768 L36 0 L174 0 L174 315 L291 0 L453 0 Z " />
<glyph glyph-name="L" unicode="L" horiz-adv-x="349" d="M339 0 L339 115 L176 115 L176 768 L36 768 L36 0 L339 0 Z " />
<glyph glyph-name="M" unicode="M" horiz-adv-x="524" d="M488 0 L488 768 L322 768 C315 716 295 597 277 484 C268 431 262 323 262 323 C262 323 256 430 247 485 C228 597 206 714 197 768 L36 768 L36 0 L158 0 C158 0 158 75 158 123 C158 295 154 563 154 563 C154 563 175 346 191 207 C200 127 213 0 213 0 L311 0 C311 0 323 127 331 207 C345 345 366 563 366 563 C366 563 363 295 363 123 C363 75 363 0 363 0 L488 0 Z " />
<glyph glyph-name="N" unicode="N" horiz-adv-x="418" d="M382 0 L382 768 L259 768 C259 768 259 677 259 618 C259 541 260 448 264 373 C258 406 248 446 235 495 C220 549 162 768 162 768 L36 768 L36 0 L163 0 C163 0 163 137 163 196 C163 286 162 316 156 419 C166 362 175 320 186 284 C200 237 269 0 269 0 L382 0 Z " />
<glyph glyph-name="O" unicode="O" horiz-adv-x="416" d="M388 383 C388 720 339 780 208 780 C77 780 28 720 28 383 C28 35 91 -16 208 -16 C334 -16 388 52 388 383 L388 383 Z M246 383 C246 243 245 190 241 135 C236 75 229 70 208 70 C185 70 177 76 172 135 C168 189 169 243 169 383 C169 503 168 579 172 633 C177 689 186 700 208 700 C228 700 236 689 241 633 C245 578 246 504 246 383 L246 383 Z " />
<glyph glyph-name="P" unicode="P" horiz-adv-x="409" d="M394 536 C394 698 338 768 223 768 C155 768 36 768 36 768 L36 0 L174 0 L174 297 C174 297 211 297 235 297 C343 297 394 352 394 536 L394 536 Z M256 534 C256 436 243 396 208 396 C195 396 174 396 174 396 L174 679 C174 679 185 679 196 679 C237 679 256 639 256 534 L256 534 Z " />
<glyph glyph-name="Q" unicode="Q" horiz-adv-x="416" d="M388 383 C388 720 341 780 204 780 C73 780 28 712 28 383 C28 57 82 15 151 -10 C146 -29 144 -47 144 -60 C144 -143 207 -159 254 -159 C317 -159 357 -132 357 -74 C357 -60 356 -49 354 -38 L287 -36 C289 -46 290 -54 290 -61 C290 -83 278 -88 263 -88 C251 -88 239 -80 239 -45 C239 -36 241 -23 243 -14 C330 2 388 46 388 383 L388 383 Z M246 383 C246 243 245 190 241 135 C236 75 229 70 208 70 C185 70 177 76 172 135 C168 189 169 243 169 383 C169 503 168 579 172 633 C177 689 186 700 208 700 C228 700 236 689 241 633 C245 578 246 504 246 383 L246 383 Z " />
<glyph glyph-name="R" unicode="R" horiz-adv-x="430" d="M419 0 C401 29 390 122 389 192 C388 313 374 388 290 394 C378 406 402 452 402 573 C402 712 337 768 241 768 C162 768 36 768 36 768 L36 0 L174 0 L174 340 C174 340 188 340 197 340 C237 340 248 304 248 234 C248 196 248 170 248 140 C248 85 254 28 264 0 L419 0 Z M263 543 C263 471 252 448 216 448 C201 448 174 448 174 448 L174 673 C174 673 190 673 200 673 C242 673 263 655 263 543 L263 543 Z " />
<glyph glyph-name="S" unicode="S" horiz-adv-x="403" d="M381 201 C381 339 334 413 263 453 C255 457 229 472 221 477 C182 499 155 525 155 611 C155 666 160 695 190 695 C222 695 230 673 230 600 C230 577 225 537 223 516 L341 528 C346 553 351 581 351 608 C351 721 295 780 188 780 C79 780 20 712 20 581 C20 491 46 415 122 371 C131 366 149 356 157 351 C219 315 241 286 241 178 C241 93 227 78 203 78 C172 78 160 103 160 189 C160 222 165 266 169 296 L49 291 C41 264 32 214 32 183 C32 33 97 -16 202 -16 C328 -16 381 60 381 201 L381 201 Z " />
<glyph glyph-name="T" unicode="T" horiz-adv-x="381" d="M373 653 L373 768 L7 768 L7 653 L120 653 L120 0 L260 0 L260 653 L373 653 Z " />
<glyph glyph-name="U" unicode="U" horiz-adv-x="421" d="M385 149 C385 390 385 768 385 768 L252 768 C252 768 252 392 252 151 C252 108 245 88 213 88 C182 88 174 108 174 151 C174 392 174 768 174 768 L36 768 C36 768 36 390 36 149 C36 39 96 -16 210 -16 C344 -16 385 48 385 149 L385 149 Z " />
<glyph glyph-name="V" unicode="V" horiz-adv-x="403" d="M393 768 L270 768 C260 692 242 549 224 409 C220 374 217 286 217 286 C217 286 212 371 207 409 C187 548 163 692 152 768 L10 768 L145 -5 L266 -5 L393 768 Z " />
<glyph glyph-name="W" unicode="W" horiz-adv-x="531" d="M529 768 L412 768 C412 768 391 606 382 502 C375 419 372 311 372 311 C372 311 368 418 358 502 C346 605 338 677 324 768 L215 768 C206 701 195 605 181 503 C174 451 165 317 165 317 C165 317 166 450 162 502 C154 606 139 768 139 768 L10 768 L101 0 L220 0 C220 0 240 138 251 225 C262 312 269 431 269 431 C269 431 277 312 286 225 C296 137 314 0 314 0 L425 0 L529 768 Z " />
<glyph glyph-name="X" unicode="X" horiz-adv-x="387" d="M392 0 L268 401 L386 768 L254 768 L205 562 L157 768 L12 768 L106 402 L1 0 L131 0 L179 235 L242 0 L392 0 Z " />
<glyph glyph-name="Y" unicode="Y" horiz-adv-x="395" d="M393 768 L262 768 L203 480 L138 768 L-6 768 L126 298 L126 0 L266 0 L266 298 L393 768 Z " />
<glyph glyph-name="Z" unicode="Z" horiz-adv-x="371" d="M349 0 L349 115 L167 115 L349 674 L349 768 L36 768 L36 653 L202 653 L12 92 L12 0 L349 0 Z " />
<glyph glyph-name="bracketleft" unicode="&#x5b;" horiz-adv-x="280" d="M255 -158 L255 -70 L182 -70 L182 680 L255 680 L255 768 L52 768 L52 -158 L255 -158 Z " />
<glyph glyph-name="backslash" unicode="&#x5c;" horiz-adv-x="341" d="M340 0 L74 768 L4 768 L271 0 L340 0 Z " />
<glyph glyph-name="bracketright" unicode="&#x5d;" horiz-adv-x="280" d="M227 -158 L227 768 L25 768 L25 680 L97 680 L97 -70 L25 -70 L25 -158 L227 -158 Z " />
<glyph glyph-name="asciicircum" unicode="&#x5e;" horiz-adv-x="343" d="M300 599 L224 768 L123 768 L46 599 L126 599 L173 655 L220 599 L300 599 Z " />
<glyph glyph-name="underscore" unicode="&#x5f;" horiz-adv-x="459" d="M459 -200 L459 -105 L0 -105 L0 -200 L459 -200 Z " />
<glyph glyph-name="grave" unicode="&#x60;" horiz-adv-x="381" d="M275 584 L237 708 L100 708 L188 584 L275 584 Z " />
<glyph glyph-name="a" unicode="a" horiz-adv-x="350" d="M345 3 L345 84 C338 81 332 80 325 80 C311 80 306 91 306 109 C306 234 306 303 306 427 C306 527 259 556 166 556 C75 556 31 514 31 435 C31 399 39 382 43 367 L143 370 C139 387 137 413 137 428 C137 466 141 479 164 479 C182 479 197 464 197 417 C197 349 186 333 157 325 C153 324 138 319 127 316 C62 297 19 264 19 154 C19 10 88 -10 142 -10 C175 -10 206 1 224 32 C231 10 247 -10 285 -10 C309 -10 332 -2 345 3 L345 3 Z M197 128 C197 97 191 72 169 72 C150 72 143 91 143 146 C143 220 153 235 197 255 C197 255 197 178 197 128 L197 128 Z " />
<glyph glyph-name="b" unicode="b" horiz-adv-x="348" d="M328 271 C328 508 272 556 213 556 C175 556 162 538 147 510 C147 533 147 768 147 768 L29 768 L29 -1 L82 -1 L96 43 C117 5 148 -10 186 -10 C276 -10 328 33 328 271 L328 271 Z M204 272 C204 85 197 73 175 73 C144 73 142 105 142 271 C142 444 148 465 175 465 C201 465 204 444 204 272 L204 272 Z " />
<glyph glyph-name="c" unicode="c" horiz-adv-x="327" d="M310 158 C310 188 305 226 301 245 L196 248 C197 219 200 184 200 168 C200 78 196 64 178 64 C153 64 149 77 149 270 C149 472 152 482 172 482 C189 482 193 468 193 389 C193 372 190 340 188 332 L296 334 C299 349 299 377 299 396 C299 512 262 556 172 556 C85 556 23 523 23 281 C23 48 59 -10 174 -10 C276 -10 310 32 310 158 L310 158 Z " />
<glyph glyph-name="d" unicode="d" horiz-adv-x="351" d="M322 -1 L322 768 L204 768 C204 768 204 536 204 513 C187 549 176 556 148 556 C84 556 23 496 23 259 C23 39 69 -10 145 -10 C180 -10 200 8 209 44 L209 -1 L322 -1 Z M206 271 C206 105 207 70 176 70 C155 70 145 82 145 272 C145 465 151 480 176 480 C202 480 206 430 206 271 L206 271 Z " />
<glyph glyph-name="e" unicode="e" horiz-adv-x="327" d="M309 299 C309 472 271 556 171 556 C70 556 23 490 23 249 C23 28 70 -10 179 -10 C265 -10 307 32 307 138 C307 154 304 195 301 208 L201 210 C203 194 204 185 204 171 C204 71 198 61 175 61 C146 61 143 85 143 199 C143 220 143 252 143 252 L304 252 C307 265 309 285 309 299 L309 299 Z M198 379 C199 363 198 335 197 322 L141 322 C141 322 141 356 141 364 C146 471 148 487 171 487 C191 487 194 472 198 379 L198 379 Z " />
<glyph glyph-name="f" unicode="f" horiz-adv-x="249" d="M310 666 C310 739 263 776 191 776 C112 776 57 732 57 665 C57 620 57 547 57 547 L0 547 L0 478 L57 478 L57 0 L177 0 L177 478 L243 478 L243 547 L177 547 C177 547 177 620 177 666 C177 691 188 701 199 701 C216 701 223 691 223 649 C223 636 219 615 214 598 L300 599 C305 620 310 641 310 666 L310 666 Z " />
<glyph glyph-name="g" unicode="g" horiz-adv-x="359" d="M381 591 L284 591 L268 522 C251 538 216 546 187 546 C90 546 31 476 31 366 C31 300 58 235 86 217 C52 204 17 178 17 130 C17 92 34 60 76 54 C28 34 1 1 1 -33 C1 -132 71 -172 190 -172 C302 -172 363 -119 363 -9 C363 91 303 150 236 150 C210 150 194 150 167 150 C127 150 117 155 117 169 C117 181 126 187 136 194 C150 191 180 187 193 187 C287 187 336 243 336 366 C336 425 327 457 310 480 L381 591 Z M217 366 C217 272 207 259 183 259 C159 259 149 272 149 366 C149 456 154 475 183 475 C210 475 217 458 217 366 L217 366 Z M252 -26 C252 -76 226 -107 181 -107 C130 -107 97 -78 97 -20 C97 9 107 23 129 47 C129 47 156 47 174 47 C228 47 252 34 252 -26 L252 -26 Z " />
<glyph glyph-name="h" unicode="h" horiz-adv-x="345" d="M316 0 C316 0 316 286 316 469 C316 524 283 556 224 556 C186 556 164 542 146 508 C146 534 146 768 146 768 L29 768 L29 0 L149 0 C149 0 149 249 149 407 C149 455 157 472 176 472 C193 472 197 455 197 441 C197 269 197 0 197 0 L316 0 Z " />
<glyph glyph-name="i" unicode="i" horiz-adv-x="182" d="M153 622 L153 741 L29 741 L29 622 L153 622 Z M153 0 L153 547 L29 547 L29 0 L153 0 Z " />
<glyph glyph-name="j" unicode="j" horiz-adv-x="198" d="M169 622 L169 741 L45 741 L45 622 L169 622 Z M169 -67 C169 172 169 547 169 547 L45 547 C45 547 45 171 45 -70 C45 -96 40 -106 19 -106 C-2 -106 -7 -92 -7 -63 C-7 -46 -6 -31 -3 -17 L-95 -18 C-100 -39 -101 -55 -101 -71 C-101 -144 -46 -181 36 -181 C122 -181 169 -134 169 -67 L169 -67 Z " />
<glyph glyph-name="k" unicode="k" horiz-adv-x="360" d="M366 0 L232 311 L352 547 L226 547 L149 386 L149 768 L29 768 L29 0 L149 0 L149 200 L232 0 L366 0 Z " />
<glyph glyph-name="l" unicode="l" horiz-adv-x="180" d="M151 0 L151 768 L29 768 L29 0 L151 0 Z " />
<glyph glyph-name="m" unicode="m" horiz-adv-x="502" d="M473 0 L473 469 C473 528 437 556 379 556 C340 556 315 541 297 505 C287 531 274 556 216 556 C178 556 156 541 142 507 C145 533 144 547 144 547 L29 547 L29 0 L145 0 C145 0 145 252 145 413 C145 460 150 478 171 478 C188 478 193 471 193 447 C193 273 193 0 193 0 L309 0 C309 0 309 251 309 411 C309 458 314 476 335 476 C352 476 357 469 357 445 C357 272 357 0 357 0 L473 0 Z " />
<glyph glyph-name="n" unicode="n" horiz-adv-x="343" d="M316 0 C316 0 316 287 316 469 C316 524 284 556 225 556 C187 556 164 542 146 508 C146 534 148 547 148 547 L29 547 L29 0 L149 0 C149 0 149 249 149 407 C149 455 157 472 176 472 C193 472 197 455 197 441 C197 269 197 0 197 0 L316 0 Z " />
<glyph glyph-name="o" unicode="o" horiz-adv-x="349" d="M326 266 C326 472 288 556 174 556 C56 556 23 478 23 266 C23 48 66 -10 174 -10 C292 -10 326 48 326 266 L326 266 Z M202 266 C202 65 195 60 174 60 C152 60 147 65 147 266 C147 474 149 484 174 484 C196 484 202 480 202 266 L202 266 Z " />
<glyph glyph-name="p" unicode="p" horiz-adv-x="349" d="M328 271 C328 508 272 556 213 556 C175 556 156 522 149 496 C149 519 150 536 151 547 L29 547 L29 -176 L149 -176 L149 25 C155 0 179 -10 195 -10 C276 -10 328 33 328 271 L328 271 Z M204 272 C204 57 197 56 175 56 C144 56 144 105 144 271 C144 466 152 474 175 474 C199 474 204 463 204 272 L204 272 Z " />
<glyph glyph-name="q" unicode="q" horiz-adv-x="351" d="M322 -176 L322 551 L286 551 L252 503 C235 530 211 556 167 556 C79 556 23 496 23 259 C23 39 69 -10 145 -10 C173 -10 187 -1 202 20 L202 -176 L322 -176 Z M204 271 C204 89 197 65 176 65 C150 65 145 76 145 272 C145 470 153 484 176 484 C198 484 204 465 204 271 L204 271 Z " />
<glyph glyph-name="r" unicode="r" horiz-adv-x="310" d="M302 427 C302 519 263 556 213 556 C177 556 161 537 147 494 L147 547 L29 547 L29 0 L149 0 C149 0 149 220 149 360 C149 451 155 464 173 464 C192 464 198 444 198 407 C198 378 187 330 181 305 L280 309 C291 342 302 386 302 427 L302 427 Z " />
<glyph glyph-name="s" unicode="s" horiz-adv-x="325" d="M312 155 C312 250 279 304 215 333 C208 336 193 343 180 349 C139 368 134 390 134 429 C134 470 144 485 163 485 C184 485 191 472 191 422 C191 408 188 380 186 369 L281 372 C283 380 288 406 288 425 C288 518 244 556 159 556 C85 556 17 507 17 407 C17 319 38 283 84 260 C98 253 110 247 118 243 C163 221 185 199 185 133 C185 84 175 69 154 69 C130 69 123 83 123 135 C123 149 126 178 132 204 L28 196 C24 174 20 145 20 122 C20 33 74 -10 159 -10 C261 -10 312 46 312 155 L312 155 Z " />
<glyph glyph-name="t" unicode="t" horiz-adv-x="263" d="M251 15 L251 87 C236 82 217 79 202 79 C180 79 172 93 172 121 C172 240 172 478 172 478 L244 478 L244 547 L172 547 L172 714 L53 714 L51 547 L-5 547 L-5 478 L50 478 C48 200 47 113 47 94 C47 15 80 -10 155 -10 C197 -10 237 2 251 15 L251 15 Z " />
<glyph glyph-name="u" unicode="u" horiz-adv-x="345" d="M316 -1 L316 547 L196 547 C196 547 196 294 196 133 C196 94 188 75 169 75 C152 75 148 85 148 110 C148 280 148 547 148 547 L29 547 C29 547 29 260 29 78 C29 23 60 -10 122 -10 C160 -10 190 1 205 39 L205 -1 L316 -1 Z " />
<glyph glyph-name="v" unicode="v" horiz-adv-x="315" d="M312 547 L203 547 C203 547 182 396 172 300 C168 258 160 193 160 193 C160 193 157 258 152 299 C141 395 124 547 124 547 L3 547 L95 0 L214 0 L312 547 Z " />
<glyph glyph-name="w" unicode="w" horiz-adv-x="456" d="M453 547 L340 547 C340 547 322 414 311 330 C307 301 305 254 305 254 C305 254 303 301 300 330 C291 414 275 547 275 547 L181 547 C181 547 166 410 155 324 C152 298 151 254 151 254 C151 254 150 298 147 324 C138 410 121 547 121 547 L3 547 L95 0 L192 0 C192 0 211 144 222 235 C225 263 227 309 227 309 C227 309 229 263 232 235 C242 145 261 0 261 0 L360 0 L453 547 Z " />
<glyph glyph-name="x" unicode="x" horiz-adv-x="322" d="M329 0 L218 287 L314 547 L198 547 L163 435 L134 547 L3 547 L98 293 L-7 0 L106 0 L151 151 L197 0 L329 0 Z " />
<glyph glyph-name="y" unicode="y" horiz-adv-x="345" d="M342 547 L227 547 L187 218 L118 547 L-7 547 L141 -16 C137 -60 128 -86 107 -86 C90 -86 83 -77 83 -59 C83 -45 84 -37 86 -24 L-17 -33 C-18 -46 -19 -61 -19 -74 C-19 -145 34 -176 110 -176 C196 -176 222 -126 244 0 C245 8 285 229 342 547 L342 547 Z " />
<glyph glyph-name="z" unicode="z" horiz-adv-x="289" d="M279 457 L279 547 L37 547 L37 468 L161 468 L13 75 L13 0 L276 0 L276 87 L137 87 L279 457 Z " />
<glyph glyph-name="braceleft" unicode="&#x7b;" horiz-adv-x="280" d="M269 684 L269 768 C269 768 228 768 203 768 C141 768 96 744 96 674 C96 603 96 459 96 390 C96 355 81 338 39 338 L39 266 C81 266 96 249 96 214 C96 145 96 -11 96 -82 C96 -152 140 -176 202 -176 C227 -176 268 -176 268 -176 L268 -92 C268 -92 247 -92 235 -92 C214 -92 204 -88 204 -64 C204 16 204 156 204 248 C204 286 192 302 158 302 C192 302 204 317 204 356 C204 448 204 575 204 655 C204 679 215 684 236 684 C248 684 269 684 269 684 L269 684 Z " />
<glyph glyph-name="bar" unicode="&#x7c;" horiz-adv-x="184" d="M134 -200 L134 800 L50 800 L50 -200 L134 -200 Z " />
<glyph glyph-name="braceright" unicode="&#x7d;" horiz-adv-x="280" d="M242 266 L242 338 C200 338 185 355 185 390 C185 459 185 603 185 674 C185 744 140 768 79 768 C54 768 13 768 13 768 L13 684 C13 684 34 684 45 684 C66 684 78 679 78 655 C78 575 78 448 78 356 C78 317 89 302 124 302 C89 302 78 286 78 248 C78 156 78 16 78 -64 C78 -88 67 -92 46 -92 C35 -92 14 -92 14 -92 L14 -176 C14 -176 55 -176 80 -176 C141 -176 185 -152 185 -82 C185 -11 185 145 185 214 C185 249 200 266 242 266 L242 266 Z " />
<glyph glyph-name="asciitilde" unicode="&#x7e;" horiz-adv-x="257" d="M247 719 C247 745 239 768 239 768 L205 768 C205 765 205 761 205 755 C205 742 201 722 184 722 C171 722 166 729 156 739 C152 743 144 750 139 755 C123 770 105 779 76 779 C28 779 15 737 15 701 C15 675 23 656 23 656 L57 656 C57 659 57 664 57 669 C57 682 59 699 78 699 C88 699 94 693 109 678 C115 672 121 666 126 662 C142 649 154 641 176 641 C227 641 247 682 247 719 L247 719 Z " />
<glyph glyph-name="nbspace" unicode="&#xa0;" horiz-adv-x="115" d="" />
<glyph glyph-name="exclamdown" unicode="&#xa1;" horiz-adv-x="210" d="M168 603 L168 768 L42 768 L42 603 L168 603 Z M170 0 L170 285 L137 534 L72 534 L40 285 L40 0 L170 0 Z " />
<glyph glyph-name="cent" unicode="&#xa2;" horiz-adv-x="363" d="M344 301 C344 333 338 369 334 388 L222 391 C224 362 226 327 226 311 C226 233 210 220 192 220 C164 220 150 230 150 413 C150 600 164 616 187 616 C202 616 219 604 219 539 C219 511 216 490 213 475 L326 477 C328 493 332 520 332 539 C332 637 285 693 213 697 L213 768 L164 768 L164 698 C84 695 23 627 23 424 C23 210 66 145 164 134 L164 62 L213 62 L213 134 C297 143 344 192 344 301 L344 301 Z " />
<glyph glyph-name="sterling" unicode="&#xa3;" horiz-adv-x="506" d="M499 140 C499 180 496 200 481 237 L390 246 C396 224 399 205 399 178 C399 145 390 101 351 101 C318 101 293 114 268 128 C282 155 294 195 294 261 C294 282 293 294 290 312 L421 312 L421 395 L276 395 C265 461 253 520 253 590 C253 634 270 668 306 668 C339 668 358 640 358 577 C358 543 354 506 347 477 L464 490 C474 521 477 544 477 577 C477 696 418 774 303 774 C170 774 123 688 123 555 C123 495 131 453 145 395 L43 395 L43 312 L169 312 C177 289 183 260 183 228 C183 209 180 178 176 162 C163 168 140 180 110 180 C36 180 2 142 2 82 C2 25 39 -10 112 -10 C174 -10 206 16 225 50 C274 12 307 -10 373 -10 C469 -10 499 54 499 140 L499 140 Z M149 88 C139 71 125 62 114 62 C98 62 86 74 86 84 C86 96 99 107 113 107 C129 107 143 93 149 88 L149 88 Z " />
<glyph glyph-name="currency" unicode="&#xa4;" horiz-adv-x="328" d="M296 371 C296 590 237 767 164 767 C92 767 32 590 32 371 C32 155 92 -22 164 -22 C237 -22 296 155 296 371 L296 371 Z M265 203 L177 251 L141 23 L124 290 L53 314 L117 435 L120 674 L177 506 L257 551 L211 379 L265 203 Z " />
<glyph glyph-name="yen" unicode="&#xa5;" horiz-adv-x="395" d="M393 768 L267 768 L203 475 L133 768 L-6 768 L81 469 L0 469 L0 394 L102 394 L126 310 L0 310 L0 235 L128 235 L128 0 L264 0 L264 235 L388 235 L388 310 L266 310 L289 394 L388 394 L388 469 L309 469 L393 768 Z " />
<glyph glyph-name="brokenbar" unicode="&#xa6;" horiz-adv-x="328" d="M296 371 C296 590 237 767 164 767 C92 767 32 590 32 371 C32 155 92 -22 164 -22 C237 -22 296 155 296 371 L296 371 Z M265 203 L177 251 L141 23 L124 290 L53 314 L117 435 L120 674 L177 506 L257 551 L211 379 L265 203 Z " />
<glyph glyph-name="section" unicode="&#xa7;" horiz-adv-x="353" d="M335 378 C335 468 293 514 229 549 C225 551 197 567 193 569 C151 592 144 609 144 651 C144 678 156 693 177 693 C195 693 209 681 209 644 C209 630 208 603 206 597 L311 605 C312 613 313 624 312 643 C309 733 259 774 172 774 C86 774 27 713 27 625 C27 552 55 513 105 482 C64 462 19 409 19 341 C19 268 48 229 94 205 C98 203 123 190 127 188 C178 162 200 131 200 74 C200 36 188 18 166 18 C143 18 133 38 133 76 C133 90 135 112 139 132 L33 124 C30 102 28 89 28 66 C28 -23 84 -66 170 -66 C275 -66 327 -13 327 99 C327 169 297 206 263 236 C296 258 335 309 335 378 L335 378 Z M235 351 C235 326 215 294 196 280 C187 285 162 300 151 308 C130 323 121 348 121 372 C121 399 148 428 169 441 C181 433 198 420 210 408 C222 396 235 371 235 351 L235 351 Z " />
<glyph glyph-name="dieresis" unicode="&#xa8;" horiz-adv-x="381" d="M340 590 L340 702 L244 702 L244 590 L340 590 Z M158 590 L158 702 L62 702 L62 590 L158 590 Z " />
<glyph glyph-name="copyright" unicode="&#xa9;" horiz-adv-x="592" d="M567 497 C567 647 443 770 293 770 C143 770 19 647 19 497 C19 347 143 223 293 223 C443 223 567 347 567 497 L567 497 Z M535 497 C535 362 428 251 293 251 C158 251 51 362 51 497 C51 632 158 742 293 742 C428 742 535 632 535 497 L535 497 Z M416 418 C416 440 411 465 409 478 L330 480 C334 461 336 435 336 424 C336 372 319 356 298 356 C267 356 254 370 254 500 C254 631 265 644 293 644 C307 644 327 633 327 583 C327 571 325 552 323 544 L400 545 C403 553 407 573 407 589 C407 670 365 701 293 701 C203 701 160 654 160 507 C160 344 202 299 295 299 C375 299 416 333 416 418 L416 418 Z " />
<glyph glyph-name="ordfeminine" unicode="&#xaa;" horiz-adv-x="393" d="M347 385 L347 439 C340 436 330 435 323 435 C310 435 300 444 300 458 C300 549 300 615 300 692 C300 734 276 780 184 780 C97 780 51 750 51 691 C51 672 53 659 63 647 L153 650 C150 663 148 673 148 685 C148 715 153 726 175 726 C194 726 200 715 200 676 C200 644 191 621 162 614 C154 612 139 608 133 606 C68 589 34 541 34 490 C34 388 96 374 148 374 C179 374 205 382 221 407 C229 389 247 374 285 374 C308 374 336 381 347 385 L347 385 Z M351 296 L351 338 L41 338 L41 296 L351 296 Z M200 484 C200 439 198 422 173 422 C150 422 143 438 143 498 C143 533 152 550 200 568 C200 568 200 516 200 484 L200 484 Z " />
<glyph glyph-name="guillemotleft" unicode="&#xab;" horiz-adv-x="486" d="M443 35 L443 154 L331 265 L443 375 L443 494 L254 330 L254 201 L443 35 Z M228 35 L228 154 L116 265 L228 375 L228 494 L39 330 L39 201 L228 35 Z " />
<glyph glyph-name="logicalnot" unicode="&#xac;" horiz-adv-x="328" d="M296 371 C296 590 237 767 164 767 C92 767 32 590 32 371 C32 155 92 -22 164 -22 C237 -22 296 155 296 371 L296 371 Z M265 203 L177 251 L141 23 L124 290 L53 314 L117 435 L120 674 L177 506 L257 551 L211 379 L265 203 Z " />
<glyph glyph-name="registered" unicode="&#xae;" horiz-adv-x="592" d="M567 497 C567 647 443 770 293 770 C143 770 19 647 19 497 C19 347 143 223 293 223 C443 223 567 347 567 497 L567 497 Z M535 497 C535 362 428 251 293 251 C158 251 51 362 51 497 C51 632 158 742 293 742 C428 742 535 632 535 497 L535 497 Z M400 583 C400 662 375 704 314 704 C266 704 192 704 192 704 L192 302 L267 302 L267 458 C267 458 280 458 288 458 C305 458 310 443 310 417 C310 396 310 403 310 351 C310 324 314 310 318 302 L396 302 C394 309 390 330 390 347 C387 452 382 489 325 494 C379 499 400 519 400 583 L400 583 Z M321 588 C321 532 306 522 288 522 C280 522 267 522 267 522 L267 648 C267 648 279 648 287 648 C307 648 321 641 321 588 L321 588 Z " />
<glyph glyph-name="macron" unicode="&#xaf;" horiz-adv-x="381" d="M319 601 L319 666 L58 666 L58 601 L319 601 Z " />
<glyph glyph-name="degree" unicode="&#xb0;" horiz-adv-x="419" d="M328 655 C328 720 274 774 209 774 C144 774 90 720 90 655 C90 590 144 537 209 537 C274 537 328 590 328 655 L328 655 Z M266 655 C266 624 240 599 209 599 C178 599 152 624 152 655 C152 686 178 712 209 712 C240 712 266 686 266 655 L266 655 Z " />
<glyph glyph-name="plusminus" unicode="&#xb1;" horiz-adv-x="626" d="M597 0 L597 768 L509 768 C494 772 473 776 454 776 C393 776 361 763 335 750 C308 770 274 776 237 776 C129 776 59 718 59 644 C59 606 59 547 59 547 L2 547 L2 478 L59 478 L59 0 L179 0 L179 478 L265 478 L265 0 L389 0 L389 478 L446 478 L446 547 L389 547 C389 547 389 593 389 622 C389 664 406 701 447 701 C459 701 468 697 475 693 L475 0 L597 0 Z M276 689 C270 678 265 659 265 638 C265 596 265 547 265 547 L179 547 C179 547 179 600 179 632 C179 666 201 701 233 701 C253 701 268 694 276 689 L276 689 Z " />
<glyph glyph-name="twosuperior" unicode="&#xb2;" horiz-adv-x="328" d="M296 371 C296 590 237 767 164 767 C92 767 32 590 32 371 C32 155 92 -22 164 -22 C237 -22 296 155 296 371 L296 371 Z M265 203 L177 251 L141 23 L124 290 L53 314 L117 435 L120 674 L177 506 L257 551 L211 379 L265 203 Z " />
<glyph glyph-name="threesuperior" unicode="&#xb3;" horiz-adv-x="328" d="M296 371 C296 590 237 767 164 767 C92 767 32 590 32 371 C32 155 92 -22 164 -22 C237 -22 296 155 296 371 L296 371 Z M265 203 L177 251 L141 23 L124 290 L53 314 L117 435 L120 674 L177 506 L257 551 L211 379 L265 203 Z " />
<glyph glyph-name="acute" unicode="&#xb4;" horiz-adv-x="381" d="M295 708 L169 708 L122 584 L195 584 L295 708 Z " />
<glyph glyph-name="mu" unicode="&#xb5;" horiz-adv-x="328" d="M296 371 C296 590 237 767 164 767 C92 767 32 590 32 371 C32 155 92 -22 164 -22 C237 -22 296 155 296 371 L296 371 Z M265 203 L177 251 L141 23 L124 290 L53 314 L117 435 L120 674 L177 506 L257 551 L211 379 L265 203 Z " />
<glyph glyph-name="paragraph" unicode="&#xb6;" horiz-adv-x="452" d="M416 0 L416 768 C416 768 299 768 225 768 C116 768 29 707 29 522 C29 352 135 294 244 274 L244 0 L307 0 L307 708 L353 708 L353 0 L416 0 Z M244 332 C191 356 173 403 173 520 C173 666 204 708 244 708 L244 332 Z " />
<glyph glyph-name="periodcentered" unicode="&#xb7;" horiz-adv-x="292" d="M240 410 C240 472 198 522 146 522 C94 522 52 472 52 410 C52 348 94 298 146 298 C198 298 240 348 240 410 L240 410 Z " />
<glyph glyph-name="cedilla" unicode="&#xb8;" horiz-adv-x="381" d="M277 -102 C277 -47 236 -24 197 -24 C183 -24 162 -26 162 -26 L147 -92 C156 -87 167 -85 176 -85 C191 -85 204 -92 204 -110 C204 -129 196 -140 174 -140 C147 -140 134 -130 114 -114 L90 -160 C106 -175 139 -195 180 -195 C238 -195 277 -155 277 -102 L277 -102 Z " />
<glyph glyph-name="onesuperior" unicode="&#xb9;" horiz-adv-x="328" d="M296 371 C296 590 237 767 164 767 C92 767 32 590 32 371 C32 155 92 -22 164 -22 C237 -22 296 155 296 371 L296 371 Z M265 203 L177 251 L141 23 L124 290 L53 314 L117 435 L120 674 L177 506 L257 551 L211 379 L265 203 Z " />
<glyph glyph-name="ordmasculine" unicode="&#xba;" horiz-adv-x="393" d="M342 572 C342 716 305 780 196 780 C82 780 51 718 51 572 C51 422 93 374 196 374 C309 374 342 422 342 572 L342 572 Z M351 296 L351 338 L41 338 L41 296 L351 296 Z M226 572 C226 425 220 416 196 416 C174 416 167 427 167 572 C167 716 170 735 196 735 C222 735 226 717 226 572 L226 572 Z " />
<glyph glyph-name="guillemotright" unicode="&#xbb;" horiz-adv-x="486" d="M447 201 L447 330 L258 494 L258 375 L361 265 L258 154 L258 35 L447 201 Z M232 201 L232 330 L43 494 L43 375 L146 265 L43 154 L43 35 L232 201 Z " />
<glyph glyph-name="onequarter" unicode="&#xbc;" horiz-adv-x="328" d="M296 371 C296 590 237 767 164 767 C92 767 32 590 32 371 C32 155 92 -22 164 -22 C237 -22 296 155 296 371 L296 371 Z M265 203 L177 251 L141 23 L124 290 L53 314 L117 435 L120 674 L177 506 L257 551 L211 379 L265 203 Z " />
<glyph glyph-name="onehalf" unicode="&#xbd;" horiz-adv-x="328" d="M296 371 C296 590 237 767 164 767 C92 767 32 590 32 371 C32 155 92 -22 164 -22 C237 -22 296 155 296 371 L296 371 Z M265 203 L177 251 L141 23 L124 290 L53 314 L117 435 L120 674 L177 506 L257 551 L211 379 L265 203 Z " />
<glyph glyph-name="threequarters" unicode="&#xbe;" horiz-adv-x="328" d="M296 371 C296 590 237 767 164 767 C92 767 32 590 32 371 C32 155 92 -22 164 -22 C237 -22 296 155 296 371 L296 371 Z M265 203 L177 251 L141 23 L124 290 L53 314 L117 435 L120 674 L177 506 L257 551 L211 379 L265 203 Z " />
<glyph glyph-name="questiondown" unicode="&#xbf;" horiz-adv-x="363" d="M320 603 L320 768 L194 768 L194 603 L320 603 Z M345 133 C345 167 340 193 334 210 L216 212 C219 198 223 174 223 151 C223 107 218 88 195 88 C161 88 157 110 157 245 C157 326 164 345 182 345 C208 345 211 329 217 267 L308 267 L308 535 L214 535 L214 416 C201 436 175 453 140 453 C76 453 21 425 21 249 C21 41 93 -12 189 -12 C300 -12 345 48 345 133 L345 133 Z " />
<glyph glyph-name="Agrave" unicode="&#xc0;" horiz-adv-x="385" d="M221 790 L184 876 L62 876 L145 790 L221 790 Z M377 0 L248 768 L117 768 L8 0 L133 0 L147 123 L214 123 L228 0 L377 0 Z M203 207 L157 207 C157 207 166 297 171 354 C174 389 176 455 178 531 C182 457 183 392 186 356 C192 299 203 207 203 207 L203 207 Z " />
<glyph glyph-name="Aacute" unicode="&#xc1;" horiz-adv-x="385" d="M303 876 L181 876 L144 790 L220 790 L303 876 Z M378 0 L249 774 L117 774 L8 0 L133 0 L147 124 L215 124 L229 0 L378 0 Z M204 209 L157 209 C157 209 166 299 171 357 C174 392 176 459 178 535 C182 461 183 395 187 359 C193 301 204 209 204 209 L204 209 Z " />
<glyph glyph-name="Acircumflex" unicode="&#xc2;" horiz-adv-x="385" d="M324 790 L241 894 L130 894 L46 790 L134 790 L185 836 L237 790 L324 790 Z M378 0 L249 774 L117 774 L8 0 L133 0 L147 124 L215 124 L229 0 L378 0 Z M204 209 L157 209 C157 209 166 299 171 357 C174 392 176 459 178 535 C182 461 183 395 187 359 C193 301 204 209 204 209 L204 209 Z " />
<glyph glyph-name="Atilde" unicode="&#xc3;" horiz-adv-x="385" d="M378 0 L249 774 L117 774 L8 0 L133 0 L147 124 L215 124 L229 0 L378 0 Z M204 209 L157 209 C157 209 166 299 171 357 C174 392 176 459 178 535 C182 461 183 395 187 359 C193 301 204 209 204 209 L204 209 Z M310 846 C310 865 301 881 301 881 L265 881 C265 880 265 877 265 874 C265 864 262 850 242 850 C230 850 223 853 211 860 C207 862 196 870 192 872 C167 886 152 889 123 889 C70 889 56 859 56 833 C56 814 65 801 65 801 L101 801 C101 803 101 806 101 809 C101 818 105 829 124 829 C138 829 146 824 159 817 C163 815 174 808 178 805 C192 796 210 790 233 790 C289 790 310 820 310 846 L310 846 Z " />
<glyph glyph-name="Adieresis" unicode="&#xc4;" horiz-adv-x="385" d="M347 800 L347 877 L242 877 L242 800 L347 800 Z M130 800 L130 877 L25 877 L25 800 L130 800 Z M378 0 L249 774 L117 774 L8 0 L133 0 L147 124 L215 124 L229 0 L378 0 Z M204 209 L157 209 C157 209 166 299 171 357 C174 392 176 459 178 535 C182 461 183 395 187 359 C193 301 204 209 204 209 L204 209 Z " />
<glyph glyph-name="Aring" unicode="&#xc5;" horiz-adv-x="385" d="M378 0 L254 744 C277 764 292 794 292 828 C292 890 242 940 180 940 C118 940 68 890 68 828 C68 792 86 760 112 739 L8 0 L133 0 L147 124 L215 124 L229 0 L378 0 Z M238 828 C238 796 212 770 180 770 C148 770 122 796 122 828 C122 860 148 886 180 886 C212 886 238 860 238 828 L238 828 Z M204 209 L157 209 C157 209 166 299 171 357 C174 392 176 459 178 535 C182 461 183 395 187 359 C193 301 204 209 204 209 L204 209 Z " />
<glyph glyph-name="AE" unicode="&#xc6;" horiz-adv-x="598" d="M580 0 L580 115 L406 115 L406 338 L542 338 L542 445 L406 445 L406 653 L559 653 L559 768 C559 768 224 768 223 768 L-5 0 L122 0 L158 124 L278 124 L278 0 L580 0 Z M278 219 L181 219 C181 219 202 299 215 357 C223 392 278 635 278 635 L278 219 Z " />
<glyph glyph-name="Ccedilla" unicode="&#xc7;" horiz-adv-x="389" d="M368 215 C368 263 366 295 362 339 L238 341 C242 300 245 254 245 221 C245 107 241 81 213 81 C181 81 171 112 171 376 C171 657 181 688 207 688 C232 688 239 668 239 600 C239 562 235 503 233 462 L353 466 C357 495 360 554 360 586 C360 709 324 780 206 780 C66 780 28 684 28 340 C28 30 82 -13 208 -13 C321 -13 368 66 368 215 L368 215 Z M299 -102 C299 -47 258 -24 219 -24 C205 -24 184 -26 184 -26 L169 -92 C178 -87 189 -85 198 -85 C213 -85 226 -92 226 -110 C226 -129 218 -140 196 -140 C169 -140 156 -130 136 -114 L112 -160 C128 -175 161 -195 202 -195 C260 -195 299 -155 299 -102 L299 -102 Z " />
<glyph glyph-name="Egrave" unicode="&#xc8;" horiz-adv-x="356" d="M233 790 L196 876 L74 876 L157 790 L233 790 Z M338 0 L338 115 L171 115 L171 338 L300 338 L300 445 L171 445 L171 653 L317 653 L317 768 L36 768 L36 0 L338 0 Z " />
<glyph glyph-name="Eacute" unicode="&#xc9;" horiz-adv-x="356" d="M291 876 L169 876 L132 790 L208 790 L291 876 Z M338 0 L338 115 L171 115 L171 338 L300 338 L300 445 L171 445 L171 653 L317 653 L317 768 L36 768 L36 0 L338 0 Z " />
<glyph glyph-name="Ecircumflex" unicode="&#xca;" horiz-adv-x="356" d="M338 0 L338 115 L171 115 L171 338 L300 338 L300 445 L171 445 L171 653 L317 653 L317 768 L36 768 L36 0 L338 0 Z M317 790 L234 894 L123 894 L39 790 L127 790 L178 836 L230 790 L317 790 Z " />
<glyph glyph-name="Edieresis" unicode="&#xcb;" horiz-adv-x="356" d="M342 800 L342 877 L237 877 L237 800 L342 800 Z M125 800 L125 877 L20 877 L20 800 L125 800 Z M338 0 L338 115 L171 115 L171 338 L300 338 L300 445 L171 445 L171 653 L317 653 L317 768 L36 768 L36 0 L338 0 Z " />
<glyph glyph-name="Igrave" unicode="&#xcc;" horiz-adv-x="216" d="M157 790 L120 876 L-2 876 L81 790 L157 790 Z M180 0 L180 768 L36 768 L36 0 L180 0 Z " />
<glyph glyph-name="Iacute" unicode="&#xcd;" horiz-adv-x="216" d="M234 876 L112 876 L75 790 L151 790 L234 876 Z M180 0 L180 768 L36 768 L36 0 L180 0 Z " />
<glyph glyph-name="Icircumflex" unicode="&#xce;" horiz-adv-x="216" d="M251 790 L168 894 L57 894 L-27 790 L61 790 L112 836 L164 790 L251 790 Z M180 0 L180 768 L36 768 L36 0 L180 0 Z " />
<glyph glyph-name="Idieresis" unicode="&#xcf;" horiz-adv-x="216" d="M257 800 L257 877 L152 877 L152 800 L257 800 Z M67 800 L67 877 L-38 877 L-38 800 L67 800 Z M180 0 L180 768 L36 768 L36 0 L180 0 Z " />
<glyph glyph-name="Eth" unicode="&#xd0;" horiz-adv-x="418" d="M396 345 C396 686 336 768 188 768 C130 768 36 768 36 768 L36 446 L0 446 L0 339 L36 339 L36 0 C36 0 145 0 214 0 C345 0 396 55 396 345 L396 345 Z M254 331 C254 110 241 95 185 95 C180 95 171 95 171 95 L171 339 L214 339 L214 446 L171 446 L171 681 C171 681 179 681 184 681 C239 681 254 623 254 331 L254 331 Z " />
<glyph glyph-name="Ntilde" unicode="&#xd1;" horiz-adv-x="418" d="M329 853 C329 874 321 893 321 893 L287 893 C287 886 290 856 266 856 C253 856 248 861 238 869 L221 882 C205 895 187 902 158 902 C110 902 97 868 97 839 C97 818 105 802 105 802 L139 802 C139 810 134 837 160 837 C173 837 180 828 191 820 L208 807 C219 799 234 790 258 790 C309 790 329 824 329 853 L329 853 Z M382 0 L382 768 L259 768 C259 768 259 677 259 618 C259 541 260 448 264 373 C258 406 248 446 235 495 C220 549 162 768 162 768 L36 768 L36 0 L163 0 C163 0 163 137 163 196 C163 286 162 316 156 419 C166 362 175 320 186 284 C200 237 269 0 269 0 L382 0 Z " />
<glyph glyph-name="Ograve" unicode="&#xd2;" horiz-adv-x="416" d="M245 800 L208 886 L86 886 L169 800 L245 800 Z M388 383 C388 720 339 780 208 780 C77 780 28 720 28 383 C28 35 91 -16 208 -16 C334 -16 388 52 388 383 L388 383 Z M246 383 C246 243 245 190 241 135 C236 75 229 70 208 70 C185 70 177 76 172 135 C168 189 169 243 169 383 C169 503 168 579 172 633 C177 689 186 700 208 700 C228 700 236 689 241 633 C245 578 246 504 246 383 L246 383 Z " />
<glyph glyph-name="Oacute" unicode="&#xd3;" horiz-adv-x="416" d="M320 886 L198 886 L161 800 L237 800 L320 886 Z M388 383 C388 720 339 780 208 780 C77 780 28 720 28 383 C28 35 91 -16 208 -16 C334 -16 388 52 388 383 L388 383 Z M246 383 C246 243 245 190 241 135 C236 75 229 70 208 70 C185 70 177 76 172 135 C168 189 169 243 169 383 C169 503 168 579 172 633 C177 689 186 700 208 700 C228 700 236 689 241 633 C245 578 246 504 246 383 L246 383 Z " />
<glyph glyph-name="Ocircumflex" unicode="&#xd4;" horiz-adv-x="416" d="M347 790 L264 894 L153 894 L69 790 L157 790 L208 836 L260 790 L347 790 Z M388 383 C388 720 339 780 208 780 C77 780 28 720 28 383 C28 35 91 -16 208 -16 C334 -16 388 52 388 383 L388 383 Z M246 383 C246 243 245 190 241 135 C236 75 229 70 208 70 C185 70 177 76 172 135 C168 189 169 243 169 383 C169 503 168 579 172 633 C177 689 186 700 208 700 C228 700 236 689 241 633 C245 578 246 504 246 383 L246 383 Z " />
<glyph glyph-name="Otilde" unicode="&#xd5;" horiz-adv-x="416" d="M388 383 C388 720 339 780 208 780 C77 780 28 720 28 383 C28 35 91 -16 208 -16 C334 -16 388 52 388 383 L388 383 Z M246 383 C246 243 245 190 241 135 C236 75 229 70 208 70 C185 70 177 76 172 135 C168 189 169 243 169 383 C169 503 168 579 172 633 C177 689 186 700 208 700 C228 700 236 689 241 633 C245 578 246 504 246 383 L246 383 Z M339 846 C339 865 330 881 330 881 L294 881 C294 880 294 877 294 874 C294 864 291 850 271 850 C259 850 252 853 240 860 C236 862 225 870 221 872 C196 886 181 889 152 889 C99 889 85 859 85 833 C85 814 94 801 94 801 L130 801 C130 803 130 806 130 809 C130 818 134 829 153 829 C167 829 175 824 188 817 C192 815 203 808 207 805 C221 796 239 790 262 790 C318 790 339 820 339 846 L339 846 Z " />
<glyph glyph-name="Odieresis" unicode="&#xd6;" horiz-adv-x="416" d="M369 800 L369 877 L264 877 L264 800 L369 800 Z M152 800 L152 877 L47 877 L47 800 L152 800 Z M388 383 C388 720 339 780 208 780 C77 780 28 720 28 383 C28 35 91 -16 208 -16 C334 -16 388 52 388 383 L388 383 Z M246 383 C246 243 245 190 241 135 C236 75 229 70 208 70 C185 70 177 76 172 135 C168 189 169 243 169 383 C169 503 168 579 172 633 C177 689 186 700 208 700 C228 700 236 689 241 633 C245 578 246 504 246 383 L246 383 Z " />
<glyph glyph-name="multiply" unicode="&#xd7;" horiz-adv-x="328" d="M296 371 C296 590 237 767 164 767 C92 767 32 590 32 371 C32 155 92 -22 164 -22 C237 -22 296 155 296 371 L296 371 Z M265 203 L177 251 L141 23 L124 290 L53 314 L117 435 L120 674 L177 506 L257 551 L211 379 L265 203 Z " />
<glyph glyph-name="Oslash" unicode="&#xd8;" horiz-adv-x="416" d="M388 383 C388 536 378 633 355 691 L388 774 L345 774 L329 735 C301 770 261 780 208 780 C77 780 28 720 28 383 C28 231 40 136 63 76 L28 -10 L71 -10 L88 31 C118 -7 158 -16 208 -16 C334 -16 388 52 388 383 L388 383 Z M247 532 L167 334 C167 349 167 365 167 383 C167 503 166 579 170 633 C175 689 186 700 208 700 C228 700 240 688 243 633 C245 595 247 556 247 532 L247 532 Z M248 383 C248 243 247 190 243 135 C238 75 229 70 208 70 C185 70 174 78 170 135 C169 154 167 201 167 228 L248 428 C248 414 248 399 248 383 L248 383 Z " />
<glyph glyph-name="Ugrave" unicode="&#xd9;" horiz-adv-x="421" d="M263 790 L226 876 L104 876 L187 790 L263 790 Z M385 149 C385 390 385 768 385 768 L252 768 C252 768 252 392 252 151 C252 108 245 88 213 88 C182 88 174 108 174 151 C174 392 174 768 174 768 L36 768 C36 768 36 390 36 149 C36 39 96 -16 210 -16 C344 -16 385 48 385 149 L385 149 Z " />
<glyph glyph-name="Uacute" unicode="&#xda;" horiz-adv-x="421" d="M320 876 L198 876 L161 790 L237 790 L320 876 Z M385 149 C385 390 385 768 385 768 L252 768 C252 768 252 392 252 151 C252 108 245 88 213 88 C182 88 174 108 174 151 C174 392 174 768 174 768 L36 768 C36 768 36 390 36 149 C36 39 96 -16 210 -16 C344 -16 385 48 385 149 L385 149 Z " />
<glyph glyph-name="Ucircumflex" unicode="&#xdb;" horiz-adv-x="421" d="M385 149 C385 390 385 768 385 768 L252 768 C252 768 252 392 252 151 C252 108 245 88 213 88 C182 88 174 108 174 151 C174 392 174 768 174 768 L36 768 C36 768 36 390 36 149 C36 39 96 -16 210 -16 C344 -16 385 48 385 149 L385 149 Z M355 790 L272 894 L161 894 L77 790 L165 790 L216 836 L268 790 L355 790 Z " />
<glyph glyph-name="Udieresis" unicode="&#xdc;" horiz-adv-x="421" d="M373 800 L373 877 L268 877 L268 800 L373 800 Z M156 800 L156 877 L51 877 L51 800 L156 800 Z M385 149 C385 390 385 768 385 768 L252 768 C252 768 252 392 252 151 C252 108 245 88 213 88 C182 88 174 108 174 151 C174 392 174 768 174 768 L36 768 C36 768 36 390 36 149 C36 39 96 -16 210 -16 C344 -16 385 48 385 149 L385 149 Z " />
<glyph glyph-name="Yacute" unicode="&#xdd;" horiz-adv-x="395" d="M393 768 L262 768 L203 480 L138 768 L-6 768 L126 298 L126 0 L266 0 L266 298 L393 768 Z M321 914 L195 914 L148 790 L221 790 L321 914 Z " />
<glyph glyph-name="Thorn" unicode="&#xde;" horiz-adv-x="409" d="M394 405 C394 567 338 637 223 637 C204 637 174 637 174 637 L174 768 L36 768 L36 0 L174 0 L174 166 C174 166 211 166 235 166 C343 166 394 221 394 405 L394 405 Z M256 403 C256 305 243 265 208 265 C195 265 174 265 174 265 L174 547 C174 547 186 547 198 547 C237 547 256 507 256 403 L256 403 Z " />
<glyph glyph-name="germandbls" unicode="&#xdf;" horiz-adv-x="373" d="M357 217 C357 357 318 399 258 411 C305 422 343 449 343 568 C343 728 295 780 181 780 C64 780 29 726 29 589 C29 360 29 0 29 0 L149 0 C149 0 149 380 149 623 C149 672 156 691 183 691 C209 691 217 677 217 588 C217 470 212 453 179 453 L179 362 C213 362 222 340 222 236 C222 95 216 87 184 87 C182 87 179 87 179 87 L179 0 C179 0 196 0 207 0 C332 0 357 39 357 217 L357 217 Z " />
<glyph glyph-name="agrave" unicode="&#xe0;" horiz-adv-x="350" d="M230 583 L193 682 L71 682 L154 583 L230 583 Z M345 3 L345 84 C338 81 332 80 325 80 C311 80 306 91 306 109 C306 234 306 303 306 427 C306 527 259 556 166 556 C75 556 31 514 31 435 C31 399 39 382 43 367 L143 370 C139 387 137 413 137 428 C137 466 141 479 164 479 C182 479 197 464 197 417 C197 349 186 333 157 325 C153 324 138 319 127 316 C62 297 19 264 19 154 C19 10 88 -10 142 -10 C175 -10 206 1 224 32 C231 10 247 -10 285 -10 C309 -10 332 -2 345 3 L345 3 Z M197 128 C197 97 191 72 169 72 C150 72 143 91 143 146 C143 220 153 235 197 255 C197 255 197 178 197 128 L197 128 Z " />
<glyph glyph-name="aacute" unicode="&#xe1;" horiz-adv-x="350" d="M277 682 L155 682 L118 583 L194 583 L277 682 Z M345 3 L345 84 C338 81 332 80 325 80 C311 80 306 91 306 109 C306 234 306 303 306 427 C306 527 259 556 166 556 C75 556 31 514 31 435 C31 399 39 382 43 367 L143 370 C139 387 137 413 137 428 C137 466 141 479 164 479 C182 479 197 464 197 417 C197 349 186 333 157 325 C153 324 138 319 127 316 C62 297 19 264 19 154 C19 10 88 -10 142 -10 C175 -10 206 1 224 32 C231 10 247 -10 285 -10 C309 -10 332 -2 345 3 L345 3 Z M197 128 C197 97 191 72 169 72 C150 72 143 91 143 146 C143 220 153 235 197 255 C197 255 197 178 197 128 L197 128 Z " />
<glyph glyph-name="acircumflex" unicode="&#xe2;" horiz-adv-x="350" d="M345 3 L345 84 C338 81 332 80 325 80 C311 80 306 91 306 109 C306 234 306 303 306 427 C306 527 259 556 166 556 C75 556 31 514 31 435 C31 399 39 382 43 367 L143 370 C139 387 137 413 137 428 C137 466 141 479 164 479 C182 479 197 464 197 417 C197 349 186 333 157 325 C153 324 138 319 127 316 C62 297 19 264 19 154 C19 10 88 -10 142 -10 C175 -10 206 1 224 32 C231 10 247 -10 285 -10 C309 -10 332 -2 345 3 L345 3 Z M197 128 C197 97 191 72 169 72 C150 72 143 91 143 146 C143 220 153 235 197 255 C197 255 197 178 197 128 L197 128 Z M311 583 L228 687 L117 687 L33 583 L121 583 L172 629 L224 583 L311 583 Z " />
<glyph glyph-name="atilde" unicode="&#xe3;" horiz-adv-x="350" d="M345 3 L345 84 C338 81 332 80 325 80 C311 80 306 91 306 109 C306 234 306 303 306 427 C306 527 259 556 166 556 C75 556 31 514 31 435 C31 399 39 382 43 367 L143 370 C139 387 137 413 137 428 C137 466 141 479 164 479 C182 479 197 464 197 417 C197 349 186 333 157 325 C153 324 138 319 127 316 C62 297 19 264 19 154 C19 10 88 -10 142 -10 C175 -10 206 1 224 32 C231 10 247 -10 285 -10 C309 -10 332 -2 345 3 L345 3 Z M197 128 C197 97 191 72 169 72 C150 72 143 91 143 146 C143 220 153 235 197 255 C197 255 197 178 197 128 L197 128 Z M298 639 C298 658 289 674 289 674 L253 674 C253 673 253 670 253 667 C253 657 250 643 230 643 C218 643 211 646 199 653 C195 655 184 663 180 665 C155 679 140 682 111 682 C58 682 44 652 44 626 C44 607 53 594 53 594 L89 594 C89 596 89 599 89 602 C89 611 93 622 112 622 C126 622 134 617 147 610 C151 608 162 601 166 598 C180 589 198 583 221 583 C277 583 298 613 298 639 L298 639 Z " />
<glyph glyph-name="adieresis" unicode="&#xe4;" horiz-adv-x="350" d="M345 3 L345 84 C338 81 332 80 325 80 C311 80 306 91 306 109 C306 234 306 303 306 427 C306 527 259 556 166 556 C75 556 31 514 31 435 C31 399 39 382 43 367 L143 370 C139 387 137 413 137 428 C137 466 141 479 164 479 C182 479 197 464 197 417 C197 349 186 333 157 325 C153 324 138 319 127 316 C62 297 19 264 19 154 C19 10 88 -10 142 -10 C175 -10 206 1 224 32 C231 10 247 -10 285 -10 C309 -10 332 -2 345 3 L345 3 Z M197 128 C197 97 191 72 169 72 C150 72 143 91 143 146 C143 220 153 235 197 255 C197 255 197 178 197 128 L197 128 Z M305 583 L305 695 L209 695 L209 583 L305 583 Z M123 583 L123 695 L27 695 L27 583 L123 583 Z " />
<glyph glyph-name="aring" unicode="&#xe5;" horiz-adv-x="350" d="M270 670 C270 726 225 771 169 771 C114 771 69 726 69 670 C69 615 114 570 169 570 C225 570 270 615 270 670 L270 670 Z M345 3 L345 84 C338 81 332 80 325 80 C311 80 306 91 306 109 C306 234 306 303 306 427 C306 527 259 556 166 556 C75 556 31 514 31 435 C31 399 39 382 43 367 L143 370 C139 387 137 413 137 428 C137 466 141 479 164 479 C182 479 197 464 197 417 C197 349 186 333 157 325 C153 324 138 319 127 316 C62 297 19 264 19 154 C19 10 88 -10 142 -10 C175 -10 206 1 224 32 C231 10 247 -10 285 -10 C309 -10 332 -2 345 3 L345 3 Z M197 128 C197 97 191 72 169 72 C150 72 143 91 143 146 C143 220 153 235 197 255 C197 255 197 178 197 128 L197 128 Z M221 670 C221 642 198 618 169 618 C141 618 117 642 117 670 C117 699 141 722 169 722 C198 722 221 699 221 670 L221 670 Z " />
<glyph glyph-name="ae" unicode="&#xe6;" horiz-adv-x="490" d="M472 299 C472 472 434 556 334 556 C292 556 278 548 260 531 C238 551 207 556 166 556 C75 556 31 514 31 435 C31 399 39 382 43 367 L141 370 C137 387 135 413 135 428 C135 466 141 479 164 479 C182 479 197 464 197 417 C197 349 186 333 157 325 C151 323 135 318 127 316 C62 297 19 264 19 154 C19 10 88 -10 142 -10 C182 -10 224 5 242 36 C255 9 283 -10 342 -10 C428 -10 470 32 470 138 C470 154 467 195 464 208 L364 210 C366 194 367 185 367 171 C367 71 361 61 338 61 C309 61 304 85 304 199 C304 220 304 252 304 252 L466 252 C469 265 472 285 472 299 L472 299 Z M361 379 C362 363 361 333 360 320 L302 320 C302 320 302 356 302 364 C307 471 311 487 334 487 C354 487 357 472 361 379 L361 379 Z M200 128 C200 97 191 72 169 72 C150 72 141 91 141 146 C141 220 156 235 200 255 C200 255 200 177 200 128 L200 128 Z " />
<glyph glyph-name="ccedilla" unicode="&#xe7;" horiz-adv-x="327" d="M310 158 C310 188 305 226 301 245 L196 248 C197 219 200 184 200 168 C200 78 196 64 178 64 C153 64 149 77 149 270 C149 472 152 482 172 482 C189 482 193 468 193 389 C193 372 190 340 188 332 L296 334 C299 349 299 377 299 396 C299 512 262 556 172 556 C85 556 23 523 23 281 C23 48 59 -10 174 -10 C276 -10 310 32 310 158 L310 158 Z M261 -102 C261 -47 220 -24 181 -24 C167 -24 146 -26 146 -26 L131 -76 C135 -74 141 -72 149 -72 C167 -72 188 -87 188 -110 C188 -129 180 -140 158 -140 C131 -140 118 -130 98 -114 L74 -160 C90 -175 123 -195 164 -195 C222 -195 261 -155 261 -102 L261 -102 Z " />
<glyph glyph-name="egrave" unicode="&#xe8;" horiz-adv-x="327" d="M218 583 L181 682 L59 682 L142 583 L218 583 Z M309 299 C309 472 271 556 171 556 C70 556 23 490 23 249 C23 28 70 -10 179 -10 C265 -10 307 32 307 138 C307 154 304 195 301 208 L201 210 C203 194 204 185 204 171 C204 71 198 61 175 61 C146 61 143 85 143 199 C143 220 143 252 143 252 L304 252 C307 265 309 285 309 299 L309 299 Z M198 379 C199 363 198 335 197 322 L141 322 C141 322 141 356 141 364 C146 471 148 487 171 487 C191 487 194 472 198 379 L198 379 Z " />
<glyph glyph-name="eacute" unicode="&#xe9;" horiz-adv-x="327" d="M279 682 L157 682 L120 583 L196 583 L279 682 Z M309 299 C309 472 271 556 171 556 C70 556 23 490 23 249 C23 28 70 -10 179 -10 C265 -10 307 32 307 138 C307 154 304 195 301 208 L201 210 C203 194 204 185 204 171 C204 71 198 61 175 61 C146 61 143 85 143 199 C143 220 143 252 143 252 L304 252 C307 265 309 285 309 299 L309 299 Z M198 379 C199 363 198 335 197 322 L141 322 C141 322 141 356 141 364 C146 471 148 487 171 487 C191 487 194 472 198 379 L198 379 Z " />
<glyph glyph-name="ecircumflex" unicode="&#xea;" horiz-adv-x="327" d="M311 583 L228 687 L117 687 L33 583 L121 583 L172 629 L224 583 L311 583 Z M309 299 C309 472 271 556 171 556 C70 556 23 490 23 249 C23 28 70 -10 179 -10 C265 -10 307 32 307 138 C307 154 304 195 301 208 L201 210 C203 194 204 185 204 171 C204 71 198 61 175 61 C146 61 143 85 143 199 C143 220 143 252 143 252 L304 252 C307 265 309 285 309 299 L309 299 Z M198 379 C199 363 198 335 197 322 L141 322 C141 322 141 356 141 364 C146 471 148 487 171 487 C191 487 194 472 198 379 L198 379 Z " />
<glyph glyph-name="edieresis" unicode="&#xeb;" horiz-adv-x="327" d="M301 583 L301 695 L205 695 L205 583 L301 583 Z M119 583 L119 695 L23 695 L23 583 L119 583 Z M309 299 C309 472 271 556 171 556 C70 556 23 490 23 249 C23 28 70 -10 179 -10 C265 -10 307 32 307 138 C307 154 304 195 301 208 L201 210 C203 194 204 185 204 171 C204 71 198 61 175 61 C146 61 143 85 143 199 C143 220 143 252 143 252 L304 252 C307 265 309 285 309 299 L309 299 Z M198 379 C199 363 198 335 197 322 L141 322 C141 322 141 356 141 364 C146 471 148 487 171 487 C191 487 194 472 198 379 L198 379 Z " />
<glyph glyph-name="igrave" unicode="&#xec;" horiz-adv-x="182" d="M143 583 L106 682 L-16 682 L67 583 L143 583 Z M153 0 L153 547 L29 547 L29 0 L153 0 Z " />
<glyph glyph-name="iacute" unicode="&#xed;" horiz-adv-x="182" d="M211 682 L89 682 L52 583 L128 583 L211 682 Z M153 0 L153 547 L29 547 L29 0 L153 0 Z " />
<glyph glyph-name="icircumflex" unicode="&#xee;" horiz-adv-x="182" d="M153 0 L153 547 L29 547 L29 0 L153 0 Z M230 583 L147 687 L36 687 L-48 583 L40 583 L91 629 L143 583 L230 583 Z " />
<glyph glyph-name="idieresis" unicode="&#xef;" horiz-adv-x="182" d="M153 0 L153 547 L29 547 L29 0 L153 0 Z M230 583 L230 695 L134 695 L134 583 L230 583 Z M48 583 L48 695 L-48 695 L-48 583 L48 583 Z " />
<glyph glyph-name="eth" unicode="&#xf0;" horiz-adv-x="360" d="M365 699 C365 721 347 741 341 745 L308 732 C310 728 312 722 312 715 C312 700 297 693 289 693 C259 779 213 791 160 791 C123 791 83 774 59 759 L90 712 C104 729 124 737 152 737 C166 737 181 728 193 697 C159 689 123 671 123 637 C123 615 135 598 147 589 L180 601 C178 604 176 610 176 616 C176 627 188 638 207 638 C210 614 212 586 212 551 C195 555 187 556 174 556 C56 556 23 478 23 266 C23 48 66 -10 174 -10 C292 -10 326 36 326 320 C326 464 318 564 304 633 C349 649 365 677 365 699 L365 699 Z M203 472 C201 442 202 383 202 266 C202 65 195 60 174 60 C152 60 147 65 147 266 C147 474 149 484 174 484 C182 484 196 478 203 472 L203 472 Z " />
<glyph glyph-name="ntilde" unicode="&#xf1;" horiz-adv-x="343" d="M288 646 C288 667 280 686 280 686 L246 686 C246 684 246 680 246 675 C246 664 242 649 225 649 C213 649 206 655 197 662 C192 666 185 671 180 675 C162 688 146 695 117 695 C69 695 56 661 56 632 C56 611 64 595 64 595 L98 595 C98 597 97 602 97 606 C97 617 102 630 119 630 C128 630 135 625 150 613 C155 609 163 603 167 600 C183 588 198 583 217 583 C268 583 288 617 288 646 L288 646 Z M316 0 C316 0 316 287 316 469 C316 524 284 556 225 556 C187 556 164 542 146 508 C146 534 148 547 148 547 L29 547 L29 0 L149 0 C149 0 149 249 149 407 C149 455 157 472 176 472 C193 472 197 455 197 441 C197 269 197 0 197 0 L316 0 Z " />
<glyph glyph-name="ograve" unicode="&#xf2;" horiz-adv-x="349" d="M225 583 L188 682 L66 682 L149 583 L225 583 Z M326 266 C326 472 288 556 174 556 C56 556 23 478 23 266 C23 48 66 -10 174 -10 C292 -10 326 48 326 266 L326 266 Z M202 266 C202 65 195 60 174 60 C152 60 147 65 147 266 C147 474 149 484 174 484 C196 484 202 480 202 266 L202 266 Z " />
<glyph glyph-name="oacute" unicode="&#xf3;" horiz-adv-x="349" d="M286 682 L164 682 L127 583 L203 583 L286 682 Z M326 266 C326 472 288 556 174 556 C56 556 23 478 23 266 C23 48 66 -10 174 -10 C292 -10 326 48 326 266 L326 266 Z M202 266 C202 65 195 60 174 60 C152 60 147 65 147 266 C147 474 149 484 174 484 C196 484 202 480 202 266 L202 266 Z " />
<glyph glyph-name="ocircumflex" unicode="&#xf4;" horiz-adv-x="349" d="M312 583 L229 687 L118 687 L34 583 L122 583 L173 629 L225 583 L312 583 Z M326 266 C326 472 288 556 174 556 C56 556 23 478 23 266 C23 48 66 -10 174 -10 C292 -10 326 48 326 266 L326 266 Z M202 266 C202 65 195 60 174 60 C152 60 147 65 147 266 C147 474 149 484 174 484 C196 484 202 480 202 266 L202 266 Z " />
<glyph glyph-name="otilde" unicode="&#xf5;" horiz-adv-x="349" d="M326 266 C326 472 288 556 174 556 C56 556 23 478 23 266 C23 48 66 -10 174 -10 C292 -10 326 48 326 266 L326 266 Z M202 266 C202 65 195 60 174 60 C152 60 147 65 147 266 C147 474 149 484 174 484 C196 484 202 480 202 266 L202 266 Z M301 639 C301 658 292 674 292 674 L256 674 C256 673 256 670 256 667 C256 657 253 643 233 643 C221 643 214 646 202 653 C198 655 187 663 183 665 C158 679 143 682 114 682 C61 682 47 652 47 626 C47 607 56 594 56 594 L92 594 C92 596 92 599 92 602 C92 611 96 622 115 622 C129 622 137 617 150 610 C154 608 165 601 169 598 C183 589 201 583 224 583 C280 583 301 613 301 639 L301 639 Z " />
<glyph glyph-name="odieresis" unicode="&#xf6;" horiz-adv-x="349" d="M310 583 L310 695 L214 695 L214 583 L310 583 Z M128 583 L128 695 L32 695 L32 583 L128 583 Z M326 266 C326 472 288 556 174 556 C56 556 23 478 23 266 C23 48 66 -10 174 -10 C292 -10 326 48 326 266 L326 266 Z M202 266 C202 65 195 60 174 60 C152 60 147 65 147 266 C147 474 149 484 174 484 C196 484 202 480 202 266 L202 266 Z " />
<glyph glyph-name="divide" unicode="&#xf7;" horiz-adv-x="328" d="M296 371 C296 590 237 767 164 767 C92 767 32 590 32 371 C32 155 92 -22 164 -22 C237 -22 296 155 296 371 L296 371 Z M265 203 L177 251 L141 23 L124 290 L53 314 L117 435 L120 674 L177 506 L257 551 L211 379 L265 203 Z " />
<glyph glyph-name="oslash" unicode="&#xf8;" horiz-adv-x="349" d="M326 266 C326 369 317 442 293 489 L323 556 L285 556 L269 521 C246 545 215 556 174 556 C56 556 23 478 23 266 C23 159 33 90 56 48 L30 -10 L68 -10 L81 18 C104 -2 135 -10 174 -10 C292 -10 326 48 326 266 L326 266 Z M201 370 L147 250 C147 255 147 260 147 266 C147 474 149 484 174 484 C191 484 201 482 201 370 L201 370 Z M202 266 C202 65 195 60 174 60 C157 60 148 63 148 167 L202 287 C202 280 202 273 202 266 L202 266 Z " />
<glyph glyph-name="ugrave" unicode="&#xf9;" horiz-adv-x="345" d="M228 583 L191 682 L69 682 L152 583 L228 583 Z M316 -1 L316 547 L196 547 C196 547 196 294 196 133 C196 94 188 75 169 75 C152 75 148 85 148 110 C148 280 148 547 148 547 L29 547 C29 547 29 260 29 78 C29 23 60 -10 122 -10 C160 -10 190 1 205 39 L205 -1 L316 -1 Z " />
<glyph glyph-name="uacute" unicode="&#xfa;" horiz-adv-x="345" d="M287 682 L165 682 L128 583 L204 583 L287 682 Z M316 -1 L316 547 L196 547 C196 547 196 294 196 133 C196 94 188 75 169 75 C152 75 148 85 148 110 C148 280 148 547 148 547 L29 547 C29 547 29 260 29 78 C29 23 60 -10 122 -10 C160 -10 190 1 205 39 L205 -1 L316 -1 Z " />
<glyph glyph-name="ucircumflex" unicode="&#xfb;" horiz-adv-x="345" d="M316 -1 L316 547 L196 547 C196 547 196 294 196 133 C196 94 188 75 169 75 C152 75 148 85 148 110 C148 280 148 547 148 547 L29 547 C29 547 29 260 29 78 C29 23 60 -10 122 -10 C160 -10 190 1 205 39 L205 -1 L316 -1 Z M314 583 L231 687 L120 687 L36 583 L124 583 L175 629 L227 583 L314 583 Z " />
<glyph glyph-name="udieresis" unicode="&#xfc;" horiz-adv-x="345" d="M311 583 L311 683 L205 683 L205 583 L311 583 Z M139 583 L139 683 L34 683 L34 583 L139 583 Z M316 -1 L316 547 L196 547 C196 547 196 294 196 133 C196 94 188 75 169 75 C152 75 148 85 148 110 C148 280 148 547 148 547 L29 547 C29 547 29 260 29 78 C29 23 60 -10 122 -10 C160 -10 190 1 205 39 L205 -1 L316 -1 Z " />
<glyph glyph-name="yacute" unicode="&#xfd;" horiz-adv-x="345" d="M342 547 L227 547 L187 218 L118 547 L-7 547 L141 -16 C137 -60 128 -86 107 -86 C90 -86 83 -77 83 -59 C83 -45 84 -37 86 -24 L-17 -33 C-18 -46 -19 -61 -19 -74 C-19 -145 34 -176 110 -176 C196 -176 222 -126 244 0 C245 8 285 229 342 547 L342 547 Z M281 707 L155 707 L108 583 L181 583 L281 707 Z " />
<glyph glyph-name="thorn" unicode="&#xfe;" horiz-adv-x="349" d="M328 271 C328 508 272 556 213 556 C175 556 156 522 149 496 C149 519 149 768 149 768 L29 768 L29 -176 L149 -176 L149 25 C155 0 179 -10 195 -10 C276 -10 328 33 328 271 L328 271 Z M204 272 C204 57 197 56 175 56 C144 56 144 105 144 271 C144 466 152 474 175 474 C199 474 204 463 204 272 L204 272 Z " />
<glyph glyph-name="ydieresis" unicode="&#xff;" horiz-adv-x="345" d="M342 547 L227 547 L187 218 L118 547 L-7 547 L141 -16 C137 -60 128 -86 107 -86 C90 -86 83 -77 83 -59 C83 -45 84 -37 86 -24 L-17 -33 C-18 -46 -19 -61 -19 -74 C-19 -145 34 -176 110 -176 C196 -176 222 -126 244 0 C245 8 285 229 342 547 L342 547 Z M316 583 L316 695 L220 695 L220 583 L316 583 Z M134 583 L134 695 L38 695 L38 583 L134 583 Z " />
<glyph glyph-name="dotlessi" unicode="&#x131;" horiz-adv-x="182" d="M153 0 L153 547 L29 547 L29 0 L153 0 Z " />
<glyph glyph-name="Lslash" unicode="&#x141;" horiz-adv-x="364" d="M354 462 L296 531 L189 441 L189 768 L49 768 L49 323 L-43 245 L15 175 L49 204 L49 0 L352 0 L352 115 L189 115 L189 322 L354 462 Z " />
<glyph glyph-name="lslash" unicode="&#x142;" horiz-adv-x="210" d="M249 378 L191 447 L168 428 L168 768 L46 768 L46 330 L-34 265 L24 195 L46 213 L46 0 L168 0 L168 312 L249 378 Z " />
<glyph glyph-name="OE" unicode="&#x152;" horiz-adv-x="564" d="M546 0 L546 115 L379 115 L379 338 L508 338 L508 445 L379 445 L379 653 L525 653 L525 768 L282 768 C254 774 242 774 208 774 C77 774 28 720 28 383 C28 35 91 -10 208 -10 C236 -10 258 -7 287 0 L546 0 Z M244 383 C244 243 244 196 240 141 C235 81 229 76 208 76 C185 76 177 82 172 141 C168 195 169 243 169 383 C169 503 168 573 172 627 C177 683 186 694 208 694 C228 694 235 683 240 627 C244 572 244 504 244 383 L244 383 Z " />
<glyph glyph-name="oe" unicode="&#x153;" horiz-adv-x="503" d="M485 299 C485 472 447 556 347 556 C295 556 283 541 262 522 C249 533 227 556 174 556 C56 556 23 478 23 266 C23 48 66 -10 174 -10 C215 -10 239 3 262 20 C290 -2 323 -10 355 -10 C441 -10 483 32 483 138 C483 154 480 195 477 208 L377 210 C379 194 380 185 380 171 C380 71 374 61 351 61 C322 61 319 87 319 199 C319 220 319 252 319 252 L480 252 C483 265 485 285 485 299 L485 299 Z M374 362 C374 346 374 335 373 322 L317 322 C317 322 317 356 317 364 C322 471 324 487 347 487 C363 487 374 480 374 362 L374 362 Z M199 266 C199 65 194 60 173 60 C151 60 147 65 147 266 C147 474 148 484 173 484 C195 484 199 480 199 266 L199 266 Z " />
<glyph glyph-name="Scaron" unicode="&#x160;" horiz-adv-x="403" d="M381 201 C381 339 334 413 263 453 C255 457 229 472 221 477 C182 499 155 525 155 611 C155 666 160 695 190 695 C222 695 230 673 230 600 C230 577 225 537 223 516 L341 528 C346 553 351 581 351 608 C351 721 295 780 188 780 C79 780 20 712 20 581 C20 491 46 415 122 371 C131 366 149 356 157 351 C219 315 241 286 241 178 C241 93 227 78 203 78 C172 78 160 103 160 189 C160 222 165 266 169 296 L49 291 C41 264 32 214 32 183 C32 33 97 -16 202 -16 C328 -16 381 60 381 201 L381 201 Z M333 918 L240 918 L192 866 L144 918 L50 918 L143 800 L241 800 L333 918 Z " />
<glyph glyph-name="scaron" unicode="&#x161;" horiz-adv-x="325" d="M312 155 C312 250 279 304 215 333 C208 336 193 343 180 349 C139 368 134 390 134 429 C134 470 144 485 163 485 C184 485 191 472 191 422 C191 408 188 380 186 369 L281 372 C283 380 288 406 288 425 C288 518 244 556 159 556 C85 556 17 507 17 407 C17 319 38 283 84 260 C98 253 110 247 118 243 C163 221 185 199 185 133 C185 84 175 69 154 69 C130 69 123 83 123 135 C123 149 126 178 132 204 L28 196 C24 174 20 145 20 122 C20 33 74 -10 159 -10 C261 -10 312 46 312 155 L312 155 Z M298 701 L205 701 L157 649 L109 701 L15 701 L108 583 L206 583 L298 701 Z " />
<glyph glyph-name="Ydieresis" unicode="&#x178;" horiz-adv-x="395" d="M362 800 L362 877 L257 877 L257 800 L362 800 Z M145 800 L145 877 L40 877 L40 800 L145 800 Z M393 768 L262 768 L203 480 L138 768 L-6 768 L126 298 L126 0 L266 0 L266 298 L393 768 Z " />
<glyph glyph-name="Zcaron" unicode="&#x17d;" horiz-adv-x="371" d="M349 0 L349 115 L167 115 L349 674 L349 768 L36 768 L36 653 L202 653 L12 92 L12 0 L349 0 Z M335 908 L242 908 L194 856 L146 908 L52 908 L145 790 L243 790 L335 908 Z " />
<glyph glyph-name="zcaron" unicode="&#x17e;" horiz-adv-x="289" d="M279 457 L279 547 L37 547 L37 468 L161 468 L13 75 L13 0 L276 0 L276 87 L137 87 L279 457 Z M302 701 L209 701 L161 649 L113 701 L19 701 L112 583 L210 583 L302 701 Z " />
<glyph glyph-name="florin" unicode="&#x192;" horiz-adv-x="357" d="M360 666 C360 739 305 776 226 776 C139 776 70 732 70 665 C70 575 70 433 70 433 L16 433 L16 361 L70 361 C70 361 70 114 70 -43 C70 -69 73 -90 50 -90 C33 -90 23 -81 23 -63 C23 -46 24 -31 28 -17 L-75 -18 C-81 -39 -82 -55 -82 -71 C-82 -144 -39 -181 69 -181 C163 -181 205 -122 205 -55 C205 107 205 361 205 361 L283 361 L283 433 L205 433 C205 433 205 570 205 657 C205 682 217 692 233 692 C252 692 262 676 262 641 C262 628 258 604 254 587 L349 599 C355 620 360 641 360 666 L360 666 Z " />
<glyph glyph-name="circumflex" unicode="&#x2c6;" horiz-adv-x="381" d="M326 583 L243 687 L132 687 L48 583 L136 583 L187 629 L239 583 L326 583 Z " />
<glyph glyph-name="caron" unicode="&#x2c7;" horiz-adv-x="381" d="M327 701 L234 701 L186 649 L138 701 L44 701 L137 583 L235 583 L327 701 Z " />
<glyph glyph-name="breve" unicode="&#x2d8;" horiz-adv-x="381" d="M328 691 L249 691 C249 671 222 652 190 652 C159 652 133 671 133 691 L54 691 C54 617 109 590 190 590 C271 590 328 618 328 691 L328 691 Z " />
<glyph glyph-name="dotaccent" unicode="&#x2d9;" horiz-adv-x="381" d="M256 590 L256 702 L140 702 L140 590 L256 590 Z " />
<glyph glyph-name="ring" unicode="&#x2da;" horiz-adv-x="381" d="M304 688 C304 750 254 800 192 800 C130 800 80 750 80 688 C80 626 130 576 192 576 C254 576 304 626 304 688 L304 688 Z M250 688 C250 656 224 630 192 630 C160 630 134 656 134 688 C134 720 160 746 192 746 C224 746 250 720 250 688 L250 688 Z " />
<glyph glyph-name="ogonek" unicode="&#x2db;" horiz-adv-x="381" d="M282 -90 L234 -64 C234 -64 228 -81 223 -87 C217 -95 207 -102 196 -102 C180 -102 172 -93 172 -75 C172 -51 196 -26 239 0 L190 0 C148 -16 109 -54 109 -90 C109 -125 141 -154 188 -154 C232 -154 265 -139 278 -104 C280 -99 282 -93 282 -90 L282 -90 Z " />
<glyph glyph-name="tilde" unicode="&#x2dc;" horiz-adv-x="381" d="M315 640 C315 659 306 675 306 675 L270 675 C270 674 270 671 270 668 C270 658 267 644 247 644 C235 644 228 647 216 654 C212 656 201 664 197 666 C172 680 157 683 128 683 C75 683 61 653 61 627 C61 608 70 595 70 595 L106 595 C106 597 106 600 106 603 C106 612 110 623 129 623 C143 623 151 618 164 611 C168 609 179 602 183 599 C197 590 215 584 238 584 C294 584 315 614 315 640 L315 640 Z " />
<glyph glyph-name="hungarumlaut" unicode="&#x2dd;" horiz-adv-x="381" d="M363 707 L252 707 L191 583 L256 583 L363 707 Z M226 707 L115 707 L73 583 L135 583 L226 707 Z " />
<glyph glyph-name="pi" unicode="&#x3c0;" horiz-adv-x="592" d="M567 497 C567 647 443 770 293 770 C143 770 19 647 19 497 C19 347 143 223 293 223 C443 223 567 347 567 497 L567 497 Z M535 497 C535 362 428 251 293 251 C158 251 51 362 51 497 C51 632 158 742 293 742 C428 742 535 632 535 497 L535 497 Z M417 580 C417 669 373 704 324 704 C278 704 207 704 207 704 L207 302 L284 302 L284 461 C288 461 308 460 320 460 C371 460 417 495 417 580 L417 580 Z M336 579 C336 538 323 522 305 522 C297 522 284 522 284 522 L284 646 C284 646 298 646 304 646 C320 646 336 634 336 579 L336 579 Z " />
<glyph glyph-name="endash" unicode="&#x2013;" horiz-adv-x="550" d="M525 274 L525 372 L25 372 L25 274 L525 274 Z " />
<glyph glyph-name="emdash" unicode="&#x2014;" horiz-adv-x="892" d="M867 273 L867 371 L25 371 L25 273 L867 273 Z " />
<glyph glyph-name="quoteleft" unicode="&#x2018;" horiz-adv-x="235" d="M186 475 L186 640 L120 640 C118 674 121 701 140 724 C155 742 169 750 177 756 L147 801 C135 796 126 790 114 781 C69 745 49 713 49 640 C49 577 49 475 49 475 L186 475 Z " />
<glyph glyph-name="quoteright" unicode="&#x2019;" horiz-adv-x="235" d="M186 603 C186 666 186 768 186 768 L49 768 L49 603 L115 603 C118 569 115 542 96 519 C82 501 66 493 59 487 L89 442 C102 447 110 453 121 462 C166 498 186 530 186 603 L186 603 Z " />
<glyph glyph-name="quotesinglbase" unicode="&#x201a;" horiz-adv-x="235" d="M186 0 C186 63 186 165 186 165 L49 165 L49 0 L115 0 C118 -34 115 -61 96 -84 C82 -102 66 -110 59 -116 L89 -161 C102 -156 110 -150 121 -141 C166 -105 186 -73 186 0 L186 0 Z " />
<glyph glyph-name="quotedblleft" unicode="&#x201c;" horiz-adv-x="431" d="M382 475 L382 640 L316 640 C313 674 316 701 335 724 C349 742 365 750 372 756 L342 801 C329 796 321 790 310 781 C265 745 245 713 245 640 C245 577 245 475 245 475 L382 475 Z M186 475 L186 640 L120 640 C118 674 121 701 140 724 C155 742 169 750 177 756 L147 801 C135 796 126 790 114 781 C69 745 49 713 49 640 C49 577 49 475 49 475 L186 475 Z " />
<glyph glyph-name="quotedblright" unicode="&#x201d;" horiz-adv-x="431" d="M382 603 C382 666 382 768 382 768 L245 768 L245 603 L311 603 C313 569 310 542 291 519 C276 501 262 493 254 487 L284 442 C296 447 305 453 317 462 C362 498 382 530 382 603 L382 603 Z M186 603 C186 666 186 768 186 768 L49 768 L49 603 L115 603 C118 569 115 542 96 519 C82 501 66 493 59 487 L89 442 C102 447 110 453 121 462 C166 498 186 530 186 603 L186 603 Z " />
<glyph glyph-name="quotedblbase" unicode="&#x201e;" horiz-adv-x="431" d="M382 0 C382 63 382 165 382 165 L245 165 L245 0 L311 0 C313 -34 310 -61 291 -84 C276 -102 262 -110 254 -116 L284 -161 C296 -156 305 -150 317 -141 C362 -105 382 -73 382 0 L382 0 Z M186 0 C186 63 186 165 186 165 L49 165 L49 0 L115 0 C118 -34 115 -61 96 -84 C82 -102 66 -110 59 -116 L89 -161 C102 -156 110 -150 121 -141 C166 -105 186 -73 186 0 L186 0 Z " />
<glyph glyph-name="dagger" unicode="&#x2020;" horiz-adv-x="407" d="M384 517 L384 617 L265 617 L265 774 L141 774 L141 617 L23 617 L23 517 L141 517 L141 -69 L265 -69 L265 517 L384 517 Z " />
<glyph glyph-name="daggerdbl" unicode="&#x2021;" horiz-adv-x="407" d="M384 163 L384 263 L265 263 L265 517 L384 517 L384 617 L265 617 L265 774 L141 774 L141 617 L23 617 L23 517 L141 517 L141 263 L23 263 L23 163 L141 163 L141 -69 L265 -69 L265 163 L384 163 Z " />
<glyph glyph-name="bullet" unicode="&#x2022;" horiz-adv-x="509" d="M467 400 C467 522 373 621 257 621 C139 621 45 522 45 400 C45 278 139 179 257 179 C373 179 467 278 467 400 L467 400 Z " />
<glyph glyph-name="ellipsis" unicode="&#x2026;" horiz-adv-x="722" d="M676 -1 L676 164 L533 164 L533 -1 L676 -1 Z M434 -1 L434 164 L291 164 L291 -1 L434 -1 Z M192 0 L192 165 L49 165 L49 0 L192 0 Z " />
<glyph glyph-name="perthousand" unicode="&#x2030;" horiz-adv-x="937" d="M920 194 C920 378 872 423 785 423 C711 423 649 378 649 194 C649 27 704 -9 785 -9 C871 -9 920 27 920 194 L920 194 Z M286 545 C286 729 238 774 151 774 C77 774 15 729 15 545 C15 378 70 342 151 342 C237 342 286 378 286 545 L286 545 Z M596 760 L527 760 L42 0 L111 0 L596 760 Z M618 194 C618 378 570 423 483 423 C409 423 347 378 347 194 C347 27 402 -9 483 -9 C569 -9 618 27 618 194 L618 194 Z M807 206 C807 76 806 65 784 65 C766 65 762 75 762 206 C762 336 765 349 784 349 C803 349 807 335 807 206 L807 206 Z M173 557 C173 427 172 416 150 416 C132 416 128 426 128 557 C128 687 131 700 150 700 C169 700 173 686 173 557 L173 557 Z M505 206 C505 76 504 65 482 65 C464 65 460 75 460 206 C460 336 463 349 482 349 C501 349 505 335 505 206 L505 206 Z " />
<glyph glyph-name="guilsinglleft" unicode="&#x2039;" horiz-adv-x="271" d="M228 35 L228 154 L116 265 L228 375 L228 494 L39 330 L39 201 L228 35 Z " />
<glyph glyph-name="guilsinglright" unicode="&#x203a;" horiz-adv-x="271" d="M232 201 L232 330 L43 494 L43 375 L146 265 L43 154 L43 35 L232 201 Z " />
<glyph glyph-name="fraction" unicode="&#x2044;" horiz-adv-x="295" d="M442 774 L363 774 L-139 0 L-59 0 L442 774 Z " />
<glyph glyph-name="trademark" unicode="&#x2122;" horiz-adv-x="557" d="M497 537 L497 768 L401 768 L379 662 L379 652 L374 652 L374 662 L345 768 L252 768 L252 537 L316 537 L316 693 L357 537 L398 537 L434 693 L434 537 L497 537 Z M223 722 L223 768 L41 768 L41 722 L98 722 L98 537 L166 537 L166 722 L223 722 Z " />
<glyph glyph-name="Omega" unicode="&#x2126;" horiz-adv-x="328" d="M296 371 C296 590 237 767 164 767 C92 767 32 590 32 371 C32 155 92 -22 164 -22 C237 -22 296 155 296 371 L296 371 Z M265 203 L177 251 L141 23 L124 290 L53 314 L117 435 L120 674 L177 506 L257 551 L211 379 L265 203 Z " />
<glyph glyph-name="partialdiff" unicode="&#x2202;" horiz-adv-x="328" d="M296 371 C296 590 237 767 164 767 C92 767 32 590 32 371 C32 155 92 -22 164 -22 C237 -22 296 155 296 371 L296 371 Z M265 203 L177 251 L141 23 L124 290 L53 314 L117 435 L120 674 L177 506 L257 551 L211 379 L265 203 Z " />
<glyph glyph-name="Delta" unicode="&#x2206;" horiz-adv-x="328" d="M296 371 C296 590 237 767 164 767 C92 767 32 590 32 371 C32 155 92 -22 164 -22 C237 -22 296 155 296 371 L296 371 Z M265 203 L177 251 L141 23 L124 290 L53 314 L117 435 L120 674 L177 506 L257 551 L211 379 L265 203 Z " />
<glyph glyph-name="product" unicode="&#x220f;" horiz-adv-x="328" d="M296 371 C296 590 237 767 164 767 C92 767 32 590 32 371 C32 155 92 -22 164 -22 C237 -22 296 155 296 371 L296 371 Z M265 203 L177 251 L141 23 L124 290 L53 314 L117 435 L120 674 L177 506 L257 551 L211 379 L265 203 Z " />
<glyph glyph-name="summation" unicode="&#x2211;" horiz-adv-x="328" d="M296 371 C296 590 237 767 164 767 C92 767 32 590 32 371 C32 155 92 -22 164 -22 C237 -22 296 155 296 371 L296 371 Z M265 203 L177 251 L141 23 L124 290 L53 314 L117 435 L120 674 L177 506 L257 551 L211 379 L265 203 Z " />
<glyph glyph-name="minus" unicode="&#x2212;" horiz-adv-x="328" d="M296 371 C296 590 237 767 164 767 C92 767 32 590 32 371 C32 155 92 -22 164 -22 C237 -22 296 155 296 371 L296 371 Z M265 203 L177 251 L141 23 L124 290 L53 314 L117 435 L120 674 L177 506 L257 551 L211 379 L265 203 Z " />
<glyph glyph-name="radical" unicode="&#x221a;" horiz-adv-x="737" d="M793 931 L651 868 C561 731 499 605 442 467 C387 333 330 156 295 -2 L166 330 L18 264 L255 -144 L355 -100 C388 66 445 238 528 445 C589 597 705 828 793 931 L793 931 Z " />
<glyph glyph-name="infinity" unicode="&#x221e;" horiz-adv-x="628" d="M599 0 L599 547 L475 547 L475 0 L599 0 Z M591 666 C591 734 526 776 453 776 C386 776 356 761 333 751 C306 771 274 776 237 776 C129 776 59 718 59 644 C59 606 59 547 59 547 L2 547 L2 478 L59 478 L59 0 L179 0 L179 478 L265 478 L265 0 L389 0 L389 478 L446 478 L446 547 L389 547 C389 547 389 593 389 622 C389 659 404 701 445 701 C480 701 494 681 494 649 C494 636 490 615 485 598 L579 599 C584 620 591 642 591 666 L591 666 Z M276 689 C270 679 265 655 265 640 C265 598 265 547 265 547 L179 547 C179 547 179 600 179 632 C179 666 201 701 233 701 C253 701 268 694 276 689 L276 689 Z " />
<glyph glyph-name="integral" unicode="&#x222b;" horiz-adv-x="328" d="M296 371 C296 590 237 767 164 767 C92 767 32 590 32 371 C32 155 92 -22 164 -22 C237 -22 296 155 296 371 L296 371 Z M265 203 L177 251 L141 23 L124 290 L53 314 L117 435 L120 674 L177 506 L257 551 L211 379 L265 203 Z " />
<glyph glyph-name="approxequal" unicode="&#x2248;" horiz-adv-x="328" d="M296 371 C296 590 237 767 164 767 C92 767 32 590 32 371 C32 155 92 -22 164 -22 C237 -22 296 155 296 371 L296 371 Z M265 203 L177 251 L141 23 L124 290 L53 314 L117 435 L120 674 L177 506 L257 551 L211 379 L265 203 Z " />
<glyph glyph-name="notequal" unicode="&#x2260;" horiz-adv-x="454" d="M522 666 C522 739 475 776 403 776 C374 776 345 771 321 758 C305 770 274 776 237 776 C129 776 59 718 59 644 C59 606 59 547 59 547 L2 547 L2 478 L59 478 L59 0 L179 0 L179 478 L265 478 L265 0 L389 0 L389 478 L446 478 L446 547 L389 547 C389 547 389 621 389 667 C389 693 400 701 411 701 C428 701 435 691 435 649 C435 636 431 615 426 598 L512 599 C517 620 522 641 522 666 L522 666 Z M267 692 C266 682 265 668 265 653 C265 611 265 547 265 547 L179 547 C179 547 179 600 179 632 C179 666 201 701 233 701 C253 701 263 696 267 692 L267 692 Z " />
<glyph glyph-name="lessequal" unicode="&#x2264;" horiz-adv-x="328" d="M296 371 C296 590 237 767 164 767 C92 767 32 590 32 371 C32 155 92 -22 164 -22 C237 -22 296 155 296 371 L296 371 Z M265 203 L177 251 L141 23 L124 290 L53 314 L117 435 L120 674 L177 506 L257 551 L211 379 L265 203 Z " />
<glyph glyph-name="greaterequal" unicode="&#x2265;" horiz-adv-x="328" d="M296 371 C296 590 237 767 164 767 C92 767 32 590 32 371 C32 155 92 -22 164 -22 C237 -22 296 155 296 371 L296 371 Z M265 203 L177 251 L141 23 L124 290 L53 314 L117 435 L120 674 L177 506 L257 551 L211 379 L265 203 Z " />
<glyph glyph-name="lozenge" unicode="&#x25ca;" horiz-adv-x="328" d="M296 371 C296 590 237 767 164 767 C92 767 32 590 32 371 C32 155 92 -22 164 -22 C237 -22 296 155 296 371 L296 371 Z M265 203 L177 251 L141 23 L124 290 L53 314 L117 435 L120 674 L177 506 L257 551 L211 379 L265 203 Z " />
<glyph glyph-name="fi" unicode="&#xfb01;" horiz-adv-x="418" d="M389 0 L389 547 L265 547 L265 0 L389 0 Z M381 666 C381 734 320 776 247 776 C121 776 59 718 59 635 C59 602 59 547 59 547 L2 547 L2 478 L59 478 L59 0 L179 0 L179 478 L245 478 L245 547 L179 547 C179 547 179 593 179 622 C179 659 194 701 235 701 C270 701 284 681 284 649 C284 636 280 615 275 598 L369 599 C374 620 381 642 381 666 L381 666 Z " />
<glyph glyph-name="fl" unicode="&#xfb02;" horiz-adv-x="417" d="M388 0 L388 768 L300 768 C284 773 266 776 247 776 C121 776 59 718 59 635 C59 602 59 547 59 547 L2 547 L2 478 L59 478 L59 0 L179 0 L179 478 L245 478 L245 547 L179 547 C179 547 179 593 179 622 C179 659 196 701 237 701 C249 701 259 699 266 695 L266 0 L388 0 Z " />
</font>
</svg>
