<?xml version="1.0" encoding="UTF-8"?>
<svg xmlns="http://www.w3.org/2000/svg" xmlns:xlink="http://www.w3.org/1999/xlink" version="1.2" >
<font id="BureauGrotesque-FiveThree">
<font-face  font-family="BureauGrotesque" units-per-em="1000" ascent="750" descent="-250" font-style="normal" font-weight="400" font-stretch="normal" cap-height="750" x-height="500" underline-position="-121.5" underline-thickness="23" />
<missing-glyph  horiz-adv-x="500" d="" />
<glyph glyph-name="CR" unicode="&#xd;" horiz-adv-x="250" d="" />
<glyph glyph-name="space" unicode="&#x20;" horiz-adv-x="250" d="" />
<glyph glyph-name="exclam" unicode="&#x21;" horiz-adv-x="256" d="M194 508 L194 768 L66 768 L66 508 L92 222 L173 222 L194 508 Z M197 0 L197 146 L63 146 L63 0 L197 0 Z " />
<glyph glyph-name="quotedbl" unicode="&#x22;" horiz-adv-x="444" d="M400 768 L257 768 L287 449 L369 449 L400 768 Z M185 768 L43 768 L73 449 L154 449 L185 768 Z " />
<glyph glyph-name="numbersign" unicode="&#x23;" horiz-adv-x="684" d="M629 597 L522 597 L546 768 L462 768 L437 597 L308 597 L333 768 L247 768 L224 597 L117 597 L99 467 L205 467 L181 302 L73 302 L55 172 L162 172 L137 0 L222 0 L246 172 L375 172 L351 0 L436 0 L460 172 L568 172 L586 302 L478 302 L504 467 L613 467 L629 597 Z M418 467 L395 302 L266 302 L290 467 L418 467 Z " />
<glyph glyph-name="dollar" unicode="&#x24;" horiz-adv-x="613" d="M557 231 C557 358 494 399 411 433 L332 465 L332 680 C385 672 410 644 410 588 C410 565 407 545 401 531 L517 531 C523 548 526 569 526 587 C526 689 458 768 332 768 L332 809 L267 809 L267 768 C131 768 51 665 51 568 C51 456 101 413 190 378 L267 348 L267 98 C200 103 180 138 180 201 C180 222 182 256 187 276 L71 267 C62 242 56 194 56 166 C56 52 146 8 267 2 L267 -90 L332 -90 L332 2 C486 9 557 86 557 231 L557 231 Z M267 485 C191 508 174 536 174 592 C174 638 204 669 267 680 L267 485 Z M433 212 C433 125 392 108 332 97 L332 324 C408 299 433 255 433 212 L433 212 Z " />
<glyph glyph-name="percent" unicode="&#x25;" horiz-adv-x="975" d="M928 213 C928 399 885 479 737 479 C603 479 545 385 545 211 C545 55 611 -12 737 -12 C863 -12 928 63 928 213 L928 213 Z M698 780 L636 780 L281 -16 L343 -16 L698 780 Z M432 514 C432 700 381 780 241 780 C91 780 49 697 49 512 C49 356 115 289 241 289 C367 289 432 364 432 514 L432 514 Z M814 228 C814 113 791 82 737 82 C683 82 661 113 661 228 C661 357 681 388 739 388 C791 388 814 360 814 228 L814 228 Z M318 529 C318 414 295 383 241 383 C187 383 165 414 165 529 C165 658 185 689 243 689 C295 689 318 661 318 529 L318 529 Z " />
<glyph glyph-name="ampersand" unicode="&#x26;" horiz-adv-x="750" d="M717 143 C717 181 705 244 705 244 L620 244 C626 217 628 196 628 167 C628 136 628 92 587 92 C564 92 539 122 514 166 C560 231 620 364 659 500 C627 500 574 500 574 500 C550 409 506 307 470 249 C456 272 435 311 418 341 C388 395 370 430 361 447 C443 492 514 531 514 632 C514 720 450 780 344 780 C216 780 160 712 160 616 C160 576 179 513 205 467 C99 411 33 335 33 207 C33 91 101 -12 231 -12 C290 -12 378 11 435 73 C472 21 502 -12 576 -12 C677 -12 717 59 717 143 L717 143 Z M414 641 C414 599 398 579 320 526 C308 547 276 609 276 637 C276 680 300 702 345 702 C384 702 414 680 414 641 L414 641 Z M391 145 C361 108 317 87 285 87 C206 87 158 130 158 222 C158 284 192 335 251 379 C274 340 301 295 324 256 C346 219 374 174 391 145 L391 145 Z " />
<glyph glyph-name="quotesingle" unicode="&#x27;" horiz-adv-x="228" d="M185 768 L43 768 L73 449 L154 449 L185 768 Z " />
<glyph glyph-name="parenleft" unicode="&#x28;" horiz-adv-x="380" d="M369 -114 C237 4 171 152 171 333 C171 521 248 671 369 780 L283 780 C130 674 56 534 56 333 C56 132 133 -13 283 -114 L369 -114 Z " />
<glyph glyph-name="parenright" unicode="&#x29;" horiz-adv-x="380" d="M324 333 C324 534 250 674 97 780 L11 780 C132 671 209 521 209 333 C209 152 143 4 11 -114 L97 -114 C247 -13 324 132 324 333 L324 333 Z " />
<glyph glyph-name="asterisk" unicode="&#x2a;" horiz-adv-x="376" d="M344 583 L265 627 L344 671 L306 735 L224 689 L224 780 L151 780 L151 690 L68 736 L30 672 L112 627 L30 582 L68 518 L151 564 L151 474 L224 474 L224 564 L306 519 L344 583 Z " />
<glyph glyph-name="plus" unicode="&#x2b;" horiz-adv-x="508" d="M458 284 L458 386 L305 386 L305 533 L204 533 L204 386 L51 386 L51 284 L204 284 L204 137 L305 137 L305 284 L458 284 Z " />
<glyph glyph-name="comma" unicode="&#x2c;" horiz-adv-x="262" d="M206 0 L206 155 L55 155 L55 0 L130 0 C130 -11 130 -21 129 -32 C125 -73 109 -101 59 -115 L71 -166 C90 -162 117 -156 142 -138 C186 -108 206 -69 206 0 L206 0 Z " />
<glyph glyph-name="hyphen" unicode="&#x2d;" horiz-adv-x="507" d="M457 284 L457 386 L50 386 L50 284 L457 284 Z " />
<glyph glyph-name="period" unicode="&#x2e;" horiz-adv-x="262" d="M204 0 L204 155 L55 155 L55 0 L204 0 Z " />
<glyph glyph-name="slash" unicode="&#x2f;" horiz-adv-x="476" d="M472 768 L387 768 L4 0 L93 0 L472 768 Z " />
<glyph glyph-name="zero" unicode="0" horiz-adv-x="554" d="M512 349 C512 686 442 780 276 780 C100 780 42 684 42 347 C42 55 118 -12 276 -12 C429 -12 512 58 512 349 L512 349 Z M384 376 C384 147 353 83 276 83 C193 83 170 147 170 376 C170 640 200 687 277 687 C349 687 384 642 384 376 L384 376 Z " />
<glyph glyph-name="one" unicode="1" horiz-adv-x="401" d="M313 0 L313 768 L241 768 C225 726 204 701 165 674 C126 647 82 633 17 630 L17 559 C39 556 75 555 102 555 C124 555 172 560 190 565 L190 0 L313 0 Z " />
<glyph glyph-name="two" unicode="2" horiz-adv-x="532" d="M502 0 L502 112 L160 112 C329 235 500 374 500 537 C500 706 421 780 264 780 C125 780 48 687 48 565 C48 527 53 467 60 424 L179 424 C175 450 169 507 169 541 C169 624 200 678 265 678 C329 678 368 633 368 540 C368 406 202 249 44 133 L44 0 L502 0 Z " />
<glyph glyph-name="three" unicode="3" horiz-adv-x="525" d="M486 253 C486 405 405 468 338 468 C320 468 279 465 260 446 L451 656 L451 768 L46 768 L46 660 L321 660 L117 431 L175 371 C196 385 223 394 242 394 C313 394 358 357 358 254 C358 128 314 88 245 88 C178 88 154 133 154 213 C154 244 159 263 162 283 L42 276 C32 245 27 202 27 164 C27 60 103 -12 240 -12 C385 -12 486 51 486 253 L486 253 Z " />
<glyph glyph-name="four" unicode="4" horiz-adv-x="549" d="M520 150 L520 250 L426 250 L426 768 L273 768 L24 279 L24 150 L302 150 L302 0 L426 0 L426 150 L520 150 Z M302 250 L125 250 L302 610 L302 250 Z " />
<glyph glyph-name="five" unicode="5" horiz-adv-x="530" d="M489 253 C489 419 436 517 317 517 C250 517 200 490 172 437 L186 654 L438 654 L441 768 L80 768 L60 351 L184 343 C192 377 209 418 261 418 C325 418 359 379 359 254 C359 135 320 83 255 83 C201 83 172 116 172 186 C172 217 175 233 178 252 L53 253 C48 232 46 200 46 166 C46 48 125 -12 267 -12 C405 -12 489 55 489 253 L489 253 Z " />
<glyph glyph-name="six" unicode="6" horiz-adv-x="549" d="M513 246 C513 451 421 505 315 505 C253 505 204 484 166 416 C164 433 164 488 164 512 C164 643 207 689 280 689 C339 689 370 658 370 589 C370 575 368 558 365 545 L484 550 C488 564 491 586 491 609 C491 711 407 780 283 780 C121 780 44 685 44 385 C44 78 140 -12 280 -12 C419 -12 513 58 513 246 L513 246 Z M385 248 C385 135 352 81 280 81 C207 81 173 136 173 248 C173 351 204 402 280 402 C356 402 385 350 385 248 L385 248 Z " />
<glyph glyph-name="seven" unicode="7" horiz-adv-x="461" d="M450 768 L24 768 L15 649 L355 649 C229 510 117 315 117 78 C117 48 119 29 120 0 L270 0 C267 27 263 100 263 164 C263 306 319 505 445 642 L450 768 Z " />
<glyph glyph-name="eight" unicode="8" horiz-adv-x="503" d="M473 203 C473 316 425 386 368 395 C425 407 462 473 462 552 C462 696 395 780 249 780 C107 780 41 700 41 552 C41 466 76 406 129 395 C74 383 25 319 25 203 C25 41 109 -12 249 -12 C404 -12 473 47 473 203 L473 203 Z M337 566 C337 458 309 435 249 435 C191 435 166 459 166 566 C166 657 193 692 249 692 C302 692 337 662 337 566 L337 566 Z M346 217 C346 113 314 79 249 79 C186 79 154 114 154 217 C154 318 183 355 249 355 C308 355 346 321 346 217 L346 217 Z " />
<glyph glyph-name="nine" unicode="9" horiz-adv-x="549" d="M505 383 C505 677 426 780 264 780 C123 780 36 702 36 522 C36 320 128 267 234 267 C293 267 352 289 382 349 C384 332 386 279 386 255 C386 124 342 81 269 81 C210 81 179 110 179 179 C179 193 180 210 181 223 L65 218 C61 204 61 182 61 159 C61 57 130 -12 266 -12 C429 -12 505 69 505 383 L505 383 Z M376 520 C376 417 347 370 269 370 C192 370 164 418 164 520 C164 633 197 687 269 687 C342 687 376 634 376 520 L376 520 Z " />
<glyph glyph-name="colon" unicode="&#x3a;" horiz-adv-x="262" d="M202 379 L202 534 L59 534 L59 379 L202 379 Z M202 0 L202 155 L59 155 L59 0 L202 0 Z " />
<glyph glyph-name="semicolon" unicode="&#x3b;" horiz-adv-x="262" d="M202 375 L202 530 L59 530 L59 375 L202 375 Z M210 0 C210 24 210 155 210 155 L59 155 L59 0 L134 0 C134 -11 134 -21 133 -32 C129 -73 113 -101 63 -115 L75 -166 C94 -162 125 -153 146 -138 C190 -108 210 -69 210 0 L210 0 Z " />
<glyph glyph-name="less" unicode="&#x3c;" horiz-adv-x="437" d="M368 124 L368 215 L151 322 L368 429 L368 520 L62 370 L62 274 L368 124 Z " />
<glyph glyph-name="equal" unicode="&#x3d;" horiz-adv-x="508" d="M453 370 L453 454 L55 454 L55 370 L453 370 Z M453 176 L453 260 L55 260 L55 176 L453 176 Z " />
<glyph glyph-name="greater" unicode="&#x3e;" horiz-adv-x="437" d="M374 274 L374 370 L68 520 L68 429 L285 322 L68 215 L68 124 L374 274 Z " />
<glyph glyph-name="question" unicode="&#x3f;" horiz-adv-x="478" d="M454 548 C454 695 393 780 252 780 C107 780 54 709 54 624 C54 595 56 582 62 565 L168 565 C164 574 162 588 162 606 C162 656 187 683 237 683 C298 683 326 640 326 543 C326 427 314 387 249 387 C207 387 188 409 173 455 L96 455 L96 215 L188 215 L188 331 C208 305 240 280 300 280 C398 280 454 347 454 548 L454 548 Z M224 0 L224 155 L81 155 L81 0 L224 0 Z " />
<glyph glyph-name="at" unicode="&#x40;" horiz-adv-x="874" d="M815 389 C815 645 670 780 450 780 C201 780 63 586 63 311 C63 19 207 -143 450 -143 C547 -143 604 -109 687 -43 L647 1 C601 -46 531 -88 455 -88 C264 -88 134 44 134 310 C134 553 260 732 442 732 C616 732 747 602 747 388 C747 217 700 127 632 127 C591 127 586 155 591 187 L627 428 C637 498 602 588 472 588 C327 588 279 518 279 426 C279 420 281 414 282 412 L389 423 C389 423 388 433 388 439 C388 477 400 514 451 514 C489 514 515 488 508 429 L504 395 C331 398 232 332 232 186 C232 108 284 72 350 72 C442 72 475 113 504 154 C503 115 541 72 607 72 C747 72 815 191 815 389 L815 389 Z M495 332 L482 243 C476 204 460 152 390 152 C356 152 341 169 341 214 C341 320 431 338 495 332 L495 332 Z " />
<glyph glyph-name="A" unicode="A" horiz-adv-x="628" d="M598 0 L395 768 L228 768 L30 0 L153 0 L193 168 L429 168 L470 0 L598 0 Z M400 273 L220 273 L307 647 L400 273 Z " />
<glyph glyph-name="B" unicode="B" horiz-adv-x="638" d="M583 217 C583 328 524 393 457 403 C521 415 560 459 560 557 C560 692 481 768 336 768 L90 768 L90 0 L368 0 C482 0 583 46 583 217 L583 217 Z M431 558 C431 488 393 451 335 451 L212 451 L212 669 L333 669 C393 669 431 632 431 558 L431 558 Z M455 230 C455 149 415 100 348 100 L212 100 L212 355 L346 355 C410 355 455 300 455 230 L455 230 Z " />
<glyph glyph-name="C" unicode="C" horiz-adv-x="645" d="M590 310 L463 322 C469 213 475 88 340 88 C236 88 180 144 180 378 C180 612 224 682 334 682 C418 682 467 632 456 476 L585 485 C594 651 549 780 330 780 C142 780 45 668 45 370 C45 84 140 -12 339 -12 C536 -12 606 103 590 310 L590 310 Z " />
<glyph glyph-name="D" unicode="D" horiz-adv-x="666" d="M621 362 C621 643 505 768 331 768 L90 768 L90 0 L323 0 C515 0 621 134 621 362 L621 362 Z M490 380 C490 176 439 102 327 102 L215 102 L215 666 L315 666 C416 666 490 600 490 380 L490 380 Z " />
<glyph glyph-name="E" unicode="E" horiz-adv-x="578" d="M535 0 L535 102 L216 102 L216 344 L485 344 L485 446 L216 446 L216 666 L512 666 L512 768 L90 768 L90 0 L535 0 Z " />
<glyph glyph-name="F" unicode="F" horiz-adv-x="547" d="M501 666 L501 768 L90 768 L90 0 L215 0 L215 329 L479 329 L479 431 L215 431 L215 666 L501 666 Z " />
<glyph glyph-name="G" unicode="G" horiz-adv-x="663" d="M590 0 L590 397 L375 397 L375 294 L469 294 L472 240 C478 140 437 86 345 86 C248 86 180 140 180 363 C180 605 221 682 333 682 C423 682 465 640 462 496 L585 510 C589 679 519 780 329 780 C146 780 45 667 45 362 C45 68 168 -12 327 -12 C407 -12 458 23 497 67 L537 0 L590 0 Z " />
<glyph glyph-name="H" unicode="H" horiz-adv-x="694" d="M604 0 L604 768 L479 768 L479 454 L215 454 L215 768 L90 768 L90 0 L215 0 L215 351 L479 351 L479 0 L604 0 Z " />
<glyph glyph-name="I" unicode="I" horiz-adv-x="306" d="M216 0 L216 768 L90 768 L90 0 L216 0 Z " />
<glyph glyph-name="J" unicode="J" horiz-adv-x="536" d="M452 219 L452 768 L327 768 L327 241 C327 121 301 94 238 94 C178 94 152 123 152 192 C152 214 155 236 161 266 L44 262 C38 236 35 211 35 187 C35 73 103 -12 229 -12 C398 -12 452 72 452 219 L452 219 Z " />
<glyph glyph-name="K" unicode="K" horiz-adv-x="621" d="M601 0 L299 417 L563 768 L434 768 L216 468 L216 768 L90 768 L90 0 L216 0 L216 340 L458 0 L601 0 Z " />
<glyph glyph-name="L" unicode="L" horiz-adv-x="528" d="M498 0 L498 102 L216 102 L216 768 L90 768 L90 0 L498 0 Z " />
<glyph glyph-name="M" unicode="M" horiz-adv-x="857" d="M767 0 L767 768 L586 768 L427 195 L280 768 L90 768 L90 0 L206 0 L206 618 L359 0 L473 0 L646 618 L646 0 L767 0 Z " />
<glyph glyph-name="N" unicode="N" horiz-adv-x="669" d="M579 0 L579 768 L465 768 L465 248 L207 768 L90 768 L90 0 L204 0 L204 498 L462 0 L579 0 Z " />
<glyph glyph-name="O" unicode="O" horiz-adv-x="685" d="M640 385 C640 676 515 780 342 780 C165 780 45 675 45 385 C45 81 153 -12 342 -12 C527 -12 640 77 640 385 L640 385 Z M506 383 C506 136 435 87 342 87 C238 87 179 135 179 383 C179 625 242 683 342 683 C433 683 506 627 506 383 L506 383 Z " />
<glyph glyph-name="P" unicode="P" horiz-adv-x="610" d="M574 530 C574 708 474 768 309 768 L90 768 L90 0 L216 0 L216 294 L326 294 C477 294 574 355 574 530 L574 530 Z M440 530 C440 438 389 393 334 393 L216 393 L216 669 L331 669 C392 669 440 621 440 530 L440 530 Z " />
<glyph glyph-name="Q" unicode="Q" horiz-adv-x="685" d="M640 385 C640 684 515 780 342 780 C165 780 45 683 45 385 C45 112 128 15 276 -5 C274 -15 271 -40 271 -54 C271 -137 319 -178 424 -178 C515 -178 560 -140 560 -56 L560 -38 L474 -28 C475 -70 464 -104 426 -104 C389 -104 373 -84 373 -47 C373 -39 378 -9 378 -9 C539 2 640 87 640 385 L640 385 Z M506 383 C506 136 435 87 342 87 C238 87 179 135 179 383 C179 625 242 683 342 683 C433 683 506 627 506 383 L506 383 Z " />
<glyph glyph-name="R" unicode="R" horiz-adv-x="638" d="M578 0 C569 14 564 54 562 86 C561 105 559 136 559 166 C559 287 524 353 447 360 C515 383 576 421 576 539 C576 688 493 768 334 768 L90 768 L90 0 L216 0 L216 312 L328 312 C400 312 426 266 428 218 C429 180 428 111 428 88 C428 53 433 19 447 0 L578 0 Z M446 538 C446 454 399 414 326 414 L216 414 L216 666 L314 666 C395 666 446 622 446 538 L446 538 Z " />
<glyph glyph-name="S" unicode="S" horiz-adv-x="576" d="M540 227 C540 318 494 381 395 425 L280 476 C185 518 172 540 172 592 C172 646 204 686 273 686 C348 686 381 647 381 575 C381 552 377 536 373 523 L490 527 C495 544 502 568 502 595 C502 705 414 780 284 780 C125 780 50 689 50 564 C50 478 104 417 175 387 L278 344 C388 298 411 258 411 205 C411 124 370 85 285 85 C213 85 167 113 167 201 C167 225 170 245 176 263 L54 258 C45 233 41 209 41 178 C41 60 125 -12 284 -12 C457 -12 540 68 540 227 L540 227 Z " />
<glyph glyph-name="T" unicode="T" horiz-adv-x="543" d="M521 666 L521 768 L22 768 L22 666 L210 666 L210 0 L336 0 L336 666 L521 666 Z " />
<glyph glyph-name="U" unicode="U" horiz-adv-x="671" d="M587 228 L587 768 L466 768 L466 215 C466 149 447 89 337 89 C240 89 208 143 208 215 L208 768 L84 768 L84 228 C84 74 142 -12 337 -12 C546 -12 587 86 587 228 L587 228 Z " />
<glyph glyph-name="V" unicode="V" horiz-adv-x="616" d="M581 768 L464 768 L318 157 L313 157 L164 768 L35 768 L231 0 L385 0 L581 768 Z " />
<glyph glyph-name="W" unicode="W" horiz-adv-x="839" d="M804 768 L685 768 L586 250 L485 768 L362 768 L259 250 L162 768 L35 768 L193 0 L309 0 L423 500 L530 0 L647 0 L804 768 Z " />
<glyph glyph-name="X" unicode="X" horiz-adv-x="618" d="M593 0 L387 401 L589 768 L457 768 L324 525 L200 768 L60 768 L249 403 L25 0 L156 0 L311 280 L454 0 L593 0 Z " />
<glyph glyph-name="Y" unicode="Y" horiz-adv-x="602" d="M577 768 L459 768 L307 421 L159 768 L25 768 L238 300 L238 0 L364 0 L364 300 L577 768 Z " />
<glyph glyph-name="Z" unicode="Z" horiz-adv-x="592" d="M529 0 L529 104 L178 104 L529 643 L529 768 L75 768 L75 664 L396 664 L52 131 L52 0 L529 0 Z " />
<glyph glyph-name="bracketleft" unicode="&#x5b;" horiz-adv-x="389" d="M345 -114 L345 -26 L183 -26 L183 680 L345 680 L345 768 L68 768 L68 -114 L345 -114 Z " />
<glyph glyph-name="backslash" unicode="&#x5c;" horiz-adv-x="476" d="M472 0 L89 768 L4 768 L383 0 L472 0 Z " />
<glyph glyph-name="bracketright" unicode="&#x5d;" horiz-adv-x="389" d="M304 -114 L304 768 L27 768 L27 680 L189 680 L189 -26 L27 -26 L27 -114 L304 -114 Z " />
<glyph glyph-name="asciicircum" unicode="&#x5e;" horiz-adv-x="525" d="M426 574 L311 768 L209 768 L95 574 L188 574 L260 678 L333 574 L426 574 Z " />
<glyph glyph-name="underscore" unicode="&#x5f;" horiz-adv-x="584" d="M584 -200 L584 -103 L0 -103 L0 -200 L584 -200 Z " />
<glyph glyph-name="grave" unicode="&#x60;" horiz-adv-x="360" d="M298 626 L219 751 L43 751 L43 740 L222 626 L298 626 Z " />
<glyph glyph-name="a" unicode="a" horiz-adv-x="589" d="M570 18 L570 75 C570 75 559 75 554 75 C503 75 496 92 496 123 L496 419 C496 538 416 592 278 592 C135 592 57 535 57 448 C57 420 60 407 66 384 L179 391 C174 408 170 418 170 438 C170 473 186 510 272 510 C349 510 382 472 382 400 C373 371 300 349 194 323 C108 302 36 253 36 161 C36 58 88 -12 208 -12 C280 -12 348 13 384 78 C393 21 419 -7 467 -7 C512 -7 544 5 570 18 L570 18 Z M382 309 C382 309 378 218 377 200 C372 121 324 79 267 74 C191 67 158 106 158 156 C158 213 197 244 290 265 C325 273 370 290 382 309 L382 309 Z " />
<glyph glyph-name="b" unicode="b" horiz-adv-x="599" d="M555 289 C555 527 450 586 345 586 C251 586 200 521 184 473 L184 768 L66 768 L66 0 L108 0 L159 80 C180 49 231 -7 336 -7 C462 -7 555 61 555 289 L555 289 Z M432 287 C432 111 384 83 308 83 C224 83 185 141 185 288 C185 417 235 492 307 492 C390 492 432 460 432 287 L432 287 Z " />
<glyph glyph-name="c" unicode="c" horiz-adv-x="549" d="M500 162 C500 193 497 217 492 236 L385 242 C386 233 388 217 388 204 C388 115 355 85 283 85 C195 85 167 127 167 301 C167 447 201 500 284 500 C337 500 377 468 377 392 C377 377 376 368 374 358 L487 362 C490 375 490 391 490 410 C490 512 434 592 291 592 C139 592 44 509 44 266 C44 62 116 -12 282 -12 C432 -12 500 76 500 162 L500 162 Z " />
<glyph glyph-name="d" unicode="d" horiz-adv-x="599" d="M533 0 L533 768 L415 768 L415 485 C389 543 341 581 261 581 C132 581 44 479 44 283 C44 75 118 -8 259 -8 C324 -8 387 23 416 79 L416 0 L533 0 Z M411 286 C411 142 373 78 288 78 C199 78 167 132 167 287 C167 427 203 496 286 496 C339 496 369 463 381 438 C396 408 411 357 411 286 L411 286 Z " />
<glyph glyph-name="e" unicode="e" horiz-adv-x="547" d="M506 151 C507 168 507 177 505 188 L394 198 C394 198 394 184 393 175 C390 122 368 80 285 80 C204 80 163 140 164 262 L498 262 C499 279 500 298 500 319 C500 333 500 349 499 365 C488 517 409 592 283 592 C138 592 44 500 44 279 C44 51 122 -12 285 -12 C431 -12 498 55 506 151 L506 151 Z M387 338 L164 338 C168 451 208 497 281 497 C338 497 375 462 385 393 C388 375 388 351 387 338 L387 338 Z " />
<glyph glyph-name="f" unicode="f" horiz-adv-x="367" d="M391 692 C391 754 339 790 243 790 C146 790 102 730 102 642 C102 619 103 598 104 574 L12 574 L12 495 L104 495 L104 0 L222 0 L222 495 L340 495 L340 574 L213 574 C210 598 208 640 213 672 C217 696 234 711 258 711 C285 711 299 697 299 674 C299 659 297 646 295 637 L384 633 C388 650 391 669 391 692 L391 692 Z " />
<glyph glyph-name="g" unicode="g" horiz-adv-x="550" d="M538 -10 C538 108 470 162 338 154 L242 148 C148 142 136 153 136 180 C136 205 164 220 203 224 C225 218 253 214 298 214 C423 214 499 292 499 399 C499 474 465 519 426 542 L495 683 L379 683 L358 572 C340 578 319 584 275 584 C132 584 52 511 52 399 C52 334 83 267 145 240 C63 225 30 179 30 127 C30 85 55 33 150 31 C56 17 23 -18 23 -69 C23 -143 93 -188 264 -188 C462 -188 538 -121 538 -10 L538 -10 Z M377 399 C377 316 343 286 275 286 C214 286 174 316 174 399 C174 474 205 514 275 514 C342 514 377 474 377 399 L377 399 Z M442 -31 C442 -77 397 -115 267 -115 C158 -115 124 -96 124 -47 C124 -15 163 13 203 28 C234 32 275 36 317 36 C405 36 442 23 442 -31 L442 -31 Z " />
<glyph glyph-name="h" unicode="h" horiz-adv-x="593" d="M528 0 L528 441 C528 539 473 585 372 585 C274 585 210 532 185 446 L185 768 L66 768 L66 0 L186 0 L186 318 C186 427 256 487 310 487 C380 487 408 457 408 370 L408 0 L528 0 Z " />
<glyph glyph-name="i" unicode="i" horiz-adv-x="254" d="M190 629 L190 768 L64 768 L64 629 L190 629 Z M188 0 L188 574 L66 574 L66 0 L188 0 Z " />
<glyph glyph-name="j" unicode="j" horiz-adv-x="268" d="M202 629 L202 768 L77 768 L77 629 L202 629 Z M199 -27 L199 574 L79 574 C79 574 79 130 79 5 C79 -25 86 -43 86 -60 C86 -84 71 -101 45 -101 C21 -101 5 -85 5 -54 C5 -43 6 -30 8 -20 L-79 -18 C-85 -30 -91 -54 -91 -69 C-91 -149 -42 -180 55 -180 C161 -180 199 -135 199 -27 L199 -27 Z " />
<glyph glyph-name="k" unicode="k" horiz-adv-x="542" d="M524 0 L332 359 L498 574 L367 574 L185 323 L185 768 L66 768 L66 0 L185 0 L185 168 L254 257 L389 0 L524 0 Z " />
<glyph glyph-name="l" unicode="l" horiz-adv-x="254" d="M188 0 L188 768 L66 768 L66 0 L188 0 Z " />
<glyph glyph-name="m" unicode="m" horiz-adv-x="886" d="M820 0 L820 431 C820 529 775 585 683 585 C595 585 523 532 501 446 C498 543 451 585 361 585 C271 585 210 532 185 446 L185 574 L66 574 L66 0 L186 0 L186 318 C186 427 252 487 301 487 C356 487 383 461 383 370 L383 0 L503 0 L503 318 C503 417 569 487 617 487 C680 487 700 461 700 370 L700 0 L820 0 Z " />
<glyph glyph-name="n" unicode="n" horiz-adv-x="593" d="M528 0 L528 441 C528 539 473 585 372 585 C274 585 210 532 185 446 L185 574 L66 574 L66 0 L186 0 L186 318 C186 427 256 487 310 487 C376 487 408 461 408 370 L408 0 L528 0 Z " />
<glyph glyph-name="o" unicode="o" horiz-adv-x="574" d="M530 278 C530 481 449 592 287 592 C128 592 44 492 44 278 C44 70 127 -12 287 -12 C439 -12 530 68 530 278 L530 278 Z M407 282 C407 140 372 85 287 85 C202 85 167 137 167 282 C167 441 204 500 287 500 C368 500 407 441 407 282 L407 282 Z " />
<glyph glyph-name="p" unicode="p" horiz-adv-x="599" d="M555 289 C555 527 450 586 345 586 C271 586 209 542 184 465 L184 574 L66 574 L66 -164 L185 -164 L185 81 C209 38 256 -7 336 -7 C462 -7 555 69 555 289 L555 289 Z M432 287 C432 112 368 85 308 85 C238 85 185 126 185 288 C185 426 245 489 307 489 C378 489 432 439 432 287 L432 287 Z " />
<glyph glyph-name="q" unicode="q" horiz-adv-x="599" d="M533 -164 L533 574 L476 574 L429 478 C411 522 363 581 267 581 C132 581 44 485 44 276 C44 79 131 -9 258 -9 C330 -9 390 37 414 84 L414 -164 L533 -164 Z M413 289 C413 138 363 74 288 74 C195 74 167 137 167 282 C167 441 220 493 282 493 C341 493 413 451 413 289 L413 289 Z " />
<glyph glyph-name="r" unicode="r" horiz-adv-x="512" d="M496 457 C496 536 437 587 341 587 C265 587 206 527 184 443 C184 478 184 574 184 574 L66 574 L66 0 L187 0 L187 311 C187 411 232 485 303 485 C352 485 378 456 378 410 C378 380 371 349 365 327 L472 347 C486 379 496 425 496 457 L496 457 Z " />
<glyph glyph-name="s" unicode="s" horiz-adv-x="526" d="M492 170 C492 253 437 307 337 338 L252 364 C181 386 161 402 161 435 C161 465 189 504 253 504 C319 504 351 474 351 439 C351 425 347 411 344 401 L460 409 C464 420 468 432 468 450 C468 528 391 592 250 592 C128 592 43 526 43 423 C43 333 93 298 175 272 L255 247 C356 215 367 185 367 155 C367 104 331 76 259 76 C183 76 152 114 152 161 C152 173 155 186 158 199 L50 206 C43 186 36 160 36 135 C36 53 114 -12 259 -12 C417 -12 492 62 492 170 L492 170 Z " />
<glyph glyph-name="t" unicode="t" horiz-adv-x="441" d="M415 28 L415 111 C386 99 352 85 313 85 C259 85 234 101 234 148 L234 495 L377 495 L377 574 L234 574 L234 732 L113 732 L113 574 L6 574 L6 495 L113 495 L113 149 C113 32 166 -7 258 -7 C330 -7 392 16 415 28 L415 28 Z " />
<glyph glyph-name="u" unicode="u" horiz-adv-x="593" d="M527 0 L527 574 L407 574 C407 574 407 283 407 256 C407 165 352 87 283 87 C205 87 185 127 185 204 L185 574 L65 574 L65 146 C65 48 125 -12 226 -12 C324 -12 373 40 408 116 L408 0 L527 0 Z " />
<glyph glyph-name="v" unicode="v" horiz-adv-x="568" d="M543 574 L429 574 L288 120 L149 574 L25 574 L215 0 L357 0 L543 574 Z " />
<glyph glyph-name="w" unicode="w" horiz-adv-x="802" d="M777 574 L664 574 L565 176 L462 574 L344 574 L255 176 L145 574 L25 574 L190 0 L307 0 L402 391 L502 0 L614 0 L777 574 Z " />
<glyph glyph-name="x" unicode="x" horiz-adv-x="572" d="M552 0 L350 303 L534 574 L418 574 L293 390 L175 574 L39 574 L223 297 L20 0 L138 0 L279 213 L415 0 L552 0 Z " />
<glyph glyph-name="y" unicode="y" horiz-adv-x="568" d="M543 574 L429 574 L289 124 L153 574 L25 574 L219 -13 C205 -67 182 -96 147 -96 C118 -96 97 -83 97 -58 C97 -45 99 -30 102 -19 L-3 -19 C-6 -34 -9 -45 -9 -59 C-9 -132 35 -180 143 -180 C237 -180 313 -130 354 -5 L543 574 Z " />
<glyph glyph-name="z" unicode="z" horiz-adv-x="521" d="M472 0 L472 98 L171 98 L472 455 L472 574 L57 574 L57 476 L344 476 L43 112 L43 0 L472 0 Z " />
<glyph glyph-name="braceleft" unicode="&#x7b;" horiz-adv-x="382" d="M340 -114 L340 -26 L270 -26 C239 -26 231 -1 231 28 C231 108 231 172 231 264 C231 319 211 353 169 353 C219 353 231 381 231 436 C231 488 231 564 231 626 C231 650 241 680 270 680 L340 680 L340 768 L235 768 C140 768 116 715 116 632 C116 597 116 483 116 452 C116 404 112 393 68 393 L38 393 L38 313 L68 313 C105 313 116 301 116 261 C116 192 116 90 116 19 C116 -84 150 -114 235 -114 L340 -114 Z " />
<glyph glyph-name="bar" unicode="&#x7c;" horiz-adv-x="243" d="M166 -200 L166 800 L77 800 L77 -200 L166 -200 Z " />
<glyph glyph-name="braceright" unicode="&#x7d;" horiz-adv-x="382" d="M355 313 L355 393 L325 393 C281 393 277 404 277 452 C277 483 277 597 277 632 C277 715 253 768 158 768 L53 768 L53 680 L123 680 C152 680 162 650 162 626 C162 564 162 488 162 436 C162 381 174 353 224 353 C182 353 162 319 162 264 C162 172 162 108 162 28 C162 -1 154 -26 123 -26 L53 -26 L53 -114 L158 -114 C243 -114 277 -84 277 19 C277 90 277 192 277 261 C277 301 288 313 325 313 L355 313 Z " />
<glyph glyph-name="asciitilde" unicode="&#x7e;" horiz-adv-x="525" d="M458 699 C458 734 452 750 445 764 L395 764 C405 729 395 694 354 694 C335 694 325 701 308 713 L279 734 C252 754 222 773 173 773 C100 773 74 734 74 674 C74 646 78 627 86 613 L137 613 C128 646 133 678 176 678 C196 678 213 669 230 655 L257 633 C274 619 308 600 349 600 C422 600 458 637 458 699 L458 699 Z " />
<glyph glyph-name="nbspace" unicode="&#xa0;" horiz-adv-x="125" d="" />
<glyph glyph-name="exclamdown" unicode="&#xa1;" horiz-adv-x="256" d="M197 622 L197 768 L63 768 L63 622 L197 622 Z M194 0 L194 260 L173 546 L92 546 L66 260 L66 0 L194 0 Z " />
<glyph glyph-name="cent" unicode="&#xa2;" horiz-adv-x="549" d="M500 292 C500 323 497 350 492 369 L383 375 C386 366 388 347 388 334 C388 258 364 221 313 211 L313 617 C351 608 377 577 377 516 C377 501 376 494 374 482 L487 486 C489 499 490 515 490 534 C490 631 444 708 313 715 L313 768 L253 768 L253 714 C124 701 44 612 44 390 C44 198 108 121 253 113 L253 42 L313 42 L313 113 C449 124 500 212 500 292 L500 292 Z M253 211 C189 221 169 273 169 425 C169 551 193 605 253 618 L253 211 Z " />
<glyph glyph-name="sterling" unicode="&#xa3;" horiz-adv-x="621" d="M603 187 C603 202 599 220 595 235 L484 250 C485 238 486 229 486 216 C486 140 473 98 405 98 C363 98 330 118 305 129 C333 157 349 206 349 266 C349 280 347 311 345 322 L459 322 L459 421 L329 421 C312 461 288 533 288 587 C288 652 326 681 364 681 C412 681 443 655 443 582 C443 560 440 530 436 508 L558 521 C562 535 565 558 565 577 C565 725 487 780 366 780 C225 780 156 700 156 559 C156 500 174 453 192 421 L107 421 L107 322 L225 322 C233 290 235 268 234 234 C233 202 226 179 218 159 C191 172 158 179 125 179 C40 179 13 135 13 78 C13 25 53 -11 112 -11 C163 -11 203 6 242 41 C277 23 349 -12 433 -12 C535 -12 603 42 603 187 L603 187 Z M168 75 C151 58 128 52 111 52 C98 52 87 58 87 69 C87 81 94 88 112 88 C130 88 152 82 168 75 L168 75 Z " />
<glyph glyph-name="currency" unicode="&#xa4;" horiz-adv-x="593" d="M554 334 C554 481 438 601 296 601 C154 601 36 481 36 334 C36 187 154 67 296 67 C438 67 554 187 554 334 L554 334 Z M533 323 L380 246 L330 128 L282 239 L93 255 L226 391 L121 480 L287 426 L332 540 L395 406 L533 323 Z " />
<glyph glyph-name="yen" unicode="&#xa5;" horiz-adv-x="553" d="M552 768 L439 768 L282 409 L127 768 L0 768 L107 534 L13 534 L13 461 L140 461 L187 357 L13 357 L13 284 L213 284 L213 0 L339 0 L339 284 L537 284 L537 357 L365 357 L412 461 L537 461 L537 534 L445 534 L552 768 Z " />
<glyph glyph-name="brokenbar" unicode="&#xa6;" horiz-adv-x="593" d="M554 334 C554 481 438 601 296 601 C154 601 36 481 36 334 C36 187 154 67 296 67 C438 67 554 187 554 334 L554 334 Z M533 323 L380 246 L330 128 L282 239 L93 255 L226 391 L121 480 L287 426 L332 540 L395 406 L533 323 Z " />
<glyph glyph-name="section" unicode="&#xa7;" horiz-adv-x="520" d="M471 103 C471 171 449 200 411 230 C440 246 471 285 471 361 C471 454 418 499 323 529 L241 555 C164 579 154 593 154 626 C154 656 173 698 242 698 C308 698 336 666 336 627 C336 613 333 600 329 589 L441 597 C444 608 448 620 448 638 C448 726 382 780 240 780 C123 780 40 725 40 611 C40 521 83 500 112 484 C62 458 40 405 40 353 C40 263 87 226 166 200 L243 175 C340 144 348 115 348 85 C348 34 313 1 244 1 C163 1 145 44 145 91 C145 103 148 115 151 129 L49 136 C40 116 34 90 34 65 C34 -29 99 -82 248 -82 C408 -82 471 -18 471 103 L471 103 Z M348 339 C348 308 332 291 307 276 C287 282 243 296 210 307 C175 319 154 333 154 366 C154 407 180 431 234 435 C250 430 280 419 297 412 C332 397 348 380 348 339 L348 339 Z " />
<glyph glyph-name="dieresis" unicode="&#xa8;" horiz-adv-x="360" d="M371 626 L371 746 L245 746 L245 626 L371 626 Z M111 626 L111 746 L-14 746 L-14 626 L111 626 Z " />
<glyph glyph-name="copyright" unicode="&#xa9;" horiz-adv-x="796" d="M751 395 C751 592 592 752 399 752 C203 752 45 592 45 395 C45 200 204 42 399 42 C591 42 751 200 751 395 L751 395 Z M688 395 C688 232 559 100 399 100 C237 100 107 232 107 395 C107 558 238 695 399 695 C558 695 688 558 688 395 L688 395 Z M541 349 L469 360 C471 306 478 245 405 245 C354 245 328 272 328 388 C328 503 347 538 401 538 C444 538 470 513 465 435 L538 446 C543 537 518 608 398 608 C295 608 241 546 241 382 C241 225 294 172 403 172 C511 172 550 236 541 349 L541 349 Z " />
<glyph glyph-name="ordfeminine" unicode="&#xaa;" horiz-adv-x="467" d="M411 435 L411 479 C411 479 404 479 401 479 C371 479 366 489 366 508 L366 652 C366 750 320 780 231 780 C145 780 98 746 98 693 C98 676 100 669 104 655 L183 660 C180 669 178 675 178 687 C178 709 187 730 229 730 C268 730 282 698 282 659 C267 649 236 635 180 619 C130 605 86 577 86 522 C86 459 117 417 189 417 C232 417 261 436 285 468 C289 430 320 420 349 420 C376 420 395 428 411 435 L411 435 Z M402 334 L402 385 L88 385 L88 334 L402 334 Z M282 519 C267 496 251 477 224 477 C192 477 173 492 173 522 C173 555 195 570 238 583 C261 590 272 596 282 603 L282 519 Z " />
<glyph glyph-name="guillemotleft" unicode="&#xab;" horiz-adv-x="631" d="M585 36 L585 156 L403 276 L585 395 L585 515 L321 344 L321 209 L585 36 Z M317 36 L317 156 L138 276 L317 395 L317 515 L55 344 L55 209 L317 36 Z " />
<glyph glyph-name="logicalnot" unicode="&#xac;" horiz-adv-x="593" d="M554 334 C554 481 438 601 296 601 C154 601 36 481 36 334 C36 187 154 67 296 67 C438 67 554 187 554 334 L554 334 Z M533 323 L380 246 L330 128 L282 239 L93 255 L226 391 L121 480 L287 426 L332 540 L395 406 L533 323 Z " />
<glyph glyph-name="registered" unicode="&#xae;" horiz-adv-x="796" d="M751 397 C751 592 593 752 399 752 C203 752 45 592 45 397 C45 203 204 42 399 42 C592 42 751 203 751 397 L751 397 Z M688 397 C688 233 559 100 399 100 C237 100 107 233 107 397 C107 558 238 695 399 695 C559 695 688 558 688 397 L688 397 Z M538 468 C538 569 482 595 414 595 L270 595 L270 188 L349 188 L349 347 L409 347 C431 347 450 334 450 306 C450 285 450 288 450 237 C450 212 454 199 457 188 L534 188 C531 198 528 217 528 233 C526 319 527 366 453 375 C510 381 538 419 538 468 L538 468 Z M449 467 C449 425 439 402 409 402 L349 402 L349 539 L408 539 C431 539 449 521 449 467 L449 467 Z " />
<glyph glyph-name="macron" unicode="&#xaf;" horiz-adv-x="360" d="M311 643 L311 729 L49 729 L49 643 L311 643 Z " />
<glyph glyph-name="degree" unicode="&#xb0;" horiz-adv-x="430" d="M350 645 C350 720 290 780 215 780 C140 780 80 720 80 645 C80 570 140 510 215 510 C290 510 350 570 350 645 L350 645 Z M282 645 C282 608 255 576 215 576 C175 576 148 608 148 645 C148 682 174 714 215 714 C255 714 282 682 282 645 L282 645 Z " />
<glyph glyph-name="plusminus" unicode="&#xb1;" horiz-adv-x="988" d="M922 0 L922 768 L800 768 L800 0 L922 0 Z M758 692 C758 754 706 790 610 790 C513 790 469 730 469 642 C469 619 470 598 471 574 L379 574 L379 495 L471 495 L471 0 L589 0 L589 495 L707 495 L707 574 L580 574 C578 586 577 604 577 622 C577 639 577 657 580 672 C584 696 601 711 625 711 C652 711 666 697 666 674 C666 659 664 647 662 637 L751 633 C755 650 758 669 758 692 L758 692 Z M391 692 C391 754 339 790 243 790 C146 790 102 730 102 642 C102 619 103 598 104 574 L12 574 L12 495 L104 495 L104 0 L222 0 L222 495 L340 495 L340 574 L213 574 C211 587 211 604 211 623 C211 640 210 657 213 672 C217 696 234 711 258 711 C285 711 299 697 299 674 C299 659 297 646 295 637 L384 633 C388 650 391 669 391 692 L391 692 Z " />
<glyph glyph-name="twosuperior" unicode="&#xb2;" horiz-adv-x="593" d="M554 334 C554 481 438 601 296 601 C154 601 36 481 36 334 C36 187 154 67 296 67 C438 67 554 187 554 334 L554 334 Z M533 323 L380 246 L330 128 L282 239 L93 255 L226 391 L121 480 L287 426 L332 540 L395 406 L533 323 Z " />
<glyph glyph-name="threesuperior" unicode="&#xb3;" horiz-adv-x="593" d="M554 334 C554 481 438 601 296 601 C154 601 36 481 36 334 C36 187 154 67 296 67 C438 67 554 187 554 334 L554 334 Z M533 323 L380 246 L330 128 L282 239 L93 255 L226 391 L121 480 L287 426 L332 540 L395 406 L533 323 Z " />
<glyph glyph-name="acute" unicode="&#xb4;" horiz-adv-x="360" d="M329 740 L329 751 L153 751 L74 626 L150 626 L329 740 Z " />
<glyph glyph-name="mu" unicode="&#xb5;" horiz-adv-x="593" d="M554 334 C554 481 438 601 296 601 C154 601 36 481 36 334 C36 187 154 67 296 67 C438 67 554 187 554 334 L554 334 Z M533 323 L380 246 L330 128 L282 239 L93 255 L226 391 L121 480 L287 426 L332 540 L395 406 L533 323 Z " />
<glyph glyph-name="paragraph" unicode="&#xb6;" horiz-adv-x="587" d="M497 -47 L497 768 L225 768 C137 768 36 711 36 512 C36 323 137 274 217 274 L290 274 L290 -47 L371 -47 L371 702 L416 702 L416 -47 L497 -47 Z M290 343 L277 343 C235 343 218 378 218 512 C218 676 238 702 279 702 L290 702 L290 343 Z " />
<glyph glyph-name="periodcentered" unicode="&#xb7;" horiz-adv-x="300" d="M242 386 C242 436 200 478 150 478 C100 478 58 436 58 386 C58 336 100 294 150 294 C200 294 242 336 242 386 L242 386 Z " />
<glyph glyph-name="cedilla" unicode="&#xb8;" horiz-adv-x="360" d="M304 -108 C304 -57 260 -20 186 -20 C171 -20 143 -20 143 -20 L122 -88 C165 -71 206 -78 206 -111 C206 -124 204 -142 168 -142 C111 -142 86 -127 62 -110 L25 -164 C50 -183 106 -200 172 -200 C256 -200 304 -164 304 -108 L304 -108 Z " />
<glyph glyph-name="onesuperior" unicode="&#xb9;" horiz-adv-x="593" d="M554 334 C554 481 438 601 296 601 C154 601 36 481 36 334 C36 187 154 67 296 67 C438 67 554 187 554 334 L554 334 Z M533 323 L380 246 L330 128 L282 239 L93 255 L226 391 L121 480 L287 426 L332 540 L395 406 L533 323 Z " />
<glyph glyph-name="ordmasculine" unicode="&#xba;" horiz-adv-x="467" d="M378 592 C378 713 335 780 235 780 C142 780 92 720 92 592 C92 467 144 418 235 418 C323 418 378 466 378 592 L378 592 Z M378 334 L378 385 L92 385 L92 334 L378 334 Z M289 594 C289 504 273 476 235 476 C198 476 181 506 181 594 C181 684 190 723 235 723 C277 723 289 685 289 594 L289 594 Z " />
<glyph glyph-name="guillemotright" unicode="&#xbb;" horiz-adv-x="631" d="M577 210 L577 345 L315 516 L315 396 L494 277 L315 157 L315 37 L577 210 Z M311 210 L311 345 L47 516 L47 396 L229 277 L47 157 L47 37 L311 210 Z " />
<glyph glyph-name="onequarter" unicode="&#xbc;" horiz-adv-x="593" d="M554 334 C554 481 438 601 296 601 C154 601 36 481 36 334 C36 187 154 67 296 67 C438 67 554 187 554 334 L554 334 Z M533 323 L380 246 L330 128 L282 239 L93 255 L226 391 L121 480 L287 426 L332 540 L395 406 L533 323 Z " />
<glyph glyph-name="onehalf" unicode="&#xbd;" horiz-adv-x="593" d="M554 334 C554 481 438 601 296 601 C154 601 36 481 36 334 C36 187 154 67 296 67 C438 67 554 187 554 334 L554 334 Z M533 323 L380 246 L330 128 L282 239 L93 255 L226 391 L121 480 L287 426 L332 540 L395 406 L533 323 Z " />
<glyph glyph-name="threequarters" unicode="&#xbe;" horiz-adv-x="593" d="M554 334 C554 481 438 601 296 601 C154 601 36 481 36 334 C36 187 154 67 296 67 C438 67 554 187 554 334 L554 334 Z M533 323 L380 246 L330 128 L282 239 L93 255 L226 391 L121 480 L287 426 L332 540 L395 406 L533 323 Z " />
<glyph glyph-name="questiondown" unicode="&#xbf;" horiz-adv-x="478" d="M421 613 L421 768 L278 768 L278 613 L421 613 Z M448 144 C448 173 446 186 440 203 L334 203 C338 194 340 180 340 162 C340 112 315 85 265 85 C204 85 176 128 176 225 C176 341 188 381 253 381 C305 381 319 343 329 313 L406 313 L406 553 L314 553 L314 437 C294 463 262 488 202 488 C104 488 48 421 48 220 C48 73 109 -12 250 -12 C395 -12 448 59 448 144 L448 144 Z " />
<glyph glyph-name="Agrave" unicode="&#xc0;" horiz-adv-x="628" d="M372 800 L293 912 L117 912 L117 903 L296 800 L372 800 Z M598 0 L395 768 L228 768 L30 0 L153 0 L193 168 L429 168 L470 0 L598 0 Z M400 273 L220 273 L307 647 L400 273 Z " />
<glyph glyph-name="Aacute" unicode="&#xc1;" horiz-adv-x="628" d="M513 903 L513 912 L337 912 L258 800 L334 800 L513 903 Z M598 0 L395 768 L228 768 L30 0 L153 0 L193 168 L429 168 L470 0 L598 0 Z M400 273 L220 273 L307 647 L400 273 Z " />
<glyph glyph-name="Acircumflex" unicode="&#xc2;" horiz-adv-x="628" d="M451 800 L374 912 L242 912 L165 800 L224 800 L308 847 L392 800 L451 800 Z M598 0 L395 768 L228 768 L30 0 L153 0 L193 168 L429 168 L470 0 L598 0 Z M400 273 L220 273 L307 647 L400 273 Z " />
<glyph glyph-name="Atilde" unicode="&#xc3;" horiz-adv-x="628" d="M598 0 L395 768 L228 768 L30 0 L153 0 L193 168 L429 168 L470 0 L598 0 Z M400 273 L220 273 L307 647 L400 273 Z M470 880 C470 897 464 915 457 926 L406 926 C408 922 409 915 409 911 C409 895 398 881 374 881 C356 881 340 889 326 899 C292 922 274 932 232 932 C162 932 146 894 146 852 C146 831 151 817 157 806 L208 806 C207 810 206 815 206 819 C206 834 214 848 241 848 C256 848 269 839 284 829 C310 813 335 800 381 800 C451 800 470 838 470 880 L470 880 Z " />
<glyph glyph-name="Adieresis" unicode="&#xc4;" horiz-adv-x="628" d="M501 800 L501 908 L375 908 L375 800 L501 800 Z M241 800 L241 908 L116 908 L116 800 L241 800 Z M598 0 L395 768 L228 768 L30 0 L153 0 L193 168 L429 168 L470 0 L598 0 Z M400 273 L220 273 L307 647 L400 273 Z " />
<glyph glyph-name="Aring" unicode="&#xc5;" horiz-adv-x="628" d="M598 0 L403 738 C428 763 443 797 443 835 C443 910 382 971 307 971 C232 971 171 910 171 835 C171 794 190 757 219 732 L30 0 L153 0 L193 168 L429 168 L470 0 L598 0 Z M375 835 C375 798 345 768 308 768 C271 768 241 798 241 835 C241 872 271 902 308 902 C345 902 375 872 375 835 L375 835 Z M400 273 L220 273 L307 647 L400 273 Z " />
<glyph glyph-name="AE" unicode="&#xc6;" horiz-adv-x="869" d="M825 0 L825 102 L511 102 L511 344 L775 344 L775 446 L511 446 L511 666 L802 666 L802 768 L311 768 L0 0 L123 0 L188 168 L388 168 L388 0 L825 0 Z M388 273 L230 273 L388 668 L388 273 Z " />
<glyph glyph-name="Ccedilla" unicode="&#xc7;" horiz-adv-x="645" d="M590 310 L463 322 C469 213 475 88 340 88 C236 88 180 144 180 378 C180 612 224 682 334 682 C418 682 467 632 456 476 L585 485 C594 651 549 780 330 780 C142 780 45 668 45 370 C45 84 140 -12 339 -12 C536 -12 606 103 590 310 L590 310 Z M446 -108 C446 -57 401 -25 328 -25 C312 -25 282 -30 282 -30 L264 -88 C307 -71 350 -78 350 -111 C350 -124 345 -147 309 -147 C253 -147 224 -129 203 -110 L173 -159 C195 -179 247 -200 313 -200 C398 -200 446 -164 446 -108 L446 -108 Z " />
<glyph glyph-name="Egrave" unicode="&#xc8;" horiz-adv-x="578" d="M380 800 L301 912 L125 912 L125 903 L304 800 L380 800 Z M535 0 L535 102 L216 102 L216 344 L485 344 L485 446 L216 446 L216 666 L512 666 L512 768 L90 768 L90 0 L535 0 Z " />
<glyph glyph-name="Eacute" unicode="&#xc9;" horiz-adv-x="578" d="M499 903 L499 912 L323 912 L244 800 L320 800 L499 903 Z M535 0 L535 102 L216 102 L216 344 L485 344 L485 446 L216 446 L216 666 L512 666 L512 768 L90 768 L90 0 L535 0 Z " />
<glyph glyph-name="Ecircumflex" unicode="&#xca;" horiz-adv-x="578" d="M452 800 L375 912 L243 912 L166 800 L225 800 L309 847 L393 800 L452 800 Z M535 0 L535 102 L216 102 L216 344 L485 344 L485 446 L216 446 L216 666 L512 666 L512 768 L90 768 L90 0 L535 0 Z " />
<glyph glyph-name="Edieresis" unicode="&#xcb;" horiz-adv-x="578" d="M503 800 L503 908 L377 908 L377 800 L503 800 Z M243 800 L243 908 L118 908 L118 800 L243 800 Z M535 0 L535 102 L216 102 L216 344 L485 344 L485 446 L216 446 L216 666 L512 666 L512 768 L90 768 L90 0 L535 0 Z " />
<glyph glyph-name="Igrave" unicode="&#xcc;" horiz-adv-x="306" d="M216 800 L137 912 L-39 912 L-39 903 L140 800 L216 800 Z M216 0 L216 768 L90 768 L90 0 L216 0 Z " />
<glyph glyph-name="Iacute" unicode="&#xcd;" horiz-adv-x="306" d="M348 903 L348 912 L172 912 L93 800 L169 800 L348 903 Z M216 0 L216 768 L90 768 L90 0 L216 0 Z " />
<glyph glyph-name="Icircumflex" unicode="&#xce;" horiz-adv-x="306" d="M296 800 L219 912 L87 912 L10 800 L69 800 L153 847 L237 800 L296 800 Z M216 0 L216 768 L90 768 L90 0 L216 0 Z " />
<glyph glyph-name="Idieresis" unicode="&#xcf;" horiz-adv-x="306" d="M323 800 L323 908 L204 908 L204 800 L323 800 Z M100 800 L100 908 L-18 908 L-18 800 L100 800 Z M216 0 L216 768 L90 768 L90 0 L216 0 Z " />
<glyph glyph-name="Eth" unicode="&#xd0;" horiz-adv-x="666" d="M621 362 C621 643 505 768 331 768 L90 768 L90 420 L33 420 L33 318 L90 318 L90 0 L323 0 C515 0 621 134 621 362 L621 362 Z M490 380 C490 176 439 102 327 102 L215 102 L215 318 L373 318 L373 420 L215 420 L215 666 L315 666 C416 666 490 600 490 380 L490 380 Z " />
<glyph glyph-name="Ntilde" unicode="&#xd1;" horiz-adv-x="669" d="M579 0 L579 768 L465 768 L465 248 L207 768 L90 768 L90 0 L204 0 L204 498 L462 0 L579 0 Z M498 880 C498 897 492 915 485 926 L434 926 C436 922 437 915 437 911 C437 895 426 881 402 881 C384 881 368 889 354 899 C320 922 302 932 260 932 C190 932 174 894 174 852 C174 831 179 817 185 806 L236 806 C235 810 234 815 234 819 C234 834 242 848 269 848 C284 848 297 839 312 829 C338 813 363 800 409 800 C479 800 498 838 498 880 L498 880 Z " />
<glyph glyph-name="Ograve" unicode="&#xd2;" horiz-adv-x="685" d="M401 800 L322 912 L146 912 L146 903 L325 800 L401 800 Z M640 385 C640 676 515 780 342 780 C165 780 45 675 45 385 C45 81 153 -12 342 -12 C527 -12 640 77 640 385 L640 385 Z M506 383 C506 136 435 87 342 87 C238 87 179 135 179 383 C179 625 242 683 342 683 C433 683 506 627 506 383 L506 383 Z " />
<glyph glyph-name="Oacute" unicode="&#xd3;" horiz-adv-x="685" d="M534 903 L534 912 L358 912 L279 800 L355 800 L534 903 Z M640 385 C640 676 515 780 342 780 C165 780 45 675 45 385 C45 81 153 -12 342 -12 C527 -12 640 77 640 385 L640 385 Z M506 383 C506 136 435 87 342 87 C238 87 179 135 179 383 C179 625 242 683 342 683 C433 683 506 627 506 383 L506 383 Z " />
<glyph glyph-name="Ocircumflex" unicode="&#xd4;" horiz-adv-x="685" d="M485 800 L408 912 L276 912 L199 800 L258 800 L342 847 L426 800 L485 800 Z M640 385 C640 676 515 780 342 780 C165 780 45 675 45 385 C45 81 153 -12 342 -12 C527 -12 640 77 640 385 L640 385 Z M506 383 C506 136 435 87 342 87 C238 87 179 135 179 383 C179 625 242 683 342 683 C433 683 506 627 506 383 L506 383 Z " />
<glyph glyph-name="Otilde" unicode="&#xd5;" horiz-adv-x="685" d="M640 385 C640 676 515 780 342 780 C165 780 45 675 45 385 C45 81 153 -12 342 -12 C527 -12 640 77 640 385 L640 385 Z M506 383 C506 136 435 87 342 87 C238 87 179 135 179 383 C179 625 242 683 342 683 C433 683 506 627 506 383 L506 383 Z M501 881 C501 898 495 916 488 927 L437 927 C439 923 440 916 440 912 C440 896 429 882 405 882 C387 882 371 890 357 900 C323 923 305 933 263 933 C193 933 177 895 177 853 C177 832 182 818 188 807 L239 807 C238 811 237 816 237 820 C237 835 245 849 272 849 C287 849 300 840 315 830 C341 814 366 801 412 801 C482 801 501 839 501 881 L501 881 Z " />
<glyph glyph-name="Odieresis" unicode="&#xd6;" horiz-adv-x="685" d="M534 800 L534 908 L408 908 L408 800 L534 800 Z M274 800 L274 908 L149 908 L149 800 L274 800 Z M640 385 C640 676 515 780 342 780 C165 780 45 675 45 385 C45 81 153 -12 342 -12 C527 -12 640 77 640 385 L640 385 Z M506 383 C506 136 435 87 342 87 C238 87 179 135 179 383 C179 625 242 683 342 683 C433 683 506 627 506 383 L506 383 Z " />
<glyph glyph-name="multiply" unicode="&#xd7;" horiz-adv-x="593" d="M554 334 C554 481 438 601 296 601 C154 601 36 481 36 334 C36 187 154 67 296 67 C438 67 554 187 554 334 L554 334 Z M533 323 L380 246 L330 128 L282 239 L93 255 L226 391 L121 480 L287 426 L332 540 L395 406 L533 323 Z " />
<glyph glyph-name="Oslash" unicode="&#xd8;" horiz-adv-x="685" d="M640 385 C640 524 612 619 564 681 L630 780 L568 780 L528 720 C478 762 415 780 342 780 C165 780 45 683 45 385 C45 240 69 146 113 85 L50 -12 L116 -12 L152 43 C198 7 264 -12 342 -12 C527 -12 640 69 640 385 L640 385 Z M462 618 L195 209 C184 252 179 308 179 383 C179 625 242 683 342 683 C390 683 432 668 462 618 L462 618 Z M506 383 C506 136 435 87 342 87 C288 87 247 100 219 146 L487 559 C499 515 506 458 506 383 L506 383 Z " />
<glyph glyph-name="Ugrave" unicode="&#xd9;" horiz-adv-x="671" d="M432 800 L353 912 L177 912 L177 903 L356 800 L432 800 Z M587 228 L587 768 L466 768 L466 215 C466 149 447 89 337 89 C240 89 208 143 208 215 L208 768 L84 768 L84 228 C84 74 142 -12 337 -12 C546 -12 587 86 587 228 L587 228 Z " />
<glyph glyph-name="Uacute" unicode="&#xda;" horiz-adv-x="671" d="M522 903 L522 912 L346 912 L267 800 L343 800 L522 903 Z M587 228 L587 768 L466 768 L466 215 C466 149 447 89 337 89 C240 89 208 143 208 215 L208 768 L84 768 L84 228 C84 74 142 -12 337 -12 C546 -12 587 86 587 228 L587 228 Z " />
<glyph glyph-name="Ucircumflex" unicode="&#xdb;" horiz-adv-x="671" d="M483 800 L406 912 L274 912 L197 800 L256 800 L340 847 L424 800 L483 800 Z M587 228 L587 768 L466 768 L466 215 C466 149 447 89 337 89 C240 89 208 143 208 215 L208 768 L84 768 L84 228 C84 74 142 -12 337 -12 C546 -12 587 86 587 228 L587 228 Z " />
<glyph glyph-name="Udieresis" unicode="&#xdc;" horiz-adv-x="671" d="M532 800 L532 908 L406 908 L406 800 L532 800 Z M272 800 L272 908 L147 908 L147 800 L272 800 Z M587 228 L587 768 L466 768 L466 215 C466 149 447 89 337 89 C240 89 208 143 208 215 L208 768 L84 768 L84 228 C84 74 142 -12 337 -12 C546 -12 587 86 587 228 L587 228 Z " />
<glyph glyph-name="Yacute" unicode="&#xdd;" horiz-adv-x="602" d="M577 768 L459 768 L307 421 L159 768 L25 768 L238 300 L238 0 L364 0 L364 300 L577 768 Z M484 915 L484 926 L308 926 L229 801 L305 801 L484 915 Z " />
<glyph glyph-name="Thorn" unicode="&#xde;" horiz-adv-x="610" d="M574 379 C574 557 474 617 309 617 L216 617 L216 768 L90 768 L90 0 L216 0 L216 143 L326 143 C477 143 574 204 574 379 L574 379 Z M440 379 C440 287 389 242 334 242 L216 242 L216 518 L331 518 C392 518 440 470 440 379 L440 379 Z " />
<glyph glyph-name="germandbls" unicode="&#xdf;" horiz-adv-x="524" d="M491 217 C491 341 436 406 339 411 L339 416 C435 418 465 506 465 580 C465 665 425 780 270 780 C115 780 66 714 66 574 L66 0 L186 0 L186 600 C186 656 206 691 260 691 C306 691 330 653 330 568 C330 538 324 470 247 464 L247 345 C326 345 367 295 367 221 C367 110 318 90 247 90 L247 0 L271 0 C426 0 491 67 491 217 L491 217 Z " />
<glyph glyph-name="agrave" unicode="&#xe0;" horiz-adv-x="589" d="M570 18 L570 75 C570 75 559 75 554 75 C503 75 496 92 496 123 L496 419 C496 538 416 592 278 592 C135 592 57 535 57 448 C57 420 60 407 66 384 L179 391 C174 408 170 418 170 438 C170 473 186 510 272 510 C349 510 382 472 382 400 C373 371 300 349 194 323 C108 302 36 253 36 161 C36 58 88 -12 208 -12 C280 -12 348 13 384 78 C393 21 419 -7 467 -7 C512 -7 544 5 570 18 L570 18 Z M382 309 C382 309 378 218 377 200 C372 121 324 79 267 74 C191 67 158 106 158 156 C158 213 197 244 290 265 C325 273 370 290 382 309 L382 309 Z M366 626 L287 751 L111 751 L111 740 L290 626 L366 626 Z " />
<glyph glyph-name="aacute" unicode="&#xe1;" horiz-adv-x="589" d="M570 18 L570 75 C570 75 559 75 554 75 C503 75 496 92 496 123 L496 419 C496 538 416 592 278 592 C135 592 57 535 57 448 C57 420 60 407 66 384 L179 391 C174 408 170 418 170 438 C170 473 186 510 272 510 C349 510 382 472 382 400 C373 371 300 349 194 323 C108 302 36 253 36 161 C36 58 88 -12 208 -12 C280 -12 348 13 384 78 C393 21 419 -7 467 -7 C512 -7 544 5 570 18 L570 18 Z M382 309 C382 309 378 218 377 200 C372 121 324 79 267 74 C191 67 158 106 158 156 C158 213 197 244 290 265 C325 273 370 290 382 309 L382 309 Z M458 740 L458 751 L282 751 L203 626 L279 626 L458 740 Z " />
<glyph glyph-name="acircumflex" unicode="&#xe2;" horiz-adv-x="589" d="M570 18 L570 75 C570 75 559 75 554 75 C503 75 496 92 496 123 L496 419 C496 538 416 592 278 592 C135 592 57 535 57 448 C57 420 60 407 66 384 L179 391 C174 408 170 418 170 438 C170 473 186 510 272 510 C349 510 382 472 382 400 C373 371 300 349 194 323 C108 302 36 253 36 161 C36 58 88 -12 208 -12 C280 -12 348 13 384 78 C393 21 419 -7 467 -7 C512 -7 544 5 570 18 L570 18 Z M382 309 C382 309 378 218 377 200 C372 121 324 79 267 74 C191 67 158 106 158 156 C158 213 197 244 290 265 C325 273 370 290 382 309 L382 309 Z M423 626 L346 751 L214 751 L137 626 L196 626 L280 678 L364 626 L423 626 Z " />
<glyph glyph-name="atilde" unicode="&#xe3;" horiz-adv-x="589" d="M570 18 L570 75 C570 75 559 75 554 75 C503 75 496 92 496 123 L496 419 C496 538 416 592 278 592 C135 592 57 535 57 448 C57 420 60 407 66 384 L179 391 C174 408 170 418 170 438 C170 473 186 510 272 510 C349 510 382 472 382 400 C373 371 300 349 194 323 C108 302 36 253 36 161 C36 58 88 -12 208 -12 C280 -12 348 13 384 78 C393 21 419 -7 467 -7 C512 -7 544 5 570 18 L570 18 Z M382 309 C382 309 378 218 377 200 C372 121 324 79 267 74 C191 67 158 106 158 156 C158 213 197 244 290 265 C325 273 370 290 382 309 L382 309 Z M444 705 C444 722 438 740 431 751 L380 751 C382 747 383 740 383 736 C383 720 372 706 348 706 C330 706 314 714 300 724 C266 747 248 757 206 757 C136 757 120 719 120 677 C120 656 125 642 131 631 L182 631 C181 635 180 640 180 644 C180 659 188 673 215 673 C230 673 243 664 258 654 C284 638 309 625 355 625 C425 625 444 663 444 705 L444 705 Z " />
<glyph glyph-name="adieresis" unicode="&#xe4;" horiz-adv-x="589" d="M570 18 L570 75 C570 75 559 75 554 75 C503 75 496 92 496 123 L496 419 C496 538 416 592 278 592 C135 592 57 535 57 448 C57 420 60 407 66 384 L179 391 C174 408 170 418 170 438 C170 473 186 510 272 510 C349 510 382 472 382 400 C373 371 300 349 194 323 C108 302 36 253 36 161 C36 58 88 -12 208 -12 C280 -12 348 13 384 78 C393 21 419 -7 467 -7 C512 -7 544 5 570 18 L570 18 Z M382 309 C382 309 378 218 377 200 C372 121 324 79 267 74 C191 67 158 106 158 156 C158 213 197 244 290 265 C325 273 370 290 382 309 L382 309 Z M470 626 L470 746 L344 746 L344 626 L470 626 Z M210 626 L210 746 L85 746 L85 626 L210 626 Z " />
<glyph glyph-name="aring" unicode="&#xe5;" horiz-adv-x="589" d="M398 748 C398 815 343 870 276 870 C209 870 154 815 154 748 C154 681 209 626 276 626 C343 626 398 681 398 748 L398 748 Z M570 18 L570 75 C570 75 559 75 554 75 C503 75 496 92 496 123 L496 419 C496 538 416 592 278 592 C135 592 57 535 57 448 C57 420 60 407 66 384 L179 391 C174 408 170 418 170 438 C170 473 186 510 272 510 C349 510 382 472 382 400 C373 371 300 349 194 323 C108 302 36 253 36 161 C36 58 88 -12 208 -12 C280 -12 348 13 384 78 C393 21 419 -7 467 -7 C512 -7 544 5 570 18 L570 18 Z M382 309 C382 309 378 218 377 200 C372 121 324 79 267 74 C191 67 158 106 158 156 C158 213 197 244 290 265 C325 273 370 290 382 309 L382 309 Z M337 748 C337 715 310 688 277 688 C244 688 217 715 217 748 C217 781 244 808 277 808 C310 808 337 781 337 748 L337 748 Z " />
<glyph glyph-name="ae" unicode="&#xe6;" horiz-adv-x="882" d="M840 151 C841 168 841 177 839 188 L725 198 C725 198 726 184 726 175 C724 119 702 82 619 82 C534 82 498 135 499 262 L834 262 C835 276 835 294 835 314 C835 330 834 347 833 365 C822 517 742 592 617 592 C537 592 495 568 461 539 C432 564 401 593 278 592 C135 591 57 535 57 448 C57 420 60 407 66 384 L179 391 C175 408 170 418 170 438 C170 473 189 510 275 510 C366 510 386 473 386 400 C377 371 300 349 194 323 C108 302 36 253 36 161 C36 58 88 -12 208 -12 C302 -12 389 21 423 80 C458 29 520 -12 619 -12 C765 -12 832 55 840 151 L840 151 Z M722 338 L499 338 C503 451 542 497 615 497 C672 497 708 462 718 393 C721 375 722 351 722 338 L722 338 Z M389 200 C391 125 324 79 267 74 C191 67 161 106 161 156 C161 213 197 244 290 265 C325 273 374 296 386 315 L389 200 Z " />
<glyph glyph-name="ccedilla" unicode="&#xe7;" horiz-adv-x="549" d="M500 162 C500 193 497 217 492 236 L385 242 C386 233 388 217 388 204 C388 115 355 85 283 85 C195 85 167 127 167 301 C167 447 201 500 284 500 C337 500 377 468 377 392 C377 377 376 368 374 358 L487 362 C490 375 490 391 490 410 C490 512 434 592 291 592 C139 592 44 509 44 266 C44 62 116 -12 282 -12 C432 -12 500 76 500 162 L500 162 Z M408 -108 C408 -57 364 -20 290 -20 C275 -20 247 -20 247 -20 L226 -88 C269 -71 310 -78 310 -111 C310 -124 308 -142 272 -142 C215 -142 190 -127 166 -110 L129 -164 C154 -183 210 -200 276 -200 C360 -200 408 -164 408 -108 L408 -108 Z " />
<glyph glyph-name="egrave" unicode="&#xe8;" horiz-adv-x="547" d="M506 151 C507 168 507 177 505 188 L394 198 C394 198 394 184 393 175 C390 122 368 80 285 80 C204 80 163 140 164 262 L498 262 C499 279 500 298 500 319 C500 333 500 349 499 365 C488 517 409 592 283 592 C138 592 44 500 44 279 C44 51 122 -12 285 -12 C431 -12 498 55 506 151 L506 151 Z M387 338 L164 338 C168 451 208 497 281 497 C338 497 375 462 385 393 C388 375 388 351 387 338 L387 338 Z M368 626 L289 751 L113 751 L113 740 L292 626 L368 626 Z " />
<glyph glyph-name="eacute" unicode="&#xe9;" horiz-adv-x="547" d="M506 151 C507 168 507 177 505 188 L394 198 C394 198 394 184 393 175 C390 122 368 80 285 80 C204 80 163 140 164 262 L498 262 C499 279 500 298 500 319 C500 333 500 349 499 365 C488 517 409 592 283 592 C138 592 44 500 44 279 C44 51 122 -12 285 -12 C431 -12 498 55 506 151 L506 151 Z M387 338 L164 338 C168 451 208 497 281 497 C338 497 375 462 385 393 C388 375 388 351 387 338 L387 338 Z M465 740 L465 751 L289 751 L210 626 L286 626 L465 740 Z " />
<glyph glyph-name="ecircumflex" unicode="&#xea;" horiz-adv-x="547" d="M506 151 C507 168 507 177 505 188 L394 198 C394 198 394 184 393 175 C390 122 368 80 285 80 C204 80 163 140 164 262 L498 262 C499 279 500 298 500 319 C500 333 500 349 499 365 C488 517 409 592 283 592 C138 592 44 500 44 279 C44 51 122 -12 285 -12 C431 -12 498 55 506 151 L506 151 Z M387 338 L164 338 C168 451 208 497 281 497 C338 497 375 462 385 393 C388 375 388 351 387 338 L387 338 Z M423 626 L346 751 L214 751 L137 626 L196 626 L280 678 L364 626 L423 626 Z " />
<glyph glyph-name="edieresis" unicode="&#xeb;" horiz-adv-x="547" d="M506 151 C507 168 507 177 505 188 L394 198 C394 198 394 184 393 175 C390 122 368 80 285 80 C204 80 163 140 164 262 L498 262 C499 279 500 298 500 319 C500 333 500 349 499 365 C488 517 409 592 283 592 C138 592 44 500 44 279 C44 51 122 -12 285 -12 C431 -12 498 55 506 151 L506 151 Z M387 338 L164 338 C168 451 208 497 281 497 C338 497 375 462 385 393 C388 375 388 351 387 338 L387 338 Z M473 626 L473 746 L347 746 L347 626 L473 626 Z M213 626 L213 746 L88 746 L88 626 L213 626 Z " />
<glyph glyph-name="igrave" unicode="&#xec;" horiz-adv-x="254" d="M188 0 L188 574 L66 574 L66 0 L188 0 Z M196 626 L117 751 L-59 751 L-59 740 L120 626 L196 626 Z " />
<glyph glyph-name="iacute" unicode="&#xed;" horiz-adv-x="254" d="M188 0 L188 574 L66 574 L66 0 L188 0 Z M317 740 L317 751 L141 751 L62 626 L138 626 L317 740 Z " />
<glyph glyph-name="icircumflex" unicode="&#xee;" horiz-adv-x="254" d="M188 0 L188 574 L66 574 L66 0 L188 0 Z M271 626 L194 751 L62 751 L-15 626 L44 626 L128 678 L212 626 L271 626 Z " />
<glyph glyph-name="idieresis" unicode="&#xef;" horiz-adv-x="254" d="M281 626 L281 746 L167 746 L167 626 L281 626 Z M85 626 L85 746 L-26 746 L-26 626 L85 626 Z M188 0 L188 574 L66 574 L66 0 L188 0 Z " />
<glyph glyph-name="eth" unicode="&#xf0;" horiz-adv-x="574" d="M530 270 C530 447 505 579 458 668 C494 688 518 715 518 745 C518 769 500 798 475 808 L431 783 C440 778 447 763 447 753 C447 742 441 731 421 724 C378 776 323 802 258 802 C171 802 118 777 88 752 L145 675 C176 704 198 713 248 713 C261 713 273 710 283 705 C246 684 230 659 230 633 C230 609 249 578 273 570 L317 595 C309 600 301 615 301 624 C301 636 309 651 335 656 C359 619 373 572 377 534 C352 544 316 556 287 556 C128 556 44 460 44 270 C44 76 127 -12 287 -12 C439 -12 530 72 530 270 L530 270 Z M407 270 C407 139 372 85 287 85 C202 85 167 140 167 270 C167 415 204 460 287 460 C368 460 407 414 407 270 L407 270 Z " />
<glyph glyph-name="ntilde" unicode="&#xf1;" horiz-adv-x="593" d="M528 0 L528 441 C528 539 473 585 372 585 C274 585 210 532 185 446 L185 574 L66 574 L66 0 L186 0 L186 318 C186 427 256 487 310 487 C376 487 408 461 408 370 L408 0 L528 0 Z M462 705 C462 722 456 740 449 751 L398 751 C400 747 401 740 401 736 C401 720 390 706 366 706 C348 706 332 714 318 724 C284 747 266 757 224 757 C154 757 138 719 138 677 C138 656 143 642 149 631 L200 631 C199 635 198 640 198 644 C198 659 206 673 233 673 C248 673 261 664 276 654 C302 638 327 625 373 625 C443 625 462 663 462 705 L462 705 Z " />
<glyph glyph-name="ograve" unicode="&#xf2;" horiz-adv-x="574" d="M530 278 C530 481 449 592 287 592 C128 592 44 492 44 278 C44 70 127 -12 287 -12 C439 -12 530 68 530 278 L530 278 Z M407 282 C407 140 372 85 287 85 C202 85 167 137 167 282 C167 441 204 500 287 500 C368 500 407 441 407 282 L407 282 Z M372 626 L293 751 L117 751 L117 740 L296 626 L372 626 Z " />
<glyph glyph-name="oacute" unicode="&#xf3;" horiz-adv-x="574" d="M530 278 C530 481 449 592 287 592 C128 592 44 492 44 278 C44 70 127 -12 287 -12 C439 -12 530 68 530 278 L530 278 Z M407 282 C407 140 372 85 287 85 C202 85 167 137 167 282 C167 441 204 500 287 500 C368 500 407 441 407 282 L407 282 Z M461 740 L461 751 L285 751 L206 626 L282 626 L461 740 Z " />
<glyph glyph-name="ocircumflex" unicode="&#xf4;" horiz-adv-x="574" d="M530 278 C530 481 449 592 287 592 C128 592 44 492 44 278 C44 70 127 -12 287 -12 C439 -12 530 68 530 278 L530 278 Z M407 282 C407 140 372 85 287 85 C202 85 167 137 167 282 C167 441 204 500 287 500 C368 500 407 441 407 282 L407 282 Z M426 626 L349 751 L217 751 L140 626 L199 626 L283 678 L367 626 L426 626 Z " />
<glyph glyph-name="otilde" unicode="&#xf5;" horiz-adv-x="574" d="M530 278 C530 481 449 592 287 592 C128 592 44 492 44 278 C44 70 127 -12 287 -12 C439 -12 530 68 530 278 L530 278 Z M407 282 C407 140 372 85 287 85 C202 85 167 137 167 282 C167 441 204 500 287 500 C368 500 407 441 407 282 L407 282 Z M444 705 C444 722 438 740 431 751 L380 751 C382 747 383 740 383 736 C383 720 372 706 348 706 C330 706 314 714 300 724 C266 747 248 757 206 757 C136 757 120 719 120 677 C120 656 125 642 131 631 L182 631 C181 635 180 640 180 644 C180 659 188 673 215 673 C230 673 243 664 258 654 C284 638 309 625 355 625 C425 625 444 663 444 705 L444 705 Z " />
<glyph glyph-name="odieresis" unicode="&#xf6;" horiz-adv-x="574" d="M530 278 C530 481 449 592 287 592 C128 592 44 492 44 278 C44 70 127 -12 287 -12 C439 -12 530 68 530 278 L530 278 Z M407 282 C407 140 372 85 287 85 C202 85 167 137 167 282 C167 441 204 500 287 500 C368 500 407 441 407 282 L407 282 Z M475 626 L475 746 L349 746 L349 626 L475 626 Z M215 626 L215 746 L90 746 L90 626 L215 626 Z " />
<glyph glyph-name="divide" unicode="&#xf7;" horiz-adv-x="593" d="M554 334 C554 481 438 601 296 601 C154 601 36 481 36 334 C36 187 154 67 296 67 C438 67 554 187 554 334 L554 334 Z M533 323 L380 246 L330 128 L282 239 L93 255 L226 391 L121 480 L287 426 L332 540 L395 406 L533 323 Z " />
<glyph glyph-name="oslash" unicode="&#xf8;" horiz-adv-x="574" d="M530 278 C530 382 509 462 466 515 L518 591 L461 591 L432 549 C395 577 346 592 287 592 C128 592 44 492 44 278 C44 181 62 111 98 65 L40 -19 L100 -19 L133 30 C172 1 223 -12 287 -12 C439 -12 530 68 530 278 L530 278 Z M372 462 L174 176 C167 204 164 239 164 282 C164 441 204 503 287 503 C323 503 352 491 372 462 L372 462 Z M410 282 C410 140 372 82 287 82 C247 82 217 94 197 122 L395 412 C405 379 410 336 410 282 L410 282 Z " />
<glyph glyph-name="ugrave" unicode="&#xf9;" horiz-adv-x="593" d="M527 0 L527 574 L407 574 C407 574 407 283 407 256 C407 165 352 87 283 87 C205 87 185 127 185 204 L185 574 L65 574 L65 146 C65 48 125 -12 226 -12 C324 -12 373 40 408 116 L408 0 L527 0 Z M382 626 L303 751 L127 751 L127 740 L306 626 L382 626 Z " />
<glyph glyph-name="uacute" unicode="&#xfa;" horiz-adv-x="593" d="M527 0 L527 574 L407 574 C407 574 407 283 407 256 C407 165 352 87 283 87 C205 87 185 127 185 204 L185 574 L65 574 L65 146 C65 48 125 -12 226 -12 C324 -12 373 40 408 116 L408 0 L527 0 Z M483 740 L483 751 L307 751 L228 626 L304 626 L483 740 Z " />
<glyph glyph-name="ucircumflex" unicode="&#xfb;" horiz-adv-x="593" d="M527 0 L527 574 L407 574 C407 574 407 283 407 256 C407 165 352 87 283 87 C205 87 185 127 185 204 L185 574 L65 574 L65 146 C65 48 125 -12 226 -12 C324 -12 373 40 408 116 L408 0 L527 0 Z M435 626 L358 751 L226 751 L149 626 L208 626 L292 678 L376 626 L435 626 Z " />
<glyph glyph-name="udieresis" unicode="&#xfc;" horiz-adv-x="593" d="M527 0 L527 574 L407 574 C407 574 407 283 407 256 C407 165 352 87 283 87 C205 87 185 127 185 204 L185 574 L65 574 L65 146 C65 48 125 -12 226 -12 C324 -12 373 40 408 116 L408 0 L527 0 Z M483 626 L483 746 L357 746 L357 626 L483 626 Z M223 626 L223 746 L98 746 L98 626 L223 626 Z " />
<glyph glyph-name="yacute" unicode="&#xfd;" horiz-adv-x="568" d="M543 574 L429 574 L289 124 L153 574 L25 574 L219 -13 C205 -67 182 -96 147 -96 C118 -96 97 -83 97 -58 C97 -45 99 -30 102 -19 L-3 -19 C-6 -34 -9 -45 -9 -59 C-9 -132 35 -180 143 -180 C237 -180 313 -130 354 -5 L543 574 Z M463 740 L463 751 L287 751 L208 626 L284 626 L463 740 Z " />
<glyph glyph-name="thorn" unicode="&#xfe;" horiz-adv-x="599" d="M555 289 C555 527 450 586 345 586 C271 586 210 544 184 465 L184 768 L66 768 L66 -164 L185 -164 L185 81 C209 38 256 -7 336 -7 C462 -7 555 69 555 289 L555 289 Z M432 287 C432 112 368 85 308 85 C238 85 185 126 185 288 C185 426 245 489 307 489 C378 489 432 439 432 287 L432 287 Z " />
<glyph glyph-name="ydieresis" unicode="&#xff;" horiz-adv-x="568" d="M543 574 L429 574 L289 124 L153 574 L25 574 L219 -13 C205 -67 182 -96 147 -96 C118 -96 97 -83 97 -58 C97 -45 99 -30 102 -19 L-3 -19 C-6 -34 -9 -45 -9 -59 C-9 -132 35 -180 143 -180 C237 -180 313 -130 354 -5 L543 574 Z M474 626 L474 746 L348 746 L348 626 L474 626 Z M214 626 L214 746 L89 746 L89 626 L214 626 Z " />
<glyph glyph-name="dotlessi" unicode="&#x131;" horiz-adv-x="254" d="M188 0 L188 574 L66 574 L66 0 L188 0 Z " />
<glyph glyph-name="Lslash" unicode="&#x141;" horiz-adv-x="528" d="M498 0 L498 102 L216 102 L216 288 L414 460 L355 530 L216 409 L216 768 L90 768 L90 300 L-8 215 L51 145 L90 179 L90 0 L498 0 Z " />
<glyph glyph-name="lslash" unicode="&#x142;" horiz-adv-x="254" d="M307 419 L248 489 L189 438 L189 768 L67 768 L67 334 L-48 235 L11 165 L67 213 L67 0 L189 0 L189 318 L307 419 Z " />
<glyph glyph-name="OE" unicode="&#x152;" horiz-adv-x="995" d="M951 0 L951 102 L632 102 L632 344 L901 344 L901 446 L632 446 L632 666 L928 666 L928 768 L511 768 L511 694 C494 726 430 775 342 775 C165 775 45 683 45 385 C45 93 153 -8 342 -8 C416 -8 482 23 511 73 L511 0 L951 0 Z M508 184 C476 121 418 87 349 87 C245 87 179 147 179 383 C179 625 243 683 343 683 C416 683 479 644 508 586 L508 184 Z " />
<glyph glyph-name="oe" unicode="&#x153;" horiz-adv-x="900" d="M859 151 C860 168 860 177 858 188 L747 198 C747 198 747 184 746 175 C739 113 718 80 635 80 C560 80 518 136 517 262 L851 262 C852 278 853 299 853 323 C853 336 853 351 852 365 C841 517 767 592 633 592 C552 592 494 559 458 515 C425 565 377 592 283 592 C128 592 44 492 44 278 C44 70 123 -12 277 -12 C362 -12 410 13 448 57 C492 9 544 -12 635 -12 C781 -12 851 52 859 151 L859 151 Z M740 338 L517 338 C521 451 558 497 631 497 C688 497 728 463 738 393 C741 375 740 351 740 338 L740 338 Z M399 282 C399 132 369 85 284 85 C203 85 167 136 167 282 C167 449 201 497 284 497 C365 497 399 449 399 282 L399 282 Z " />
<glyph glyph-name="Scaron" unicode="&#x160;" horiz-adv-x="576" d="M540 227 C540 318 494 381 395 425 L280 476 C185 518 172 540 172 592 C172 646 204 686 273 686 C348 686 381 647 381 575 C381 552 377 536 373 523 L490 527 C495 544 502 568 502 595 C502 705 414 780 284 780 C125 780 50 689 50 564 C50 478 104 417 175 387 L278 344 C388 298 411 258 411 205 C411 124 370 85 285 85 C213 85 167 113 167 201 C167 225 170 245 176 263 L54 258 C45 233 41 209 41 178 C41 60 125 -12 284 -12 C457 -12 540 68 540 227 L540 227 Z M426 925 L367 925 L283 873 L199 925 L140 925 L217 800 L349 800 L426 925 Z " />
<glyph glyph-name="scaron" unicode="&#x161;" horiz-adv-x="526" d="M492 170 C492 253 437 307 337 338 L252 364 C181 386 161 402 161 435 C161 465 189 504 253 504 C319 504 351 474 351 439 C351 425 347 411 344 401 L460 409 C464 420 468 432 468 450 C468 528 391 592 250 592 C128 592 43 526 43 423 C43 333 93 298 175 272 L255 247 C356 215 367 185 367 155 C367 104 331 76 259 76 C183 76 152 114 152 161 C152 173 155 186 158 199 L50 206 C43 186 36 160 36 135 C36 53 114 -12 259 -12 C417 -12 492 62 492 170 L492 170 Z M391 751 L332 751 L248 699 L164 751 L105 751 L182 626 L314 626 L391 751 Z " />
<glyph glyph-name="Ydieresis" unicode="&#x178;" horiz-adv-x="602" d="M498 800 L498 908 L372 908 L372 800 L498 800 Z M238 800 L238 908 L113 908 L113 800 L238 800 Z M577 768 L459 768 L307 421 L159 768 L25 768 L238 300 L238 0 L364 0 L364 300 L577 768 Z " />
<glyph glyph-name="Zcaron" unicode="&#x17d;" horiz-adv-x="592" d="M529 0 L529 104 L178 104 L529 643 L529 768 L75 768 L75 664 L396 664 L52 131 L52 0 L529 0 Z M457 925 L398 925 L314 873 L230 925 L171 925 L248 800 L380 800 L457 925 Z " />
<glyph glyph-name="zcaron" unicode="&#x17e;" horiz-adv-x="521" d="M472 0 L472 98 L171 98 L472 455 L472 574 L57 574 L57 476 L344 476 L43 112 L43 0 L472 0 Z M428 751 L369 751 L285 699 L201 751 L142 751 L219 626 L351 626 L428 751 Z " />
<glyph glyph-name="florin" unicode="&#x192;" horiz-adv-x="385" d="M391 682 C391 744 343 780 243 780 C146 780 102 720 102 632 C102 609 104 530 104 506 L12 506 L12 427 L104 427 C104 258 109 142 109 17 C109 -70 96 -87 67 -87 C43 -87 30 -74 30 -43 C30 -32 31 -19 33 -9 L-54 -7 C-60 -19 -66 -43 -66 -58 C-66 -138 -17 -169 80 -169 C186 -169 225 -123 223 -16 L216 427 L340 427 L340 506 L214 506 C214 523 212 574 212 614 C212 631 212 646 213 656 C218 680 234 695 258 695 C285 695 299 681 299 658 C299 643 297 634 295 627 L384 623 C388 640 391 659 391 682 L391 682 Z " />
<glyph glyph-name="circumflex" unicode="&#x2c6;" horiz-adv-x="360" d="M323 626 L246 751 L114 751 L37 626 L96 626 L180 678 L264 626 L323 626 Z " />
<glyph glyph-name="caron" unicode="&#x2c7;" horiz-adv-x="360" d="M327 750 L268 750 L184 698 L100 750 L41 750 L118 625 L250 625 L327 750 Z " />
<glyph glyph-name="breve" unicode="&#x2d8;" horiz-adv-x="360" d="M338 742 L262 742 C264 713 231 683 178 683 C123 683 93 713 94 742 L16 742 C16 659 48 613 178 613 C306 613 338 659 338 742 L338 742 Z " />
<glyph glyph-name="dotaccent" unicode="&#x2d9;" horiz-adv-x="360" d="M252 621 L252 751 L109 751 L109 621 L252 621 Z " />
<glyph glyph-name="ring" unicode="&#x2da;" horiz-adv-x="360" d="M314 732 C314 807 253 868 178 868 C103 868 42 807 42 732 C42 657 103 596 178 596 C253 596 314 657 314 732 L314 732 Z M245 732 C245 695 215 663 178 663 C141 663 111 695 111 732 C111 769 141 801 178 801 C215 801 245 769 245 732 L245 732 Z " />
<glyph glyph-name="ogonek" unicode="&#x2db;" horiz-adv-x="360" d="M294 -134 C294 -121 292 -108 289 -98 L208 -98 C212 -108 215 -116 215 -129 C215 -149 205 -161 182 -161 C162 -161 149 -146 149 -116 C149 -67 197 -27 257 0 C229 -1 185 0 185 0 C100 -33 63 -75 63 -125 C63 -173 93 -203 174 -203 C261 -203 294 -178 294 -134 L294 -134 Z " />
<glyph glyph-name="tilde" unicode="&#x2dc;" horiz-adv-x="360" d="M342 703 C342 720 336 738 329 749 L278 749 C280 745 281 738 281 734 C281 718 270 704 246 704 C228 704 212 712 198 722 C164 745 146 755 104 755 C34 755 18 717 18 675 C18 654 23 640 29 629 L80 629 C79 633 78 638 78 642 C78 657 86 671 113 671 C128 671 141 662 156 652 C182 636 207 623 253 623 C323 623 342 661 342 703 L342 703 Z " />
<glyph glyph-name="hungarumlaut" unicode="&#x2dd;" horiz-adv-x="360" d="M374 740 L374 751 L243 751 L172 625 L232 625 L374 740 Z M204 740 L204 751 L73 751 L2 625 L62 625 L204 740 Z " />
<glyph glyph-name="pi" unicode="&#x3c0;" horiz-adv-x="796" d="M751 397 C751 592 593 752 399 752 C203 752 45 592 45 397 C45 203 204 42 399 42 C592 42 751 203 751 397 L751 397 Z M688 397 C688 233 559 100 399 100 C237 100 107 233 107 397 C107 558 238 695 399 695 C559 695 688 558 688 397 L688 397 Z M554 463 C554 564 498 595 430 595 L286 595 L286 188 L365 188 L365 337 L430 337 C508 337 554 389 554 463 L554 463 Z M471 462 C471 420 455 392 425 392 L365 392 L365 539 L424 539 C447 539 471 516 471 462 L471 462 Z " />
<glyph glyph-name="endash" unicode="&#x2013;" horiz-adv-x="600" d="M550 287 L550 384 L50 384 L50 287 L550 287 Z " />
<glyph glyph-name="emdash" unicode="&#x2014;" horiz-adv-x="1034" d="M984 287 L984 384 L50 384 L50 287 L984 287 Z " />
<glyph glyph-name="quoteleft" unicode="&#x2018;" horiz-adv-x="286" d="M241 736 L230 781 C193 776 157 767 135 751 C95 723 73 689 73 627 L73 481 L217 481 L217 627 L151 627 C144 657 151 687 173 708 C190 721 217 730 241 736 L241 736 Z " />
<glyph glyph-name="quoteright" unicode="&#x2019;" horiz-adv-x="286" d="M219 622 L219 768 L75 768 L75 622 L141 622 C148 592 141 562 119 541 C102 528 75 519 51 513 L62 468 C99 473 135 482 157 498 C197 526 219 560 219 622 L219 622 Z " />
<glyph glyph-name="quotesinglbase" unicode="&#x201a;" horiz-adv-x="286" d="M219 0 L219 146 L75 146 L75 0 L141 0 C148 -30 141 -60 119 -81 C102 -94 75 -103 51 -109 L62 -154 C99 -149 135 -140 157 -124 C197 -96 219 -62 219 0 L219 0 Z " />
<glyph glyph-name="quotedblleft" unicode="&#x201c;" horiz-adv-x="502" d="M459 736 L448 781 C411 776 375 767 352 751 C313 724 290 689 290 627 L290 481 L434 481 L434 627 L369 627 C361 657 368 688 391 708 C406 722 434 730 459 736 L459 736 Z M241 736 L230 781 C193 776 157 767 135 751 C95 723 73 689 73 627 L73 481 L217 481 L217 627 L151 627 C144 657 151 687 173 708 C190 721 217 730 241 736 L241 736 Z " />
<glyph glyph-name="quotedblright" unicode="&#x201d;" horiz-adv-x="502" d="M437 622 L437 768 L293 768 L293 622 L359 622 C366 592 359 562 337 541 C320 528 293 519 269 513 L280 468 C317 473 353 482 375 498 C415 526 437 560 437 622 L437 622 Z M220 622 L220 768 L76 768 L76 622 L141 622 C149 592 142 561 119 541 C104 527 76 519 51 513 L62 468 C99 473 135 482 158 498 C197 525 220 560 220 622 L220 622 Z " />
<glyph glyph-name="quotedblbase" unicode="&#x201e;" horiz-adv-x="502" d="M435 0 L435 146 L291 146 L291 0 L357 0 C364 -30 357 -60 335 -81 C318 -94 291 -103 267 -109 L278 -154 C315 -149 351 -140 373 -124 C413 -96 435 -62 435 0 L435 0 Z M218 0 L218 146 L74 146 L74 0 L139 0 C147 -30 140 -61 117 -81 C102 -95 74 -103 49 -109 L60 -154 C97 -149 133 -140 156 -124 C195 -97 218 -62 218 0 L218 0 Z " />
<glyph glyph-name="dagger" unicode="&#x2020;" horiz-adv-x="516" d="M454 515 L454 611 L316 611 L316 768 L200 768 L200 611 L62 611 L62 515 L200 515 L200 -88 L316 -88 L316 515 L454 515 Z " />
<glyph glyph-name="daggerdbl" unicode="&#x2021;" horiz-adv-x="516" d="M454 117 L454 213 L316 213 L316 515 L454 515 L454 611 L316 611 L316 768 L200 768 L200 611 L62 611 L62 515 L200 515 L200 213 L62 213 L62 117 L200 117 L200 -88 L316 -88 L316 117 L454 117 Z " />
<glyph glyph-name="bullet" unicode="&#x2022;" horiz-adv-x="593" d="M554 334 C554 481 438 601 296 601 C154 601 36 481 36 334 C36 187 154 67 296 67 C438 67 554 187 554 334 L554 334 Z " />
<glyph glyph-name="ellipsis" unicode="&#x2026;" horiz-adv-x="797" d="M741 0 L741 155 L592 155 L592 0 L741 0 Z M472 0 L472 155 L323 155 L323 0 L472 0 Z M204 0 L204 155 L55 155 L55 0 L204 0 Z " />
<glyph glyph-name="perthousand" unicode="&#x2030;" horiz-adv-x="1402" d="M1362 213 C1362 399 1319 479 1171 479 C1037 479 979 385 979 211 C979 55 1045 -12 1171 -12 C1297 -12 1362 63 1362 213 L1362 213 Z M928 213 C928 399 885 479 737 479 C603 479 545 385 545 211 C545 55 611 -12 737 -12 C863 -12 928 63 928 213 L928 213 Z M698 780 L636 780 L281 -16 L343 -16 L698 780 Z M432 514 C432 700 381 780 241 780 C91 780 49 697 49 512 C49 356 115 289 241 289 C367 289 432 364 432 514 L432 514 Z M1248 228 C1248 113 1225 82 1171 82 C1117 82 1095 113 1095 228 C1095 357 1115 388 1173 388 C1225 388 1248 360 1248 228 L1248 228 Z M814 228 C814 113 791 82 737 82 C683 82 661 113 661 228 C661 357 681 388 739 388 C791 388 814 360 814 228 L814 228 Z M318 529 C318 414 295 383 241 383 C187 383 165 414 165 529 C165 658 185 689 243 689 C295 689 318 661 318 529 L318 529 Z " />
<glyph glyph-name="guilsinglleft" unicode="&#x2039;" horiz-adv-x="366" d="M317 36 L317 156 L138 276 L317 395 L317 515 L55 344 L55 209 L317 36 Z " />
<glyph glyph-name="guilsinglright" unicode="&#x203a;" horiz-adv-x="366" d="M311 210 L311 345 L47 516 L47 396 L229 277 L47 157 L47 37 L311 210 Z " />
<glyph glyph-name="fraction" unicode="&#x2044;" horiz-adv-x="310" d="M525 780 L435 780 L-187 -14 L-99 -14 L525 780 Z " />
<glyph glyph-name="trademark" unicode="&#x2122;" horiz-adv-x="592" d="M531 537 L531 768 L449 768 L402 591 L354 768 L272 768 L272 537 L321 537 L321 718 L372 537 L427 537 L475 718 L475 537 L531 537 Z M239 722 L239 768 L49 768 L49 722 L112 722 L112 537 L174 537 L174 722 L239 722 Z " />
<glyph glyph-name="Omega" unicode="&#x2126;" horiz-adv-x="593" d="M554 334 C554 481 438 601 296 601 C154 601 36 481 36 334 C36 187 154 67 296 67 C438 67 554 187 554 334 L554 334 Z M533 323 L380 246 L330 128 L282 239 L93 255 L226 391 L121 480 L287 426 L332 540 L395 406 L533 323 Z " />
<glyph glyph-name="partialdiff" unicode="&#x2202;" horiz-adv-x="593" d="M554 334 C554 481 438 601 296 601 C154 601 36 481 36 334 C36 187 154 67 296 67 C438 67 554 187 554 334 L554 334 Z M533 323 L380 246 L330 128 L282 239 L93 255 L226 391 L121 480 L287 426 L332 540 L395 406 L533 323 Z " />
<glyph glyph-name="Delta" unicode="&#x2206;" horiz-adv-x="593" d="M554 334 C554 481 438 601 296 601 C154 601 36 481 36 334 C36 187 154 67 296 67 C438 67 554 187 554 334 L554 334 Z M533 323 L380 246 L330 128 L282 239 L93 255 L226 391 L121 480 L287 426 L332 540 L395 406 L533 323 Z " />
<glyph glyph-name="product" unicode="&#x220f;" horiz-adv-x="593" d="M554 334 C554 481 438 601 296 601 C154 601 36 481 36 334 C36 187 154 67 296 67 C438 67 554 187 554 334 L554 334 Z M533 323 L380 246 L330 128 L282 239 L93 255 L226 391 L121 480 L287 426 L332 540 L395 406 L533 323 Z " />
<glyph glyph-name="summation" unicode="&#x2211;" horiz-adv-x="593" d="M554 334 C554 481 438 601 296 601 C154 601 36 481 36 334 C36 187 154 67 296 67 C438 67 554 187 554 334 L554 334 Z M533 323 L380 246 L330 128 L282 239 L93 255 L226 391 L121 480 L287 426 L332 540 L395 406 L533 323 Z " />
<glyph glyph-name="minus" unicode="&#x2212;" horiz-adv-x="593" d="M554 334 C554 481 438 601 296 601 C154 601 36 481 36 334 C36 187 154 67 296 67 C438 67 554 187 554 334 L554 334 Z M533 323 L380 246 L330 128 L282 239 L93 255 L226 391 L121 480 L287 426 L332 540 L395 406 L533 323 Z " />
<glyph glyph-name="radical" unicode="&#x221a;" horiz-adv-x="750" d="M750 931 L629 876 C540 738 478 610 422 470 C367 333 310 154 272 -26 L124 321 L0 262 L232 -144 L326 -102 C359 66 414 242 498 452 C556 598 664 819 750 931 L750 931 Z " />
<glyph glyph-name="infinity" unicode="&#x221e;" horiz-adv-x="988" d="M924 629 L924 768 L798 768 L798 629 L924 629 Z M922 0 L922 574 L800 574 L800 0 L922 0 Z M758 692 C758 754 706 790 610 790 C513 790 469 730 469 642 C469 619 470 598 471 574 L379 574 L379 495 L471 495 L471 0 L589 0 L589 495 L707 495 L707 574 L580 574 C578 587 578 604 578 623 C578 640 577 657 580 672 C584 696 601 711 625 711 C652 711 666 697 666 674 C666 659 664 647 662 637 L751 633 C755 650 758 669 758 692 L758 692 Z M391 692 C391 754 339 790 243 790 C146 790 102 730 102 642 C102 619 103 598 104 574 L12 574 L12 495 L104 495 L104 0 L222 0 L222 495 L340 495 L340 574 L213 574 C211 587 211 604 211 623 C211 640 210 657 213 672 C217 696 234 711 258 711 C285 711 299 697 299 674 C299 659 297 646 295 637 L384 633 C388 650 391 669 391 692 L391 692 Z " />
<glyph glyph-name="integral" unicode="&#x222b;" horiz-adv-x="593" d="M554 334 C554 481 438 601 296 601 C154 601 36 481 36 334 C36 187 154 67 296 67 C438 67 554 187 554 334 L554 334 Z M533 323 L380 246 L330 128 L282 239 L93 255 L226 391 L121 480 L287 426 L332 540 L395 406 L533 323 Z " />
<glyph glyph-name="approxequal" unicode="&#x2248;" horiz-adv-x="593" d="M554 334 C554 481 438 601 296 601 C154 601 36 481 36 334 C36 187 154 67 296 67 C438 67 554 187 554 334 L554 334 Z M533 323 L380 246 L330 128 L282 239 L93 255 L226 391 L121 480 L287 426 L332 540 L395 406 L533 323 Z " />
<glyph glyph-name="notequal" unicode="&#x2260;" horiz-adv-x="734" d="M758 692 C758 754 706 790 610 790 C513 790 469 730 469 642 C469 619 470 598 471 574 L379 574 L379 495 L471 495 L471 0 L589 0 L589 495 L707 495 L707 574 L580 574 C578 586 577 604 577 622 C577 639 577 657 580 672 C584 696 601 711 625 711 C652 711 666 697 666 674 C666 659 664 647 662 637 L751 633 C755 650 758 669 758 692 L758 692 Z M391 692 C391 754 339 790 243 790 C146 790 102 730 102 642 C102 619 103 598 104 574 L12 574 L12 495 L104 495 L104 0 L222 0 L222 495 L340 495 L340 574 L213 574 C211 586 210 603 210 621 C210 638 210 656 213 672 C217 696 234 711 258 711 C285 711 299 697 299 674 C299 659 297 647 295 637 L384 633 C388 650 391 669 391 692 L391 692 Z " />
<glyph glyph-name="lessequal" unicode="&#x2264;" horiz-adv-x="593" d="M554 334 C554 481 438 601 296 601 C154 601 36 481 36 334 C36 187 154 67 296 67 C438 67 554 187 554 334 L554 334 Z M533 323 L380 246 L330 128 L282 239 L93 255 L226 391 L121 480 L287 426 L332 540 L395 406 L533 323 Z " />
<glyph glyph-name="greaterequal" unicode="&#x2265;" horiz-adv-x="593" d="M554 334 C554 481 438 601 296 601 C154 601 36 481 36 334 C36 187 154 67 296 67 C438 67 554 187 554 334 L554 334 Z M533 323 L380 246 L330 128 L282 239 L93 255 L226 391 L121 480 L287 426 L332 540 L395 406 L533 323 Z " />
<glyph glyph-name="lozenge" unicode="&#x25ca;" horiz-adv-x="593" d="M554 334 C554 481 438 601 296 601 C154 601 36 481 36 334 C36 187 154 67 296 67 C438 67 554 187 554 334 L554 334 Z M533 323 L380 246 L330 128 L282 239 L93 255 L226 391 L121 480 L287 426 L332 540 L395 406 L533 323 Z " />
<glyph glyph-name="fi" unicode="&#xfb01;" horiz-adv-x="621" d="M557 629 L557 768 L431 768 L431 629 L557 629 Z M555 0 L555 574 L433 574 L433 0 L555 0 Z M391 692 C391 754 339 790 243 790 C146 790 102 730 102 642 C102 619 103 598 104 574 L12 574 L12 495 L104 495 L104 0 L222 0 L222 495 L340 495 L340 574 L213 574 C211 587 211 604 211 623 C211 640 210 657 213 672 C217 696 234 711 258 711 C285 711 299 697 299 674 C299 659 297 646 295 637 L384 633 C388 650 391 669 391 692 L391 692 Z " />
<glyph glyph-name="fl" unicode="&#xfb02;" horiz-adv-x="621" d="M555 0 L555 768 L433 768 L433 0 L555 0 Z M391 692 C391 754 339 790 243 790 C146 790 102 730 102 642 C102 619 103 598 104 574 L12 574 L12 495 L104 495 L104 0 L222 0 L222 495 L340 495 L340 574 L213 574 C211 586 211 604 211 622 C211 639 210 657 213 672 C217 696 234 711 258 711 C285 711 299 697 299 674 C299 659 297 647 295 637 L384 633 C388 650 391 669 391 692 L391 692 Z " />
</font>
</svg>
