<?xml version="1.0" encoding="UTF-8"?>
<svg xmlns="http://www.w3.org/2000/svg" xmlns:xlink="http://www.w3.org/1999/xlink" version="1.2" >
<font id="BureauGrotesque-FiveOne">
<font-face  font-family="BureauGrotesque" units-per-em="1000" ascent="750" descent="-250" font-style="normal" font-weight="400" font-stretch="normal" cap-height="750" x-height="500" underline-position="-123" underline-thickness="20" />
<missing-glyph  horiz-adv-x="500" d="" />
<glyph glyph-name="CR" unicode="&#xd;" horiz-adv-x="250" d="" />
<glyph glyph-name="space" unicode="&#x20;" horiz-adv-x="240" d="" />
<glyph glyph-name="exclam" unicode="&#x21;" horiz-adv-x="179" d="M139 768 L40 768 L62 246 L117 246 L139 768 Z M140 0 L140 115 L39 115 L39 0 L140 0 Z " />
<glyph glyph-name="quotedbl" unicode="&#x22;" horiz-adv-x="288" d="M238 768 L173 768 L178 545 L233 545 L238 768 Z M115 768 L50 768 L55 545 L110 545 L115 768 Z " />
<glyph glyph-name="numbersign" unicode="&#x23;" horiz-adv-x="576" d="M539 476 L539 545 L443 545 L466 768 L411 768 L381 545 L239 545 L262 768 L207 768 L177 545 L64 545 L64 476 L169 476 L148 292 L36 292 L36 223 L140 223 L117 0 L172 0 L202 223 L344 223 L324 0 L376 0 L406 223 L513 223 L513 292 L414 292 L435 476 L539 476 Z M373 476 L352 292 L210 292 L231 476 L373 476 Z " />
<glyph glyph-name="dollar" unicode="&#x24;" horiz-adv-x="576" d="M529 204 C529 331 444 386 324 431 L324 704 C390 699 447 644 447 588 C447 565 444 545 438 531 L514 531 C520 548 523 569 523 587 C523 683 450 764 324 771 L324 826 L259 826 L259 771 C134 764 62 677 62 568 C62 478 122 425 223 386 L259 372 L259 61 C182 67 126 102 126 191 C126 212 133 246 138 266 L68 267 C59 242 53 194 53 166 C53 52 146 2 259 -5 L259 -90 L324 -90 L324 -5 C432 10 529 59 529 204 L529 204 Z M259 453 C186 484 138 510 138 581 C138 644 178 694 259 704 L259 453 Z M454 197 C454 110 387 71 324 64 L324 348 C400 323 454 277 454 197 L454 197 Z " />
<glyph glyph-name="percent" unicode="&#x25;" horiz-adv-x="696" d="M304 579 C304 698 279 780 171 780 C63 780 38 699 38 579 C38 460 63 379 171 379 C279 379 304 460 304 579 L304 579 Z M591 768 L527 768 L105 0 L170 0 L591 768 Z M658 188 C658 307 633 389 525 389 C417 389 392 308 392 188 C392 69 417 -12 525 -12 C633 -12 658 69 658 188 L658 188 Z M232 579 C232 473 228 438 171 438 C114 438 110 473 110 579 C110 685 114 720 171 720 C228 720 232 685 232 579 L232 579 Z M586 188 C586 82 582 47 525 47 C468 47 464 82 464 188 C464 294 468 329 525 329 C582 329 586 294 586 188 L586 188 Z " />
<glyph glyph-name="ampersand" unicode="&#x26;" horiz-adv-x="752" d="M722 146 C722 183 710 246 710 246 L651 246 C657 219 659 198 659 169 C659 79 625 60 584 60 C547 60 522 85 498 128 C567 221 600 354 613 433 L543 446 C535 351 490 226 456 181 C398 262 350 356 307 429 C401 471 468 530 468 624 C468 716 410 780 321 780 C229 780 163 708 163 614 C163 541 181 499 211 451 C123 399 39 309 39 202 C39 82 119 -12 257 -12 C336 -12 386 20 444 70 C481 19 517 -8 581 -8 C682 -8 722 62 722 146 L722 146 Z M393 637 C393 561 352 529 275 486 C248 531 238 565 238 617 C238 663 268 713 320 713 C365 713 393 682 393 637 L393 637 Z M407 123 C366 83 323 53 262 53 C174 53 119 127 119 210 C119 290 181 356 245 391 C294 301 347 208 407 123 L407 123 Z " />
<glyph glyph-name="quotesingle" unicode="&#x27;" horiz-adv-x="169" d="M119 768 L50 768 L55 545 L114 545 L119 768 Z " />
<glyph glyph-name="parenleft" unicode="&#x28;" horiz-adv-x="361" d="M307 -112 C179 -12 137 153 137 339 C137 525 179 691 307 791 L236 791 C108 691 54 525 54 339 C54 151 108 -12 236 -112 L307 -112 Z " />
<glyph glyph-name="parenright" unicode="&#x29;" horiz-adv-x="361" d="M307 339 C307 525 253 691 125 791 L54 791 C182 691 224 525 224 339 C224 153 182 -12 54 -112 L125 -112 C253 -12 307 151 307 339 L307 339 Z " />
<glyph glyph-name="asterisk" unicode="&#x2a;" horiz-adv-x="394" d="M345 576 L257 627 L345 678 L317 728 L227 676 L227 780 L170 780 L170 677 L80 729 L51 679 L141 627 L51 575 L80 525 L170 577 L170 474 L227 474 L227 578 L317 526 L345 576 Z " />
<glyph glyph-name="plus" unicode="&#x2b;" horiz-adv-x="660" d="M580 340 L580 409 L365 409 L365 621 L295 621 L295 409 L80 409 L80 340 L295 340 L295 128 L365 128 L365 340 L580 340 Z " />
<glyph glyph-name="comma" unicode="&#x2c;" horiz-adv-x="259" d="M186 0 L186 124 L73 124 L73 0 L125 0 C131 -26 125 -54 106 -72 C93 -83 72 -91 51 -97 L60 -137 C91 -133 119 -124 138 -110 C170 -85 186 -55 186 0 L186 0 Z " />
<glyph glyph-name="hyphen" unicode="&#x2d;" horiz-adv-x="305" d="M255 290 L255 367 L50 367 L50 290 L255 290 Z " />
<glyph glyph-name="period" unicode="&#x2e;" horiz-adv-x="259" d="M189 0 L189 126 L70 126 L70 0 L189 0 Z " />
<glyph glyph-name="slash" unicode="&#x2f;" horiz-adv-x="450" d="M450 768 L380 768 L0 0 L70 0 L450 768 Z " />
<glyph glyph-name="zero" unicode="0" horiz-adv-x="517" d="M473 350 C473 640 426 780 258 780 C92 780 44 637 44 350 C44 130 92 -12 258 -12 C429 -12 473 144 473 350 L473 350 Z M389 376 C389 222 386 57 258 57 C131 57 127 220 127 376 C127 547 139 711 258 711 C379 711 389 549 389 376 L389 376 Z " />
<glyph glyph-name="one" unicode="1" horiz-adv-x="315" d="M254 0 L254 768 L203 768 C189 730 172 705 138 682 C100 657 61 645 17 643 L17 594 C35 592 61 592 86 592 C106 592 145 599 172 611 L172 0 L254 0 Z " />
<glyph glyph-name="two" unicode="2" horiz-adv-x="500" d="M460 542 C460 715 390 780 251 780 C122 780 59 677 59 565 C59 527 72 448 72 448 L152 448 C152 448 142 512 142 546 C142 649 178 711 252 711 C328 711 375 667 375 540 C375 406 232 246 85 119 L55 93 L55 0 L452 0 L452 75 L142 75 L176 105 C273 191 460 379 460 542 L460 542 Z " />
<glyph glyph-name="three" unicode="3" horiz-adv-x="500" d="M455 253 C455 405 379 470 320 470 C290 470 276 467 259 457 L425 691 L425 768 L72 768 L72 691 L339 691 L146 412 L195 369 C222 394 233 410 275 410 C331 410 372 364 372 246 C372 111 318 53 247 53 C176 53 132 103 132 191 C132 222 137 239 141 254 L66 249 C57 221 54 202 54 164 C54 52 130 -12 240 -12 C368 -12 455 59 455 253 L455 253 Z " />
<glyph glyph-name="four" unicode="4" horiz-adv-x="500" d="M477 184 L477 256 L383 256 L383 768 L275 768 L36 271 L36 184 L302 184 L302 0 L383 0 L383 184 L477 184 Z M302 256 L100 256 L302 674 L302 256 Z " />
<glyph glyph-name="five" unicode="5" horiz-adv-x="480" d="M438 257 C438 452 374 535 273 535 C194 535 164 503 135 463 L148 697 L390 697 L393 768 L81 768 L62 351 L126 335 C146 419 180 465 246 465 C319 465 352 410 352 258 C352 130 323 56 233 56 C163 56 128 95 128 186 C128 204 130 224 132 235 L58 236 C53 215 51 192 51 166 C51 48 119 -12 239 -12 C364 -12 438 68 438 257 L438 257 Z " />
<glyph glyph-name="six" unicode="6" horiz-adv-x="500" d="M461 236 C461 425 377 485 278 485 C201 485 146 442 123 381 C122 400 125 480 127 507 C136 626 172 713 255 713 C325 713 358 671 360 612 C360 601 360 593 358 584 L440 590 C441 600 441 619 440 632 C433 716 372 780 257 780 C114 780 47 679 47 365 C47 60 127 -12 256 -12 C378 -12 461 76 461 236 L461 236 Z M378 238 C378 110 325 57 255 57 C189 57 129 115 129 232 C129 335 180 414 255 414 C349 414 378 366 378 238 L378 238 Z " />
<glyph glyph-name="seven" unicode="7" horiz-adv-x="476" d="M438 681 L438 768 L29 768 L32 693 L381 693 C261 603 148 346 148 78 C148 48 150 21 151 0 L248 0 C245 27 239 108 239 172 C239 337 303 544 438 681 L438 681 Z " />
<glyph glyph-name="eight" unicode="8" horiz-adv-x="500" d="M456 203 C456 311 406 379 351 395 C397 411 445 462 445 557 C445 701 382 780 256 780 C139 780 70 704 70 556 C70 462 114 410 156 395 C112 377 54 313 54 203 C54 58 132 -12 255 -12 C383 -12 456 74 456 203 L456 203 Z M368 570 C368 470 326 429 255 429 C195 429 147 478 147 572 C147 660 178 715 255 715 C333 715 368 666 368 570 L368 570 Z M376 207 C376 100 336 53 255 53 C178 53 134 97 134 207 C134 296 175 361 255 361 C339 361 376 298 376 207 L376 207 Z " />
<glyph glyph-name="nine" unicode="9" horiz-adv-x="500" d="M456 403 C456 714 376 780 246 780 C123 780 41 697 41 532 C41 343 123 283 223 283 C301 283 349 328 374 389 C375 370 374 310 372 281 C361 120 324 55 247 55 C170 55 143 110 143 179 C143 190 143 197 145 206 L63 201 C62 192 59 178 59 159 C59 57 124 -12 245 -12 C388 -12 456 97 456 403 L456 403 Z M369 536 C369 433 315 353 240 353 C166 353 125 395 125 530 C125 647 162 712 247 712 C325 712 369 639 369 536 L369 536 Z " />
<glyph glyph-name="colon" unicode="&#x3a;" horiz-adv-x="259" d="M187 404 L187 528 L72 528 L72 404 L187 404 Z M187 0 L187 124 L72 124 L72 0 L187 0 Z " />
<glyph glyph-name="semicolon" unicode="&#x3b;" horiz-adv-x="259" d="M187 404 L187 528 L72 528 L72 404 L187 404 Z M186 0 L186 124 L73 124 L73 0 L125 0 C131 -26 125 -54 106 -72 C93 -83 72 -91 51 -97 L60 -137 C91 -133 119 -124 138 -110 C170 -85 186 -55 186 0 L186 0 Z " />
<glyph glyph-name="less" unicode="&#x3c;" horiz-adv-x="437" d="M368 124 L368 192 L112 322 L368 452 L368 520 L62 370 L62 274 L368 124 Z " />
<glyph glyph-name="equal" unicode="&#x3d;" horiz-adv-x="508" d="M453 378 L453 448 L55 448 L55 378 L453 378 Z M453 186 L453 256 L55 256 L55 186 L453 186 Z " />
<glyph glyph-name="greater" unicode="&#x3e;" horiz-adv-x="437" d="M376 274 L376 370 L70 520 L70 452 L326 322 L70 192 L70 124 L376 274 Z " />
<glyph glyph-name="question" unicode="&#x3f;" horiz-adv-x="462" d="M434 548 C434 695 362 780 239 780 C113 780 66 706 66 624 C66 595 70 575 76 558 L148 558 C143 571 138 584 138 608 C138 670 157 709 237 709 C314 709 349 640 349 543 C349 406 328 357 257 357 C189 357 166 418 163 479 L108 479 L108 215 L172 215 C172 215 172 254 172 278 C172 306 167 353 167 353 C181 314 223 294 275 294 C368 294 434 347 434 548 L434 548 Z M196 0 L196 115 L93 115 L93 0 L196 0 Z " />
<glyph glyph-name="at" unicode="&#x40;" horiz-adv-x="842" d="M797 388 C797 616 675 783 433 783 C201 783 45 590 45 311 C45 1 193 -143 432 -143 C551 -143 626 -85 669 -43 L634 -7 C604 -42 523 -97 437 -97 C238 -97 111 41 111 310 C111 553 253 730 424 730 C641 730 733 562 733 384 C733 234 690 127 613 127 C578 127 573 141 573 184 L573 420 C573 549 518 587 415 587 C317 587 261 539 261 464 C261 452 264 433 265 428 L339 433 C337 439 335 448 335 455 C335 491 343 525 413 525 C480 525 504 507 504 391 C486 389 439 385 381 366 C302 340 242 290 242 211 C242 123 294 69 383 69 C427 69 489 92 508 155 C508 106 538 72 592 72 C726 72 797 186 797 388 L797 388 Z M504 252 C504 185 450 135 396 135 C339 135 314 155 314 203 C314 271 371 313 504 333 L504 252 Z " />
<glyph glyph-name="A" unicode="A" horiz-adv-x="602" d="M582 0 L357 768 L234 768 L20 0 L99 0 L149 188 L440 188 L494 0 L582 0 Z M424 255 L166 255 L294 705 L424 255 Z " />
<glyph glyph-name="B" unicode="B" horiz-adv-x="593" d="M547 217 C547 342 484 397 411 403 C481 411 528 457 528 561 C528 696 453 768 308 768 L62 768 L62 0 L340 0 C454 0 547 46 547 217 L547 217 Z M446 558 C446 471 401 437 303 437 L144 437 L144 699 L301 699 C381 699 446 667 446 558 L446 558 Z M465 224 C465 105 410 70 316 70 L144 70 L144 367 L314 367 C422 367 465 311 465 224 L465 224 Z " />
<glyph glyph-name="C" unicode="C" horiz-adv-x="622" d="M564 265 L479 273 C475 152 467 58 332 58 C186 58 132 166 132 378 C132 612 195 712 329 712 C439 712 491 621 478 509 L564 509 C575 641 532 780 325 780 C149 780 45 668 45 370 C45 92 148 -12 331 -12 C498 -12 560 84 564 265 L564 265 Z " />
<glyph glyph-name="D" unicode="D" horiz-adv-x="628" d="M582 370 C582 645 459 768 286 768 L62 768 L62 0 L247 0 C495 0 582 105 582 370 L582 370 Z M500 370 C500 137 421 72 242 72 L144 72 L144 696 L258 696 C422 696 500 585 500 370 L500 370 Z " />
<glyph glyph-name="E" unicode="E" horiz-adv-x="518" d="M487 0 L487 69 L144 69 L144 360 L437 360 L437 429 L144 429 L144 699 L464 699 L464 768 L62 768 L62 0 L487 0 Z " />
<glyph glyph-name="F" unicode="F" horiz-adv-x="481" d="M454 699 L454 768 L62 768 L62 0 L144 0 L144 347 L432 347 L432 416 L144 416 L144 699 L454 699 Z " />
<glyph glyph-name="G" unicode="G" horiz-adv-x="645" d="M590 3 L590 374 L355 374 L355 305 L508 305 C510 288 512 268 512 245 C512 128 467 54 345 54 C196 54 129 140 129 363 C129 593 189 712 333 712 C438 712 502 654 492 512 L578 526 C588 683 507 780 329 780 C158 780 45 659 45 362 C45 76 176 -12 327 -12 C407 -12 470 13 511 68 C521 48 540 -5 540 -5 L590 3 Z " />
<glyph glyph-name="H" unicode="H" horiz-adv-x="620" d="M558 0 L558 768 L476 768 L476 445 L144 445 L144 768 L62 768 L62 0 L144 0 L144 376 L476 376 L476 0 L558 0 Z " />
<glyph glyph-name="I" unicode="I" horiz-adv-x="207" d="M145 0 L145 768 L62 768 L62 0 L145 0 Z " />
<glyph glyph-name="J" unicode="J" horiz-adv-x="429" d="M376 219 L376 768 L294 768 L294 241 C294 102 273 64 197 64 C137 64 106 91 106 160 C106 182 109 212 114 238 L31 234 C26 208 23 183 23 159 C23 45 86 -12 198 -12 C325 -12 376 58 376 219 L376 219 Z " />
<glyph glyph-name="K" unicode="K" horiz-adv-x="562" d="M555 0 L209 394 L523 768 L427 768 L144 428 L144 768 L62 768 L62 0 L144 0 L144 343 L448 0 L555 0 Z " />
<glyph glyph-name="L" unicode="L" horiz-adv-x="459" d="M426 0 L426 70 L144 70 L144 768 L62 768 L62 0 L426 0 Z " />
<glyph glyph-name="M" unicode="M" horiz-adv-x="739" d="M677 0 L677 768 L548 768 L371 146 L194 768 L62 768 L62 0 L140 0 L140 677 L335 0 L404 0 L597 677 L597 0 L677 0 Z " />
<glyph glyph-name="N" unicode="N" horiz-adv-x="612" d="M550 0 L550 768 L476 768 L476 122 L167 768 L62 768 L62 0 L136 0 L136 646 L445 0 L550 0 Z " />
<glyph glyph-name="O" unicode="O" horiz-adv-x="654" d="M609 384 C609 655 507 780 327 780 C148 780 45 657 45 384 C45 105 133 -12 327 -12 C527 -12 609 113 609 384 L609 384 Z M525 384 C525 159 475 56 327 56 C188 56 129 149 129 384 C129 611 200 712 327 712 C457 712 525 607 525 384 L525 384 Z " />
<glyph glyph-name="P" unicode="P" horiz-adv-x="547" d="M515 526 C515 704 417 768 265 768 L62 768 L62 0 L144 0 L144 309 L268 309 C405 309 515 363 515 526 L515 526 Z M433 530 C433 438 381 379 284 379 L144 379 L144 699 L287 699 C379 699 433 627 433 530 L433 530 Z " />
<glyph glyph-name="Q" unicode="Q" horiz-adv-x="654" d="M609 384 C609 654 507 780 327 780 C145 780 45 654 45 384 C45 127 128 4 290 -6 C279 -18 274 -36 274 -52 C274 -135 327 -184 424 -184 C477 -184 519 -154 540 -126 L504 -73 C481 -100 463 -114 425 -114 C372 -114 348 -86 348 -39 C348 -29 353 -15 364 -6 C534 11 609 130 609 384 L609 384 Z M525 384 C525 151 468 58 327 58 C188 58 129 149 129 384 C129 617 202 712 327 712 C457 712 525 611 525 384 L525 384 Z " />
<glyph glyph-name="R" unicode="R" horiz-adv-x="588" d="M548 0 C536 17 530 45 528 86 C527 105 525 143 525 166 C523 309 502 365 413 375 C484 384 533 429 533 541 C533 695 461 768 309 768 L62 768 L62 0 L144 0 L144 337 L319 337 C402 337 441 291 441 218 C441 180 441 114 441 88 C441 46 449 15 460 0 L548 0 Z M449 541 C449 457 418 407 298 407 L144 407 L144 700 L286 700 C400 700 449 649 449 541 L449 541 Z " />
<glyph glyph-name="S" unicode="S" horiz-adv-x="562" d="M515 196 C515 281 476 361 370 408 L255 459 C169 497 136 523 136 592 C136 666 175 712 261 712 C364 712 402 649 402 577 C402 563 399 551 397 540 L475 542 C479 558 481 568 481 595 C481 705 396 780 266 780 C117 780 52 692 52 567 C52 481 101 434 178 401 L271 361 C390 310 432 268 432 194 C432 94 380 59 275 59 C176 59 132 93 132 181 C132 205 135 224 140 242 L60 239 C55 214 50 195 50 164 C50 46 128 -12 272 -12 C423 -12 515 50 515 196 L515 196 Z " />
<glyph glyph-name="T" unicode="T" horiz-adv-x="494" d="M473 697 L473 768 L18 768 L18 697 L206 697 L206 0 L288 0 L288 697 L473 697 Z " />
<glyph glyph-name="U" unicode="U" horiz-adv-x="610" d="M552 250 L552 768 L470 768 L470 211 C470 145 441 59 311 59 C176 59 140 137 140 209 L140 768 L58 768 L58 248 C58 70 116 -12 311 -12 C514 -12 552 92 552 250 L552 250 Z " />
<glyph glyph-name="V" unicode="V" horiz-adv-x="567" d="M547 768 L467 768 L281 121 L108 768 L20 768 L236 0 L317 0 L547 768 Z " />
<glyph glyph-name="W" unicode="W" horiz-adv-x="814" d="M791 768 L713 768 L580 154 L449 768 L368 768 L228 154 L105 768 L20 768 L183 0 L263 0 L405 628 L536 0 L616 0 L791 768 Z " />
<glyph glyph-name="X" unicode="X" horiz-adv-x="586" d="M557 0 L336 399 L532 768 L451 768 L295 477 L135 768 L41 768 L246 401 L29 0 L112 0 L285 323 L463 0 L557 0 Z " />
<glyph glyph-name="Y" unicode="Y" horiz-adv-x="560" d="M548 768 L467 768 L291 402 L102 768 L12 768 L244 322 L244 0 L326 0 L326 322 L548 768 Z " />
<glyph glyph-name="Z" unicode="Z" horiz-adv-x="532" d="M490 0 L490 69 L118 69 L490 676 L490 768 L75 768 L75 699 L412 699 L39 90 L39 0 L490 0 Z " />
<glyph glyph-name="bracketleft" unicode="&#x5b;" horiz-adv-x="260" d="M254 -95 L254 -30 L157 -30 L157 703 L254 703 L254 768 L79 768 L79 -95 L254 -95 Z " />
<glyph glyph-name="backslash" unicode="&#x5c;" horiz-adv-x="450" d="M450 0 L70 768 L0 768 L380 0 L450 0 Z " />
<glyph glyph-name="bracketright" unicode="&#x5d;" horiz-adv-x="260" d="M181 -95 L181 768 L6 768 L6 703 L103 703 L103 -30 L6 -30 L6 -95 L181 -95 Z " />
<glyph glyph-name="asciicircum" unicode="&#x5e;" horiz-adv-x="525" d="M417 573 L296 768 L244 768 L124 573 L187 573 L269 688 L355 573 L417 573 Z " />
<glyph glyph-name="underscore" unicode="&#x5f;" horiz-adv-x="500" d="M500 -199 L500 -130 L0 -130 L0 -199 L500 -199 Z " />
<glyph glyph-name="grave" unicode="&#x60;" horiz-adv-x="540" d="M375 636 L296 766 L182 766 L182 755 L319 636 L375 636 Z " />
<glyph glyph-name="a" unicode="a" horiz-adv-x="500" d="M481 13 L481 61 C481 61 472 61 468 61 C427 61 421 78 421 109 L421 396 C421 547 359 592 238 592 C123 592 61 535 61 448 C61 434 64 412 65 405 L146 412 C144 419 142 429 142 438 C142 480 154 524 235 524 C314 524 344 495 344 360 C324 358 266 353 199 331 C107 301 39 244 39 152 C39 49 97 -12 201 -12 C252 -12 323 11 348 93 C348 27 369 -8 413 -8 C443 -8 465 1 481 13 L481 13 Z M344 200 C344 121 279 61 215 61 C150 61 118 86 118 142 C118 206 153 246 247 277 C275 286 327 294 344 294 C344 294 344 214 344 200 L344 200 Z " />
<glyph glyph-name="b" unicode="b" horiz-adv-x="524" d="M481 274 C481 498 405 584 276 584 C215 584 159 545 138 488 L138 768 L60 768 L60 -2 L94 -2 L134 72 C150 41 201 -12 279 -12 C373 -12 481 55 481 274 L481 274 Z M403 276 C403 115 352 62 276 62 C183 62 138 117 138 286 C138 438 191 512 272 512 C355 512 403 452 403 276 L403 276 Z " />
<glyph glyph-name="c" unicode="c" horiz-adv-x="483" d="M445 162 C445 193 442 214 438 233 L365 237 C368 223 370 208 370 195 C370 106 342 57 258 57 C164 57 123 106 123 301 C123 447 162 521 259 521 C331 521 363 477 363 401 C363 386 362 380 360 373 L433 377 C435 387 437 400 437 419 C437 516 387 592 266 592 C118 592 43 509 43 274 C43 74 117 -12 258 -12 C394 -12 445 76 445 162 L445 162 Z " />
<glyph glyph-name="d" unicode="d" horiz-adv-x="524" d="M464 -1 L464 768 L386 768 L386 499 C360 555 303 582 242 582 C129 582 43 498 43 274 C43 55 134 -10 236 -10 C312 -10 368 27 389 78 L389 -1 L464 -1 Z M386 286 C386 114 332 62 258 62 C173 62 123 115 123 276 C123 449 159 512 245 512 C318 512 386 433 386 286 L386 286 Z " />
<glyph glyph-name="e" unicode="e" horiz-adv-x="508" d="M459 312 C459 332 458 350 457 365 C447 517 378 592 260 592 C120 592 43 513 43 279 C43 66 110 -12 262 -12 C382 -12 448 47 455 143 C456 160 456 169 454 180 L377 188 C377 188 378 174 378 165 C376 109 354 57 271 57 C175 57 134 103 126 227 C125 242 124 258 124 275 L458 275 C459 287 459 300 459 312 L459 312 Z M377 340 L124 340 C124 455 175 524 259 524 C333 524 364 469 374 400 C376 382 377 353 377 340 L377 340 Z " />
<glyph glyph-name="f" unicode="f" horiz-adv-x="287" d="M322 640 C342 704 319 780 216 780 C121 780 92 720 92 632 L92 574 L7 574 L7 506 L92 506 L92 0 L170 0 L170 506 L279 506 L279 574 L170 574 L170 652 C170 696 188 719 218 719 C262 719 268 687 256 645 L322 640 Z " />
<glyph glyph-name="g" unicode="g" horiz-adv-x="469" d="M455 -10 C455 100 378 142 288 134 L213 127 C142 120 118 136 118 165 C118 190 123 208 174 222 C190 218 218 213 248 213 C349 213 420 290 420 403 C420 479 384 533 345 561 L411 683 L321 683 L306 579 C291 585 269 592 239 592 C123 592 59 517 59 403 C59 336 84 268 133 241 C74 220 49 184 49 141 C49 99 66 65 126 55 C59 36 37 -18 37 -69 C37 -143 93 -188 230 -188 C376 -188 455 -129 455 -10 L455 -10 Z M342 403 C342 318 306 276 239 276 C172 276 137 322 137 403 C137 483 166 530 239 530 C310 530 342 479 342 403 L342 403 Z M389 -22 C389 -90 347 -127 232 -127 C145 -127 104 -96 104 -47 C104 -15 121 18 181 46 C204 51 239 54 272 54 C343 54 389 39 389 -22 L389 -22 Z " />
<glyph glyph-name="h" unicode="h" horiz-adv-x="488" d="M431 0 L431 394 C431 543 360 584 278 584 C207 584 158 551 138 487 L138 768 L60 768 L60 0 L138 0 L138 341 C138 437 176 513 251 513 C322 513 353 482 353 373 L353 0 L431 0 Z " />
<glyph glyph-name="i" unicode="i" horiz-adv-x="198" d="M143 671 L143 768 L55 768 L55 671 L143 671 Z M138 0 L138 574 L60 574 L60 0 L138 0 Z " />
<glyph glyph-name="j" unicode="j" horiz-adv-x="210" d="M155 671 L155 768 L67 768 L67 671 L155 671 Z M150 -27 L150 574 L72 574 C72 574 72 130 72 5 C72 -90 56 -116 15 -116 C-18 -116 -38 -105 -42 -67 C-43 -60 -43 -53 -42 -44 L-108 -50 C-109 -58 -110 -73 -108 -85 C-98 -155 -47 -180 18 -180 C98 -180 150 -135 150 -27 L150 -27 Z " />
<glyph glyph-name="k" unicode="k" horiz-adv-x="444" d="M429 0 L262 336 L409 574 L321 574 L138 269 L138 768 L60 768 L60 0 L138 0 L138 142 L209 258 L336 0 L429 0 Z " />
<glyph glyph-name="l" unicode="l" horiz-adv-x="198" d="M138 0 L138 768 L60 768 L60 0 L138 0 Z " />
<glyph glyph-name="m" unicode="m" horiz-adv-x="768" d="M711 0 L711 394 C711 543 641 584 561 584 C499 584 434 543 414 479 C396 543 354 584 274 584 C212 584 156 551 137 487 L137 574 L60 574 L60 0 L137 0 L137 341 C137 431 174 513 247 513 C317 513 347 482 347 373 L347 0 L424 0 L424 341 C424 433 461 513 535 513 C604 513 634 482 634 373 L634 0 L711 0 Z " />
<glyph glyph-name="n" unicode="n" horiz-adv-x="488" d="M431 0 L431 394 C431 543 360 584 278 584 C215 584 163 551 138 490 L138 574 L60 574 L60 0 L138 0 L138 341 C138 431 176 513 251 513 C322 513 353 482 353 373 L353 0 L431 0 Z " />
<glyph glyph-name="o" unicode="o" horiz-adv-x="528" d="M485 290 C485 505 387 592 264 592 C141 592 43 505 43 290 C43 76 141 -12 264 -12 C387 -12 485 76 485 290 L485 290 Z M407 290 C407 193 384 58 264 58 C144 58 121 193 121 290 C121 388 144 524 264 524 C384 524 407 388 407 290 L407 290 Z " />
<glyph glyph-name="p" unicode="p" horiz-adv-x="524" d="M481 274 C481 504 389 586 276 586 C215 586 158 550 138 481 L138 574 L60 574 L60 -180 L138 -180 L138 70 C154 31 203 -12 279 -12 C373 -12 481 55 481 274 L481 274 Z M400 276 C400 109 348 62 270 62 C190 62 138 124 138 286 C138 419 181 512 269 512 C358 512 400 455 400 276 L400 276 Z " />
<glyph glyph-name="q" unicode="q" horiz-adv-x="524" d="M464 -179 L464 574 L423 574 L389 488 C368 552 303 582 242 582 C129 582 43 498 43 274 C43 55 134 -10 236 -10 C312 -10 370 39 386 78 L386 -179 L464 -179 Z M386 286 C386 116 330 59 250 59 C164 59 124 109 124 276 C124 451 167 512 259 512 C333 512 386 433 386 286 L386 286 Z " />
<glyph glyph-name="r" unicode="r" horiz-adv-x="411" d="M397 459 C401 526 370 586 277 586 C211 586 153 535 136 496 C136 531 136 573 136 573 L60 573 L60 -1 L139 -1 L139 394 C157 468 201 512 246 512 C312 512 320 472 320 437 L397 459 Z " />
<glyph glyph-name="s" unicode="s" horiz-adv-x="455" d="M414 173 C414 254 364 291 278 324 L210 350 C150 373 124 393 124 438 C124 492 159 527 222 527 C283 527 311 493 314 454 C315 441 313 428 313 417 L391 427 C393 435 393 443 393 454 C393 532 331 592 218 592 C114 592 54 526 54 423 C54 341 96 305 163 280 L225 257 C312 225 342 208 342 153 C342 88 297 53 224 53 C147 53 123 86 123 142 C123 154 127 174 130 187 L62 195 C55 175 49 149 49 124 C49 40 103 -12 227 -12 C355 -12 414 52 414 173 L414 173 Z " />
<glyph glyph-name="t" unicode="t" horiz-adv-x="314" d="M292 17 L292 76 C274 69 252 60 230 60 C174 60 167 85 167 141 L167 506 L279 506 L279 574 L167 574 L168 712 L90 712 L91 574 L11 574 L11 506 L89 506 L89 129 C89 19 125 -7 209 -7 C236 -7 271 5 292 17 L292 17 Z " />
<glyph glyph-name="u" unicode="u" horiz-adv-x="488" d="M428 0 L428 574 L350 574 L350 233 C350 147 312 61 237 61 C166 61 135 92 135 201 L135 574 L57 574 L57 180 C57 31 128 -10 210 -10 C273 -10 328 27 350 79 L350 0 L428 0 Z " />
<glyph glyph-name="v" unicode="v" horiz-adv-x="460" d="M445 574 L373 574 L235 81 L98 574 L15 574 L183 0 L282 0 L445 574 Z " />
<glyph glyph-name="w" unicode="w" horiz-adv-x="679" d="M664 574 L587 574 L484 112 L381 574 L305 574 L199 112 L94 574 L15 574 L157 0 L236 0 L339 456 L441 0 L518 0 L664 574 Z " />
<glyph glyph-name="x" unicode="x" horiz-adv-x="466" d="M450 0 L278 301 L432 574 L349 574 L233 367 L123 574 L34 574 L190 301 L16 0 L101 0 L233 232 L360 0 L450 0 Z " />
<glyph glyph-name="y" unicode="y" horiz-adv-x="451" d="M436 574 L361 574 L246 102 L91 574 L11 574 L208 -19 C195 -94 171 -117 136 -117 C108 -117 90 -99 90 -74 C90 -61 91 -46 94 -35 L18 -35 C15 -50 13 -61 13 -75 C13 -148 55 -180 139 -180 C216 -180 262 -141 295 -5 L436 574 Z " />
<glyph glyph-name="z" unicode="z" horiz-adv-x="449" d="M400 0 L400 71 L124 71 L400 523 L400 574 L54 574 L54 506 L302 506 L29 59 L29 0 L400 0 Z " />
<glyph glyph-name="braceleft" unicode="&#x7b;" horiz-adv-x="382" d="M324 -102 L324 -38 L254 -38 C223 -38 215 -13 215 16 C215 96 215 178 215 270 C215 325 195 359 153 359 C203 359 215 387 215 442 C215 494 215 582 215 644 C215 668 225 698 254 698 L324 698 L324 768 L257 768 C162 768 138 715 138 632 C138 597 138 484 138 453 C138 405 134 394 90 394 L60 394 L60 324 L90 324 C127 324 138 312 138 272 C138 203 138 102 138 31 C138 -72 172 -102 257 -102 L324 -102 Z " />
<glyph glyph-name="bar" unicode="&#x7c;" horiz-adv-x="243" d="M157 -200 L157 800 L86 800 L86 -200 L157 -200 Z " />
<glyph glyph-name="braceright" unicode="&#x7d;" horiz-adv-x="382" d="M305 324 L305 394 L275 394 C231 394 227 405 227 453 C227 484 227 597 227 632 C227 715 203 768 108 768 L41 768 L41 698 L111 698 C140 698 150 668 150 644 C150 582 150 494 150 442 C150 387 162 359 212 359 C170 359 150 325 150 270 C150 178 150 96 150 16 C150 -13 142 -38 111 -38 L41 -38 L41 -102 L108 -102 C193 -102 227 -72 227 31 C227 102 227 203 227 272 C227 312 238 324 275 324 L305 324 Z " />
<glyph glyph-name="asciitilde" unicode="&#x7e;" horiz-adv-x="525" d="M419 706 C419 741 415 757 409 771 L369 771 C371 764 372 758 372 746 C372 720 361 697 336 697 C321 697 314 703 299 716 L276 737 C255 757 231 776 191 776 C133 776 112 741 112 681 C112 653 115 634 122 620 L162 620 C160 629 159 639 159 648 C159 676 168 699 194 699 C210 699 222 691 237 676 L259 654 C273 640 299 618 332 618 C391 618 419 644 419 706 L419 706 Z " />
<glyph glyph-name="nbspace" unicode="&#xa0;" horiz-adv-x="120" d="" />
<glyph glyph-name="exclamdown" unicode="&#xa1;" horiz-adv-x="179" d="M140 569 L140 684 L39 684 L39 569 L140 569 Z M139 -84 L117 438 L62 438 L40 -84 L139 -84 Z " />
<glyph glyph-name="cent" unicode="&#xa2;" horiz-adv-x="482" d="M445 280 C445 309 442 329 438 347 L365 350 C368 335 370 322 370 311 C370 237 348 193 286 183 L286 614 C339 605 363 566 363 505 C363 491 362 486 360 478 L433 482 C435 490 437 504 437 522 C437 608 393 676 286 683 L286 738 L234 738 L234 683 C107 671 43 589 43 385 C43 208 109 126 234 117 L234 58 L286 58 L286 117 C401 128 445 205 445 280 L445 280 Z M234 182 C157 190 123 243 123 411 C123 536 155 604 234 615 L234 182 Z " />
<glyph glyph-name="sterling" unicode="&#xa3;" horiz-adv-x="551" d="M531 162 C531 187 526 215 522 231 L454 231 C458 218 462 190 462 166 C462 93 444 60 393 60 C356 60 324 72 284 96 C310 137 326 198 326 251 C326 283 319 310 310 338 L420 338 L420 407 L281 407 C246 472 237 524 237 587 C237 671 278 718 336 718 C395 718 423 685 423 582 C423 560 421 530 417 508 L500 517 C504 538 506 550 506 577 C506 723 445 780 338 780 C214 780 161 700 161 559 C161 500 180 440 198 407 L110 407 L110 338 L237 338 C248 314 257 276 257 242 C257 206 248 162 230 128 C195 153 149 165 120 165 C58 165 27 135 27 78 C27 22 59 -12 115 -12 C159 -12 212 9 246 47 C284 22 323 -12 397 -12 C487 -12 531 28 531 162 L531 162 Z M195 80 C177 61 148 45 121 45 C96 45 81 56 81 77 C81 99 94 109 120 109 C144 109 177 91 195 80 L195 80 Z " />
<glyph glyph-name="currency" unicode="&#xa4;" horiz-adv-x="593" d="M554 334 C554 481 438 601 296 601 C154 601 36 481 36 334 C36 187 154 67 296 67 C438 67 554 187 554 334 L554 334 Z M524 344 L381 272 L375 113 L231 244 L130 162 L177 339 L129 489 L323 455 L348 555 L415 386 L524 344 Z " />
<glyph glyph-name="yen" unicode="&#xa5;" horiz-adv-x="576" d="M556 768 L475 768 L299 401 L110 768 L20 768 L162 496 L56 496 L56 426 L198 426 L242 342 L56 342 L56 272 L252 272 L252 0 L334 0 L334 272 L525 272 L525 342 L344 342 L386 426 L525 426 L525 496 L420 496 L556 768 Z " />
<glyph glyph-name="brokenbar" unicode="&#xa6;" horiz-adv-x="593" d="M554 334 C554 481 438 601 296 601 C154 601 36 481 36 334 C36 187 154 67 296 67 C438 67 554 187 554 334 L554 334 Z M524 344 L381 272 L375 113 L231 244 L130 162 L177 339 L129 489 L323 455 L348 555 L415 386 L524 344 Z " />
<glyph glyph-name="section" unicode="&#xa7;" horiz-adv-x="464" d="M415 92 C415 156 382 186 351 205 C381 226 415 266 415 353 C415 434 360 477 278 508 L210 534 C150 557 125 580 125 625 C125 679 155 714 223 714 C287 714 315 680 318 641 C319 628 318 614 317 604 L392 614 C394 622 394 630 394 641 C394 719 332 779 219 779 C115 779 55 713 55 610 C55 533 88 508 124 486 C83 459 55 419 55 342 C55 258 97 227 165 202 L227 179 C314 147 343 127 343 72 C343 2 302 -28 225 -28 C145 -28 120 5 120 61 C120 73 124 93 127 106 L63 114 C56 94 50 68 50 43 C50 -41 104 -93 228 -93 C356 -93 415 -29 415 92 L415 92 Z M343 338 C343 293 339 261 306 228 C273 241 232 257 200 269 C141 291 125 318 125 369 C125 411 138 443 172 467 L262 433 C303 417 343 386 343 338 L343 338 Z " />
<glyph glyph-name="dieresis" unicode="&#xa8;" horiz-adv-x="540" d="M403 636 L403 741 L309 741 L309 636 L403 636 Z M231 636 L231 741 L137 741 L137 636 L231 636 Z " />
<glyph glyph-name="copyright" unicode="&#xa9;" horiz-adv-x="779" d="M738 397 C739 592 580 752 386 752 C190 752 32 592 32 397 C32 203 191 44 386 44 C579 44 738 203 738 397 L738 397 Z M688 397 C688 226 551 90 385 90 C217 90 82 226 82 397 C82 564 218 706 385 706 C551 706 688 564 688 397 L688 397 Z M502 302 C502 325 500 339 496 359 L432 357 C434 342 436 330 436 317 C436 270 419 242 386 242 C338 242 315 274 315 389 C315 487 329 541 380 541 C420 541 437 517 437 482 C437 468 435 457 432 444 L497 449 C499 461 500 471 500 486 C500 556 466 595 383 595 C282 595 248 542 248 371 C248 227 299 187 382 187 C473 187 502 244 502 302 L502 302 Z " />
<glyph glyph-name="ordfeminine" unicode="&#xaa;" horiz-adv-x="320" d="M319 450 L319 487 C319 487 313 487 309 487 C281 487 282 496 282 515 L282 668 C282 755 236 780 155 780 C78 780 34 747 34 697 C34 681 36 674 39 662 L108 665 C106 673 104 680 104 691 C104 717 118 730 153 730 C206 730 215 715 215 663 C181 652 178 651 130 636 C70 618 22 585 22 532 C22 473 44 432 131 432 C178 432 207 458 217 474 C219 453 236 436 266 436 C286 436 307 442 319 450 L319 450 Z M320 321 L320 372 L1 372 L1 321 L320 321 Z M215 550 C215 514 180 484 140 484 C108 484 90 496 90 526 C90 557 106 577 166 596 C184 602 209 610 215 612 L215 550 Z " />
<glyph glyph-name="guillemotleft" unicode="&#xab;" horiz-adv-x="631" d="M565 36 L565 134 L384 276 L565 417 L565 515 L311 324 L311 229 L565 36 Z M307 36 L307 134 L129 276 L307 417 L307 515 L55 324 L55 229 L307 36 Z " />
<glyph glyph-name="logicalnot" unicode="&#xac;" horiz-adv-x="593" d="M554 334 C554 481 438 601 296 601 C154 601 36 481 36 334 C36 187 154 67 296 67 C438 67 554 187 554 334 L554 334 Z M524 344 L381 272 L375 113 L231 244 L130 162 L177 339 L129 489 L323 455 L348 555 L415 386 L524 344 Z " />
<glyph glyph-name="registered" unicode="&#xae;" horiz-adv-x="779" d="M738 397 C739 592 580 752 386 752 C190 752 32 592 32 397 C32 203 191 44 386 44 C579 44 738 203 738 397 L738 397 Z M688 397 C688 226 551 90 385 90 C217 90 82 226 82 397 C82 564 218 706 385 706 C551 706 688 564 688 397 L688 397 Z M517 188 C514 198 511 217 511 233 C509 319 514 366 440 375 C497 381 515 419 515 468 C515 562 473 595 401 595 L263 595 L263 188 L329 188 L329 348 L394 348 C416 348 443 334 443 306 C443 285 443 250 443 237 C443 212 449 199 452 188 L517 188 Z M448 467 C448 425 433 399 396 399 L329 399 L329 543 L395 543 C431 543 448 521 448 467 L448 467 Z " />
<glyph glyph-name="macron" unicode="&#xaf;" horiz-adv-x="540" d="M399 635 L399 704 L141 704 L141 635 L399 635 Z " />
<glyph glyph-name="degree" unicode="&#xb0;" horiz-adv-x="400" d="M348 632 C348 714 282 780 200 780 C118 780 52 714 52 632 C52 550 118 484 200 484 C282 484 348 550 348 632 L348 632 Z M289 632 C289 582 249 542 199 542 C149 542 109 582 109 632 C109 682 149 722 199 722 C249 722 289 682 289 632 L289 632 Z " />
<glyph glyph-name="plusminus" unicode="&#xb1;" horiz-adv-x="746" d="M686 0 L686 757 L613 757 C591 771 556 780 520 780 C456 780 416 763 387 735 C365 754 321 780 262 780 C143 780 92 719 92 620 L92 574 L7 574 L7 506 L92 506 L92 0 L170 0 L170 506 L350 506 L350 0 L428 0 L428 506 L537 506 L537 574 L428 574 L428 640 C428 695 454 722 526 722 C565 722 595 700 608 686 L608 0 L686 0 Z M357 680 C353 662 350 643 350 620 L350 574 L170 574 L170 640 C170 695 196 722 268 722 C309 722 344 696 357 680 L357 680 Z " />
<glyph glyph-name="twosuperior" unicode="&#xb2;" horiz-adv-x="593" d="M554 334 C554 481 438 601 296 601 C154 601 36 481 36 334 C36 187 154 67 296 67 C438 67 554 187 554 334 L554 334 Z M524 344 L381 272 L375 113 L231 244 L130 162 L177 339 L129 489 L323 455 L348 555 L415 386 L524 344 Z " />
<glyph glyph-name="threesuperior" unicode="&#xb3;" horiz-adv-x="593" d="M554 334 C554 481 438 601 296 601 C154 601 36 481 36 334 C36 187 154 67 296 67 C438 67 554 187 554 334 L554 334 Z M524 344 L381 272 L375 113 L231 244 L130 162 L177 339 L129 489 L323 455 L348 555 L415 386 L524 344 Z " />
<glyph glyph-name="acute" unicode="&#xb4;" horiz-adv-x="540" d="M359 754 L359 765 L245 765 L166 635 L222 635 L359 754 Z " />
<glyph glyph-name="mu" unicode="&#xb5;" horiz-adv-x="593" d="M554 334 C554 481 438 601 296 601 C154 601 36 481 36 334 C36 187 154 67 296 67 C438 67 554 187 554 334 L554 334 Z M524 344 L381 272 L375 113 L231 244 L130 162 L177 339 L129 489 L323 455 L348 555 L415 386 L524 344 Z " />
<glyph glyph-name="paragraph" unicode="&#xb6;" horiz-adv-x="583" d="M488 -47 L488 768 L226 768 C138 768 37 711 37 512 C37 323 138 274 218 274 L291 274 L291 -47 L362 -47 L362 712 L417 712 L417 -47 L488 -47 Z M291 333 L253 333 C211 333 194 378 194 512 C194 676 214 712 255 712 L291 712 L291 333 Z " />
<glyph glyph-name="periodcentered" unicode="&#xb7;" horiz-adv-x="288" d="M224 436 C224 475 191 508 152 508 C113 508 80 475 80 436 C80 397 113 364 152 364 C191 364 224 397 224 436 L224 436 Z " />
<glyph glyph-name="cedilla" unicode="&#xb8;" horiz-adv-x="540" d="M397 -108 C397 -57 365 -23 291 -23 C276 -23 248 -28 248 -28 L232 -73 C249 -67 264 -64 277 -64 C306 -64 325 -78 325 -107 C325 -126 311 -149 273 -149 C216 -149 185 -138 161 -121 L130 -164 C155 -183 203 -200 269 -200 C353 -200 397 -164 397 -108 L397 -108 Z " />
<glyph glyph-name="onesuperior" unicode="&#xb9;" horiz-adv-x="593" d="M554 334 C554 481 438 601 296 601 C154 601 36 481 36 334 C36 187 154 67 296 67 C438 67 554 187 554 334 L554 334 Z M524 344 L381 272 L375 113 L231 244 L130 162 L177 339 L129 489 L323 455 L348 555 L415 386 L524 344 Z " />
<glyph glyph-name="ordmasculine" unicode="&#xba;" horiz-adv-x="343" d="M317 603 C317 695 277 780 171 780 C65 780 25 695 25 603 C25 510 64 425 171 425 C278 425 317 510 317 603 L317 603 Z M329 321 L329 372 L14 372 L14 321 L329 321 Z M247 602 C247 515 228 481 171 481 C114 481 95 518 95 602 C95 683 112 724 171 724 C233 724 247 681 247 602 L247 602 Z " />
<glyph glyph-name="guillemotright" unicode="&#xbb;" horiz-adv-x="631" d="M577 229 L577 324 L325 515 L325 417 L503 276 L325 134 L325 36 L577 229 Z M321 229 L321 324 L67 515 L67 417 L248 276 L67 134 L67 36 L321 229 Z " />
<glyph glyph-name="onequarter" unicode="&#xbc;" horiz-adv-x="593" d="M554 334 C554 481 438 601 296 601 C154 601 36 481 36 334 C36 187 154 67 296 67 C438 67 554 187 554 334 L554 334 Z M524 344 L381 272 L375 113 L231 244 L130 162 L177 339 L129 489 L323 455 L348 555 L415 386 L524 344 Z " />
<glyph glyph-name="onehalf" unicode="&#xbd;" horiz-adv-x="593" d="M554 334 C554 481 438 601 296 601 C154 601 36 481 36 334 C36 187 154 67 296 67 C438 67 554 187 554 334 L554 334 Z M524 344 L381 272 L375 113 L231 244 L130 162 L177 339 L129 489 L323 455 L348 555 L415 386 L524 344 Z " />
<glyph glyph-name="threequarters" unicode="&#xbe;" horiz-adv-x="593" d="M554 334 C554 481 438 601 296 601 C154 601 36 481 36 334 C36 187 154 67 296 67 C438 67 554 187 554 334 L554 334 Z M524 344 L381 272 L375 113 L231 244 L130 162 L177 339 L129 489 L323 455 L348 555 L415 386 L524 344 Z " />
<glyph glyph-name="questiondown" unicode="&#xbf;" horiz-adv-x="462" d="M393 569 L393 684 L290 684 L290 569 L393 569 Z M420 60 C420 89 416 109 410 126 L338 126 C343 113 348 100 348 76 C348 14 329 -25 249 -25 C172 -25 137 44 137 141 C137 278 158 327 229 327 C297 327 320 266 323 205 L378 205 L378 469 L314 469 C314 469 314 430 314 406 C314 378 319 331 319 331 C305 370 263 390 211 390 C118 390 52 337 52 136 C52 -11 124 -96 247 -96 C373 -96 420 -22 420 60 L420 60 Z " />
<glyph glyph-name="Agrave" unicode="&#xc0;" horiz-adv-x="602" d="M339 791 L260 902 L146 902 L146 893 L283 791 L339 791 Z M582 0 L357 768 L234 768 L20 0 L99 0 L149 188 L440 188 L494 0 L582 0 Z M424 255 L166 255 L294 705 L424 255 Z " />
<glyph glyph-name="Aacute" unicode="&#xc1;" horiz-adv-x="602" d="M429 893 L429 902 L315 902 L236 791 L292 791 L429 893 Z M582 0 L357 768 L234 768 L20 0 L99 0 L149 188 L440 188 L494 0 L582 0 Z M424 255 L166 255 L294 705 L424 255 Z " />
<glyph glyph-name="Acircumflex" unicode="&#xc2;" horiz-adv-x="602" d="M419 791 L330 899 L258 899 L169 791 L218 791 L294 842 L370 791 L419 791 Z M582 0 L357 768 L234 768 L20 0 L99 0 L149 188 L440 188 L494 0 L582 0 Z M424 255 L166 255 L294 705 L424 255 Z " />
<glyph glyph-name="Atilde" unicode="&#xc3;" horiz-adv-x="602" d="M582 0 L357 768 L234 768 L20 0 L99 0 L149 188 L440 188 L494 0 L582 0 Z M424 255 L166 255 L294 705 L424 255 Z M437 862 C437 890 433 903 428 914 L390 914 C397 886 390 855 358 855 C344 855 335 861 323 870 L301 887 C281 902 259 918 221 918 C166 918 146 890 146 842 C146 820 149 805 155 794 L194 794 C187 820 190 857 224 857 C239 857 251 849 264 838 L285 821 C298 810 323 792 355 792 C411 792 437 813 437 862 L437 862 Z " />
<glyph glyph-name="Adieresis" unicode="&#xc4;" horiz-adv-x="602" d="M428 792 L428 881 L334 881 L334 792 L428 792 Z M256 792 L256 881 L162 881 L162 792 L256 792 Z M582 0 L357 768 L234 768 L20 0 L99 0 L149 188 L440 188 L494 0 L582 0 Z M424 255 L166 255 L294 705 L424 255 Z " />
<glyph glyph-name="Aring" unicode="&#xc5;" horiz-adv-x="602" d="M561 0 L337 760 C357 778 371 803 371 831 C371 884 327 926 273 926 C220 926 177 884 177 831 C177 802 191 777 212 759 L-1 0 L78 0 L128 188 L419 188 L473 0 L561 0 Z M320 831 C320 807 298 786 273 786 C250 786 227 807 227 831 C227 855 250 876 273 876 C298 876 320 855 320 831 L320 831 Z M403 255 L145 255 L273 705 L403 255 Z " />
<glyph glyph-name="AE" unicode="&#xc6;" horiz-adv-x="840" d="M809 0 L809 69 L466 69 L466 360 L759 360 L759 429 L466 429 L466 699 L786 699 L786 768 L331 768 L-21 0 L67 0 L149 188 L384 188 L384 0 L809 0 Z M384 255 L179 255 L384 705 L384 255 Z " />
<glyph glyph-name="Ccedilla" unicode="&#xc7;" horiz-adv-x="622" d="M564 265 L479 273 C475 152 467 58 332 58 C186 58 132 166 132 378 C132 612 195 712 329 712 C439 712 491 621 478 509 L564 509 C575 641 532 780 325 780 C149 780 45 668 45 370 C45 92 148 -12 331 -12 C498 -12 560 84 564 265 L564 265 Z M437 -108 C437 -57 405 -23 331 -23 C316 -23 288 -28 288 -28 L272 -73 C289 -67 304 -64 317 -64 C346 -64 365 -78 365 -107 C365 -126 351 -149 313 -149 C256 -149 225 -138 201 -121 L170 -164 C195 -183 243 -200 309 -200 C393 -200 437 -164 437 -108 L437 -108 Z " />
<glyph glyph-name="Egrave" unicode="&#xc8;" horiz-adv-x="518" d="M341 791 L262 902 L148 902 L148 893 L285 791 L341 791 Z M487 0 L487 69 L144 69 L144 360 L437 360 L437 429 L144 429 L144 699 L464 699 L464 768 L62 768 L62 0 L487 0 Z " />
<glyph glyph-name="Eacute" unicode="&#xc9;" horiz-adv-x="518" d="M429 893 L429 902 L315 902 L236 791 L292 791 L429 893 Z M487 0 L487 69 L144 69 L144 360 L437 360 L437 429 L144 429 L144 699 L464 699 L464 768 L62 768 L62 0 L487 0 Z " />
<glyph glyph-name="Ecircumflex" unicode="&#xca;" horiz-adv-x="518" d="M388 791 L299 899 L227 899 L138 791 L187 791 L263 842 L339 791 L388 791 Z M487 0 L487 69 L144 69 L144 360 L437 360 L437 429 L144 429 L144 699 L464 699 L464 768 L62 768 L62 0 L487 0 Z " />
<glyph glyph-name="Edieresis" unicode="&#xcb;" horiz-adv-x="518" d="M407 792 L407 881 L313 881 L313 792 L407 792 Z M235 792 L235 881 L141 881 L141 792 L235 792 Z M487 0 L487 69 L144 69 L144 360 L437 360 L437 429 L144 429 L144 699 L464 699 L464 768 L62 768 L62 0 L487 0 Z " />
<glyph glyph-name="Igrave" unicode="&#xcc;" horiz-adv-x="207" d="M144 791 L65 902 L-49 902 L-49 893 L88 791 L144 791 Z M145 0 L145 768 L62 768 L62 0 L145 0 Z " />
<glyph glyph-name="Iacute" unicode="&#xcd;" horiz-adv-x="207" d="M273 893 L273 902 L159 902 L80 791 L136 791 L273 893 Z M145 0 L145 768 L62 768 L62 0 L145 0 Z " />
<glyph glyph-name="Icircumflex" unicode="&#xce;" horiz-adv-x="207" d="M232 791 L143 899 L71 899 L-18 791 L31 791 L107 842 L183 791 L232 791 Z M145 0 L145 768 L62 768 L62 0 L145 0 Z " />
<glyph glyph-name="Idieresis" unicode="&#xcf;" horiz-adv-x="207" d="M237 791 L237 880 L143 880 L143 791 L237 791 Z M65 791 L65 880 L-29 880 L-29 791 L65 791 Z M145 0 L145 768 L62 768 L62 0 L145 0 Z " />
<glyph glyph-name="Eth" unicode="&#xd0;" horiz-adv-x="638" d="M592 370 C592 645 464 768 294 768 L72 768 L72 420 L10 420 L10 341 L72 341 L72 0 L257 0 C505 0 592 105 592 370 L592 370 Z M510 370 C510 137 431 72 252 72 L154 72 L154 341 L299 341 L299 420 L154 420 L154 696 L269 696 C435 696 510 586 510 370 L510 370 Z " />
<glyph glyph-name="Ntilde" unicode="&#xd1;" horiz-adv-x="612" d="M550 0 L550 768 L476 768 L476 122 L167 768 L62 768 L62 0 L136 0 L136 646 L445 0 L550 0 Z M457 862 C457 890 453 903 448 914 L410 914 C417 886 410 855 378 855 C364 855 355 861 343 870 L321 887 C301 902 279 918 241 918 C186 918 166 890 166 842 C166 820 169 805 175 794 L214 794 C207 820 210 857 244 857 C259 857 271 849 284 838 L305 821 C318 810 343 792 375 792 C431 792 457 813 457 862 L457 862 Z " />
<glyph glyph-name="Ograve" unicode="&#xd2;" horiz-adv-x="654" d="M373 795 L294 906 L180 906 L180 897 L317 795 L373 795 Z M609 384 C609 655 507 780 327 780 C148 780 45 657 45 384 C45 105 133 -12 327 -12 C527 -12 609 113 609 384 L609 384 Z M525 384 C525 159 475 56 327 56 C188 56 129 149 129 384 C129 611 200 712 327 712 C457 712 525 607 525 384 L525 384 Z " />
<glyph glyph-name="Oacute" unicode="&#xd3;" horiz-adv-x="654" d="M466 899 L466 908 L352 908 L273 797 L329 797 L466 899 Z M609 384 C609 655 507 780 327 780 C148 780 45 657 45 384 C45 105 133 -12 327 -12 C527 -12 609 113 609 384 L609 384 Z M525 384 C525 159 475 56 327 56 C188 56 129 149 129 384 C129 611 200 712 327 712 C457 712 525 607 525 384 L525 384 Z " />
<glyph glyph-name="Ocircumflex" unicode="&#xd4;" horiz-adv-x="654" d="M451 791 L362 899 L290 899 L201 791 L250 791 L326 842 L402 791 L451 791 Z M609 384 C609 655 507 780 327 780 C148 780 45 657 45 384 C45 105 133 -12 327 -12 C527 -12 609 113 609 384 L609 384 Z M525 384 C525 159 475 56 327 56 C188 56 129 149 129 384 C129 611 200 712 327 712 C457 712 525 607 525 384 L525 384 Z " />
<glyph glyph-name="Otilde" unicode="&#xd5;" horiz-adv-x="654" d="M609 384 C609 655 507 780 327 780 C148 780 45 657 45 384 C45 105 133 -12 327 -12 C527 -12 609 113 609 384 L609 384 Z M525 384 C525 159 475 56 327 56 C188 56 129 149 129 384 C129 611 200 712 327 712 C457 712 525 607 525 384 L525 384 Z M478 862 C478 890 474 903 469 914 L431 914 C438 886 431 855 399 855 C385 855 376 861 364 870 L342 887 C322 902 300 918 262 918 C207 918 187 890 187 842 C187 820 190 805 196 794 L235 794 C228 820 231 857 265 857 C280 857 292 849 305 838 L326 821 C339 810 364 792 396 792 C452 792 478 813 478 862 L478 862 Z " />
<glyph glyph-name="Odieresis" unicode="&#xd6;" horiz-adv-x="654" d="M497 800 L497 889 L403 889 L403 800 L497 800 Z M251 800 L251 889 L157 889 L157 800 L251 800 Z M609 384 C609 655 507 780 327 780 C148 780 45 657 45 384 C45 105 133 -12 327 -12 C527 -12 609 113 609 384 L609 384 Z M525 384 C525 159 475 56 327 56 C188 56 129 149 129 384 C129 611 200 712 327 712 C457 712 525 607 525 384 L525 384 Z " />
<glyph glyph-name="multiply" unicode="&#xd7;" horiz-adv-x="593" d="M554 334 C554 481 438 601 296 601 C154 601 36 481 36 334 C36 187 154 67 296 67 C438 67 554 187 554 334 L554 334 Z M524 344 L381 272 L375 113 L231 244 L130 162 L177 339 L129 489 L323 455 L348 555 L415 386 L524 344 Z " />
<glyph glyph-name="Oslash" unicode="&#xd8;" horiz-adv-x="654" d="M609 384 C609 511 586 606 544 671 L609 768 L561 768 L518 704 C470 756 407 780 327 780 C148 780 45 657 45 384 C45 252 66 157 107 92 L45 0 L93 0 L132 58 C178 10 242 -12 327 -12 C527 -12 609 113 609 384 L609 384 Z M472 635 L158 168 C138 220 129 291 129 384 C129 611 200 712 327 712 C390 712 439 687 472 635 L472 635 Z M525 384 C525 159 475 56 327 56 C259 56 211 79 179 128 L493 595 C514 543 525 473 525 384 L525 384 Z " />
<glyph glyph-name="Ugrave" unicode="&#xd9;" horiz-adv-x="610" d="M379 791 L300 902 L186 902 L186 893 L323 791 L379 791 Z M552 250 L552 768 L470 768 L470 211 C470 145 441 59 311 59 C176 59 140 137 140 209 L140 768 L58 768 L58 248 C58 70 116 -12 311 -12 C514 -12 552 92 552 250 L552 250 Z " />
<glyph glyph-name="Uacute" unicode="&#xda;" horiz-adv-x="610" d="M449 893 L449 902 L335 902 L256 791 L312 791 L449 893 Z M552 250 L552 768 L470 768 L470 211 C470 145 441 59 311 59 C176 59 140 137 140 209 L140 768 L58 768 L58 248 C58 70 116 -12 311 -12 C514 -12 552 92 552 250 L552 250 Z " />
<glyph glyph-name="Ucircumflex" unicode="&#xdb;" horiz-adv-x="610" d="M433 791 L344 899 L272 899 L183 791 L232 791 L308 842 L384 791 L433 791 Z M552 250 L552 768 L470 768 L470 211 C470 145 441 59 311 59 C176 59 140 137 140 209 L140 768 L58 768 L58 248 C58 70 116 -12 311 -12 C514 -12 552 92 552 250 L552 250 Z " />
<glyph glyph-name="Udieresis" unicode="&#xdc;" horiz-adv-x="610" d="M449 800 L449 889 L355 889 L355 800 L449 800 Z M255 800 L255 889 L161 889 L161 800 L255 800 Z M552 250 L552 768 L470 768 L470 211 C470 145 441 59 311 59 C176 59 140 137 140 209 L140 768 L58 768 L58 248 C58 70 116 -12 311 -12 C514 -12 552 92 552 250 L552 250 Z " />
<glyph glyph-name="Yacute" unicode="&#xdd;" horiz-adv-x="560" d="M548 768 L467 768 L291 402 L102 768 L12 768 L244 322 L244 0 L326 0 L326 322 L548 768 Z M396 911 L396 922 L282 922 L203 792 L259 792 L396 911 Z " />
<glyph glyph-name="Thorn" unicode="&#xde;" horiz-adv-x="547" d="M515 363 C515 541 417 605 265 605 L144 605 L144 768 L62 768 L62 0 L144 0 L144 146 L268 146 C405 146 515 200 515 363 L515 363 Z M433 367 C433 275 381 216 284 216 L144 216 L144 536 L287 536 C379 536 433 464 433 367 L433 367 Z " />
<glyph glyph-name="germandbls" unicode="&#xdf;" horiz-adv-x="475" d="M430 217 C430 341 374 408 287 415 C370 419 404 492 404 580 C404 689 352 780 220 780 C132 780 62 724 62 589 L62 0 L143 0 L143 597 C143 671 173 713 228 713 C291 713 323 655 323 578 C323 465 292 438 218 438 C214 438 209 438 209 438 L209 370 C209 370 213 370 216 370 C325 370 349 304 349 236 C349 110 320 70 198 70 L192 70 L192 0 L219 0 C370 0 430 67 430 217 L430 217 Z " />
<glyph glyph-name="agrave" unicode="&#xe0;" horiz-adv-x="500" d="M481 13 L481 61 C481 61 472 61 468 61 C427 61 421 78 421 109 L421 396 C421 547 359 592 238 592 C123 592 61 535 61 448 C61 434 64 412 65 405 L146 412 C144 419 142 429 142 438 C142 480 154 524 235 524 C314 524 344 495 344 360 C324 358 266 353 199 331 C107 301 39 244 39 152 C39 49 97 -12 201 -12 C252 -12 323 11 348 93 C348 27 369 -8 413 -8 C443 -8 465 1 481 13 L481 13 Z M344 200 C344 121 279 61 215 61 C150 61 118 86 118 142 C118 206 153 246 247 277 C275 286 327 294 344 294 C344 294 344 214 344 200 L344 200 Z M311 626 L232 756 L118 756 L118 745 L255 626 L311 626 Z " />
<glyph glyph-name="aacute" unicode="&#xe1;" horiz-adv-x="500" d="M481 13 L481 61 C481 61 472 61 468 61 C427 61 421 78 421 109 L421 396 C421 547 359 592 238 592 C123 592 61 535 61 448 C61 434 64 412 65 405 L146 412 C144 419 142 429 142 438 C142 480 154 524 235 524 C314 524 344 495 344 360 C324 358 266 353 199 331 C107 301 39 244 39 152 C39 49 97 -12 201 -12 C252 -12 323 11 348 93 C348 27 369 -8 413 -8 C443 -8 465 1 481 13 L481 13 Z M344 200 C344 121 279 61 215 61 C150 61 118 86 118 142 C118 206 153 246 247 277 C275 286 327 294 344 294 C344 294 344 214 344 200 L344 200 Z M365 744 L365 755 L251 755 L172 625 L228 625 L365 744 Z " />
<glyph glyph-name="acircumflex" unicode="&#xe2;" horiz-adv-x="500" d="M481 13 L481 61 C481 61 472 61 468 61 C427 61 421 78 421 109 L421 396 C421 547 359 592 238 592 C123 592 61 535 61 448 C61 434 64 412 65 405 L146 412 C144 419 142 429 142 438 C142 480 154 524 235 524 C314 524 344 495 344 360 C324 358 266 353 199 331 C107 301 39 244 39 152 C39 49 97 -12 201 -12 C252 -12 323 11 348 93 C348 27 369 -8 413 -8 C443 -8 465 1 481 13 L481 13 Z M344 200 C344 121 279 61 215 61 C150 61 118 86 118 142 C118 206 153 246 247 277 C275 286 327 294 344 294 C344 294 344 214 344 200 L344 200 Z M369 625 L280 751 L208 751 L119 625 L168 625 L244 684 L320 625 L369 625 Z " />
<glyph glyph-name="atilde" unicode="&#xe3;" horiz-adv-x="500" d="M481 13 L481 61 C481 61 472 61 468 61 C427 61 421 78 421 109 L421 396 C421 547 359 592 238 592 C123 592 61 535 61 448 C61 434 64 412 65 405 L146 412 C144 419 142 429 142 438 C142 480 154 524 235 524 C314 524 344 495 344 360 C324 358 266 353 199 331 C107 301 39 244 39 152 C39 49 97 -12 201 -12 C252 -12 323 11 348 93 C348 27 369 -8 413 -8 C443 -8 465 1 481 13 L481 13 Z M344 200 C344 121 279 61 215 61 C150 61 118 86 118 142 C118 206 153 246 247 277 C275 286 327 294 344 294 C344 294 344 214 344 200 L344 200 Z M387 699 C387 727 383 740 378 751 L340 751 C347 723 340 692 308 692 C294 692 285 698 273 707 L251 724 C231 739 209 755 171 755 C116 755 96 727 96 679 C96 657 99 642 105 631 L144 631 C137 657 140 694 174 694 C189 694 201 686 214 675 L235 658 C248 647 273 629 305 629 C361 629 387 650 387 699 L387 699 Z " />
<glyph glyph-name="adieresis" unicode="&#xe4;" horiz-adv-x="500" d="M481 13 L481 61 C481 61 472 61 468 61 C427 61 421 78 421 109 L421 396 C421 547 359 592 238 592 C123 592 61 535 61 448 C61 434 64 412 65 405 L146 412 C144 419 142 429 142 438 C142 480 154 524 235 524 C314 524 344 495 344 360 C324 358 266 353 199 331 C107 301 39 244 39 152 C39 49 97 -12 201 -12 C252 -12 323 11 348 93 C348 27 369 -8 413 -8 C443 -8 465 1 481 13 L481 13 Z M344 200 C344 121 279 61 215 61 C150 61 118 86 118 142 C118 206 153 246 247 277 C275 286 327 294 344 294 C344 294 344 214 344 200 L344 200 Z M377 636 L377 741 L283 741 L283 636 L377 636 Z M205 636 L205 741 L111 741 L111 636 L205 636 Z " />
<glyph glyph-name="aring" unicode="&#xe5;" horiz-adv-x="500" d="M481 13 L481 61 C481 61 472 61 468 61 C427 61 421 78 421 109 L421 396 C421 547 359 592 238 592 C123 592 61 535 61 448 C61 434 64 412 65 405 L146 412 C144 419 142 429 142 438 C142 480 154 524 235 524 C314 524 344 495 344 360 C324 358 266 353 199 331 C107 301 39 244 39 152 C39 49 97 -12 201 -12 C252 -12 323 11 348 93 C348 27 369 -8 413 -8 C443 -8 465 1 481 13 L481 13 Z M344 200 C344 121 279 61 215 61 C150 61 118 86 118 142 C118 206 153 246 247 277 C275 286 327 294 344 294 C344 294 344 214 344 200 L344 200 Z M342 720 C342 773 298 815 244 815 C191 815 148 773 148 720 C148 668 191 625 244 625 C298 625 342 668 342 720 L342 720 Z M291 720 C291 696 269 675 244 675 C221 675 198 696 198 720 C198 744 221 765 244 765 C269 765 291 744 291 720 L291 720 Z " />
<glyph glyph-name="ae" unicode="&#xe6;" horiz-adv-x="792" d="M757 275 C759 308 758 341 756 365 C746 517 677 592 559 592 C486 592 423 566 397 518 C372 572 319 592 240 592 C125 592 63 535 63 448 C63 434 66 412 67 405 L148 412 C146 419 144 429 144 438 C144 480 156 524 237 524 C316 524 346 495 346 360 C326 358 268 353 201 331 C109 301 41 244 41 152 C41 49 99 -12 203 -12 C278 -12 344 36 370 115 C395 33 459 -12 561 -12 C681 -12 747 47 754 143 C755 160 755 169 753 180 L676 188 C676 188 677 174 677 165 C675 109 653 57 570 57 C474 57 433 103 425 227 C424 242 423 258 423 275 L757 275 Z M676 340 L423 340 C423 455 474 524 558 524 C632 524 663 469 673 400 C675 382 676 353 676 340 L676 340 Z M346 200 C346 121 281 61 217 61 C152 61 120 86 120 142 C120 206 155 246 249 277 C277 286 329 294 346 294 L346 200 Z " />
<glyph glyph-name="ccedilla" unicode="&#xe7;" horiz-adv-x="483" d="M445 162 C445 193 442 214 438 233 L365 237 C368 223 370 208 370 195 C370 106 342 57 258 57 C164 57 123 106 123 301 C123 447 162 521 259 521 C331 521 363 477 363 401 C363 386 362 380 360 373 L433 377 C435 387 437 400 437 419 C437 516 387 592 266 592 C118 592 43 509 43 274 C43 74 117 -12 258 -12 C394 -12 445 76 445 162 L445 162 Z M377 -108 C377 -57 345 -23 271 -23 C256 -23 228 -28 228 -28 L212 -73 C229 -67 244 -64 257 -64 C286 -64 305 -78 305 -107 C305 -126 291 -149 253 -149 C196 -149 165 -138 141 -121 L110 -164 C135 -183 183 -200 249 -200 C333 -200 377 -164 377 -108 L377 -108 Z " />
<glyph glyph-name="egrave" unicode="&#xe8;" horiz-adv-x="508" d="M459 312 C459 332 458 350 457 365 C447 517 378 592 260 592 C120 592 43 513 43 279 C43 66 110 -12 262 -12 C382 -12 448 47 455 143 C456 160 456 169 454 180 L377 188 C377 188 378 174 378 165 C376 109 354 57 271 57 C175 57 134 103 126 227 C125 242 124 258 124 275 L458 275 C459 287 459 300 459 312 L459 312 Z M377 340 L124 340 C124 455 175 524 259 524 C333 524 364 469 374 400 C376 382 377 353 377 340 L377 340 Z M323 625 L244 755 L130 755 L130 744 L267 625 L323 625 Z " />
<glyph glyph-name="eacute" unicode="&#xe9;" horiz-adv-x="508" d="M459 312 C459 332 458 350 457 365 C447 517 378 592 260 592 C120 592 43 513 43 279 C43 66 110 -12 262 -12 C382 -12 448 47 455 143 C456 160 456 169 454 180 L377 188 C377 188 378 174 378 165 C376 109 354 57 271 57 C175 57 134 103 126 227 C125 242 124 258 124 275 L458 275 C459 287 459 300 459 312 L459 312 Z M377 340 L124 340 C124 455 175 524 259 524 C333 524 364 469 374 400 C376 382 377 353 377 340 L377 340 Z M405 744 L405 755 L291 755 L212 625 L268 625 L405 744 Z " />
<glyph glyph-name="ecircumflex" unicode="&#xea;" horiz-adv-x="508" d="M459 312 C459 332 458 350 457 365 C447 517 378 592 260 592 C120 592 43 513 43 279 C43 66 110 -12 262 -12 C382 -12 448 47 455 143 C456 160 456 169 454 180 L377 188 C377 188 378 174 378 165 C376 109 354 57 271 57 C175 57 134 103 126 227 C125 242 124 258 124 275 L458 275 C459 287 459 300 459 312 L459 312 Z M377 340 L124 340 C124 455 175 524 259 524 C333 524 364 469 374 400 C376 382 377 353 377 340 L377 340 Z M384 626 L295 752 L223 752 L134 626 L183 626 L259 685 L335 626 L384 626 Z " />
<glyph glyph-name="edieresis" unicode="&#xeb;" horiz-adv-x="508" d="M459 312 C459 332 458 350 457 365 C447 517 378 592 260 592 C120 592 43 513 43 279 C43 66 110 -12 262 -12 C382 -12 448 47 455 143 C456 160 456 169 454 180 L377 188 C377 188 378 174 378 165 C376 109 354 57 271 57 C175 57 134 103 126 227 C125 242 124 258 124 275 L458 275 C459 287 459 300 459 312 L459 312 Z M377 340 L124 340 C124 455 175 524 259 524 C333 524 364 469 374 400 C376 382 377 353 377 340 L377 340 Z M391 626 L391 731 L297 731 L297 626 L391 626 Z M219 626 L219 731 L125 731 L125 626 L219 626 Z " />
<glyph glyph-name="igrave" unicode="&#xec;" horiz-adv-x="198" d="M138 0 L138 574 L60 574 L60 0 L138 0 Z M151 626 L72 756 L-42 756 L-42 745 L95 626 L151 626 Z " />
<glyph glyph-name="iacute" unicode="&#xed;" horiz-adv-x="198" d="M138 0 L138 574 L60 574 L60 0 L138 0 Z M247 745 L247 756 L133 756 L54 626 L110 626 L247 745 Z " />
<glyph glyph-name="icircumflex" unicode="&#xee;" horiz-adv-x="198" d="M138 0 L138 574 L60 574 L60 0 L138 0 Z M226 626 L137 752 L65 752 L-24 626 L25 626 L101 685 L177 626 L226 626 Z " />
<glyph glyph-name="idieresis" unicode="&#xef;" horiz-adv-x="198" d="M138 0 L138 574 L60 574 L60 0 L138 0 Z M234 626 L234 731 L140 731 L140 626 L234 626 Z M62 626 L62 731 L-32 731 L-32 626 L62 626 Z " />
<glyph glyph-name="eth" unicode="&#xf0;" horiz-adv-x="526" d="M465 311 C465 468 432 595 388 678 C446 706 446 759 407 800 L361 784 C378 760 369 747 342 739 C304 779 267 800 214 800 C172 800 123 785 93 765 L129 710 C153 727 178 743 209 743 C228 743 248 735 268 718 C209 683 207 635 244 596 L290 612 C276 632 279 653 312 667 C337 628 356 578 365 530 C339 565 297 582 242 582 C129 582 43 498 43 274 C43 55 134 -10 236 -10 C350 -10 465 103 465 311 L465 311 Z M386 286 C386 114 332 62 258 62 C173 62 123 115 123 276 C123 457 162 512 254 512 C324 512 386 433 386 286 L386 286 Z " />
<glyph glyph-name="ntilde" unicode="&#xf1;" horiz-adv-x="488" d="M431 0 L431 394 C431 543 360 584 278 584 C215 584 163 551 138 490 L138 574 L60 574 L60 0 L138 0 L138 341 C138 431 176 513 251 513 C322 513 353 482 353 373 L353 0 L431 0 Z M392 695 C392 723 388 736 383 747 L345 747 C352 719 345 688 313 688 C299 688 290 694 278 703 L256 720 C236 735 214 751 176 751 C121 751 101 723 101 675 C101 653 104 638 110 627 L149 627 C142 653 145 690 179 690 C194 690 206 682 219 671 L240 654 C253 643 278 625 310 625 C366 625 392 646 392 695 L392 695 Z " />
<glyph glyph-name="ograve" unicode="&#xf2;" horiz-adv-x="528" d="M485 290 C485 505 387 592 264 592 C141 592 43 505 43 290 C43 76 141 -12 264 -12 C387 -12 485 76 485 290 L485 290 Z M407 290 C407 193 384 58 264 58 C144 58 121 193 121 290 C121 388 144 524 264 524 C384 524 407 388 407 290 L407 290 Z M317 626 L238 756 L124 756 L124 745 L261 626 L317 626 Z " />
<glyph glyph-name="oacute" unicode="&#xf3;" horiz-adv-x="528" d="M485 290 C485 505 387 592 264 592 C141 592 43 505 43 290 C43 76 141 -12 264 -12 C387 -12 485 76 485 290 L485 290 Z M407 290 C407 193 384 58 264 58 C144 58 121 193 121 290 C121 388 144 524 264 524 C384 524 407 388 407 290 L407 290 Z M397 745 L397 756 L283 756 L204 626 L260 626 L397 745 Z " />
<glyph glyph-name="ocircumflex" unicode="&#xf4;" horiz-adv-x="528" d="M485 290 C485 505 387 592 264 592 C141 592 43 505 43 290 C43 76 141 -12 264 -12 C387 -12 485 76 485 290 L485 290 Z M407 290 C407 193 384 58 264 58 C144 58 121 193 121 290 C121 388 144 524 264 524 C384 524 407 388 407 290 L407 290 Z M392 626 L303 752 L231 752 L142 626 L191 626 L267 685 L343 626 L392 626 Z " />
<glyph glyph-name="otilde" unicode="&#xf5;" horiz-adv-x="528" d="M485 290 C485 505 387 592 264 592 C141 592 43 505 43 290 C43 76 141 -12 264 -12 C387 -12 485 76 485 290 L485 290 Z M407 290 C407 193 384 58 264 58 C144 58 121 193 121 290 C121 388 144 524 264 524 C384 524 407 388 407 290 L407 290 Z M412 695 C412 723 408 736 403 747 L365 747 C372 719 365 688 333 688 C319 688 310 694 298 703 L276 720 C256 735 234 751 196 751 C141 751 121 723 121 675 C121 653 124 638 130 627 L169 627 C162 653 165 690 199 690 C214 690 226 682 239 671 L260 654 C273 643 298 625 330 625 C386 625 412 646 412 695 L412 695 Z " />
<glyph glyph-name="odieresis" unicode="&#xf6;" horiz-adv-x="528" d="M485 290 C485 505 387 592 264 592 C141 592 43 505 43 290 C43 76 141 -12 264 -12 C387 -12 485 76 485 290 L485 290 Z M407 290 C407 193 384 58 264 58 C144 58 121 193 121 290 C121 388 144 524 264 524 C384 524 407 388 407 290 L407 290 Z M400 626 L400 731 L306 731 L306 626 L400 626 Z M228 626 L228 731 L134 731 L134 626 L228 626 Z " />
<glyph glyph-name="divide" unicode="&#xf7;" horiz-adv-x="593" d="M554 334 C554 481 438 601 296 601 C154 601 36 481 36 334 C36 187 154 67 296 67 C438 67 554 187 554 334 L554 334 Z M524 344 L381 272 L375 113 L231 244 L130 162 L177 339 L129 489 L323 455 L348 555 L415 386 L524 344 Z " />
<glyph glyph-name="oslash" unicode="&#xf8;" horiz-adv-x="528" d="M485 290 C485 388 465 460 430 509 L485 592 L439 592 L404 539 C367 575 318 592 264 592 C141 592 43 505 43 290 C43 192 63 121 98 72 L43 -12 L89 -12 L124 41 C162 5 211 -12 264 -12 C387 -12 485 76 485 290 L485 290 Z M362 475 L145 144 C126 189 121 244 121 290 C121 388 144 524 264 524 C309 524 341 505 362 475 L362 475 Z M407 290 C407 193 384 58 264 58 C219 58 187 77 166 106 L383 437 C402 392 407 337 407 290 L407 290 Z " />
<glyph glyph-name="ugrave" unicode="&#xf9;" horiz-adv-x="488" d="M428 0 L428 574 L350 574 L350 233 C350 147 312 61 237 61 C166 61 135 92 135 201 L135 574 L57 574 L57 180 C57 31 128 -10 210 -10 C273 -10 328 27 350 79 L350 0 L428 0 Z M303 626 L224 756 L110 756 L110 745 L247 626 L303 626 Z " />
<glyph glyph-name="uacute" unicode="&#xfa;" horiz-adv-x="488" d="M428 0 L428 574 L350 574 L350 233 C350 147 312 61 237 61 C166 61 135 92 135 201 L135 574 L57 574 L57 180 C57 31 128 -10 210 -10 C273 -10 328 27 350 79 L350 0 L428 0 Z M385 745 L385 756 L271 756 L192 626 L248 626 L385 745 Z " />
<glyph glyph-name="ucircumflex" unicode="&#xfb;" horiz-adv-x="488" d="M428 0 L428 574 L350 574 L350 233 C350 147 312 61 237 61 C166 61 135 92 135 201 L135 574 L57 574 L57 180 C57 31 128 -10 210 -10 C273 -10 328 27 350 79 L350 0 L428 0 Z M372 626 L283 752 L211 752 L122 626 L171 626 L247 685 L323 626 L372 626 Z " />
<glyph glyph-name="udieresis" unicode="&#xfc;" horiz-adv-x="488" d="M428 0 L428 574 L350 574 L350 233 C350 147 312 61 237 61 C166 61 135 92 135 201 L135 574 L57 574 L57 180 C57 31 128 -10 210 -10 C273 -10 328 27 350 79 L350 0 L428 0 Z M380 626 L380 731 L286 731 L286 626 L380 626 Z M208 626 L208 731 L114 731 L114 626 L208 626 Z " />
<glyph glyph-name="yacute" unicode="&#xfd;" horiz-adv-x="451" d="M436 574 L361 574 L246 102 L91 574 L11 574 L208 -19 C195 -94 171 -117 136 -117 C108 -117 90 -99 90 -74 C90 -61 91 -46 94 -35 L18 -35 C15 -50 13 -61 13 -75 C13 -148 55 -180 139 -180 C216 -180 262 -141 295 -5 L436 574 Z M377 744 L377 755 L263 755 L184 625 L240 625 L377 744 Z " />
<glyph glyph-name="thorn" unicode="&#xfe;" horiz-adv-x="524" d="M481 274 C481 504 389 586 276 586 C215 586 158 550 138 481 L138 768 L60 768 L60 -144 L138 -144 L138 70 C154 31 203 -12 279 -12 C373 -12 481 55 481 274 L481 274 Z M400 276 C400 109 348 62 270 62 C190 62 138 124 138 286 C138 419 181 512 269 512 C358 512 400 455 400 276 L400 276 Z " />
<glyph glyph-name="ydieresis" unicode="&#xff;" horiz-adv-x="451" d="M436 574 L361 574 L246 102 L91 574 L11 574 L208 -19 C195 -94 171 -117 136 -117 C108 -117 90 -99 90 -74 C90 -61 91 -46 94 -35 L18 -35 C15 -50 13 -61 13 -75 C13 -148 55 -180 139 -180 C216 -180 262 -141 295 -5 L436 574 Z M376 625 L376 730 L282 730 L282 625 L376 625 Z M204 625 L204 730 L110 730 L110 625 L204 625 Z " />
<glyph glyph-name="dotlessi" unicode="&#x131;" horiz-adv-x="198" d="M138 0 L138 574 L60 574 L60 0 L138 0 Z " />
<glyph glyph-name="Lslash" unicode="&#x141;" horiz-adv-x="479" d="M446 0 L446 70 L164 70 L164 310 L343 464 L300 517 L164 402 L164 768 L82 768 L82 332 L-5 255 L38 201 L82 240 L82 0 L446 0 Z " />
<glyph glyph-name="lslash" unicode="&#x142;" horiz-adv-x="250" d="M254 376 L210 427 L163 388 L163 768 L85 768 L85 327 L-4 251 L38 199 L85 238 L85 0 L163 0 L163 302 L254 376 Z " />
<glyph glyph-name="OE" unicode="&#x152;" horiz-adv-x="982" d="M951 0 L951 69 L606 69 L606 360 L901 360 L901 429 L606 429 L606 699 L928 699 L928 768 L526 768 L526 686 C500 722 449 780 327 780 C148 780 45 657 45 384 C45 105 133 -13 327 -12 C426 -11 474 12 526 77 L526 0 L951 0 Z M527 384 C527 159 475 56 327 56 C188 56 129 149 129 384 C129 611 200 712 327 712 C457 712 527 607 527 384 L527 384 Z " />
<glyph glyph-name="oe" unicode="&#x153;" horiz-adv-x="868" d="M819 311 C819 331 818 350 817 365 C807 517 738 592 620 592 C516 592 475 558 441 487 C404 556 348 592 264 592 C141 592 43 505 43 290 C43 76 141 -13 264 -12 C342 -11 400 22 438 88 C471 21 522 -12 622 -12 C742 -12 808 47 815 143 C816 160 816 169 814 180 L737 188 C737 188 738 174 738 165 C736 109 714 57 631 57 C535 57 494 103 486 227 C485 242 484 258 484 275 L818 275 C819 287 819 299 819 311 L819 311 Z M737 343 L484 343 C484 458 535 524 619 524 C693 524 724 469 734 400 C736 382 737 356 737 343 L737 343 Z M407 290 C407 193 384 58 264 58 C144 58 121 193 121 290 C121 388 144 524 264 524 C384 524 407 388 407 290 L407 290 Z " />
<glyph glyph-name="Scaron" unicode="&#x160;" horiz-adv-x="562" d="M515 196 C515 281 476 361 370 408 L255 459 C169 497 136 523 136 592 C136 666 175 712 261 712 C364 712 402 649 402 577 C402 563 399 551 397 540 L475 542 C479 558 481 568 481 595 C481 705 396 780 266 780 C117 780 52 692 52 567 C52 481 101 434 178 401 L271 361 C390 310 432 268 432 194 C432 94 380 59 275 59 C176 59 132 93 132 181 C132 205 135 224 140 242 L60 239 C55 214 50 195 50 164 C50 46 128 -12 272 -12 C423 -12 515 50 515 196 L515 196 Z M410 933 L335 933 L273 854 L214 933 L136 933 L245 791 L302 791 L410 933 Z " />
<glyph glyph-name="scaron" unicode="&#x161;" horiz-adv-x="455" d="M414 173 C414 254 364 291 278 324 L210 350 C150 373 124 393 124 438 C124 492 159 527 222 527 C283 527 311 493 314 454 C315 441 313 428 313 417 L391 427 C393 435 393 443 393 454 C393 532 331 592 218 592 C114 592 54 526 54 423 C54 341 96 305 163 280 L225 257 C312 225 342 208 342 153 C342 88 297 53 224 53 C147 53 123 86 123 142 C123 154 127 174 130 187 L62 195 C55 175 49 149 49 124 C49 40 103 -12 227 -12 C355 -12 414 52 414 173 L414 173 Z M364 767 L289 767 L227 688 L168 767 L90 767 L199 625 L256 625 L364 767 Z " />
<glyph glyph-name="Ydieresis" unicode="&#x178;" horiz-adv-x="560" d="M415 792 L415 881 L321 881 L321 792 L415 792 Z M243 792 L243 881 L149 881 L149 792 L243 792 Z M548 768 L467 768 L291 402 L102 768 L12 768 L244 322 L244 0 L326 0 L326 322 L548 768 Z " />
<glyph glyph-name="Zcaron" unicode="&#x17d;" horiz-adv-x="532" d="M490 0 L490 69 L118 69 L490 676 L490 768 L75 768 L75 699 L412 699 L39 90 L39 0 L490 0 Z M423 934 L348 934 L286 855 L227 934 L149 934 L258 792 L315 792 L423 934 Z " />
<glyph glyph-name="zcaron" unicode="&#x17e;" horiz-adv-x="449" d="M400 0 L400 71 L124 71 L400 523 L400 574 L54 574 L54 506 L302 506 L29 59 L29 0 L400 0 Z M371 767 L296 767 L234 688 L175 767 L97 767 L206 625 L263 625 L371 767 Z " />
<glyph glyph-name="florin" unicode="&#x192;" horiz-adv-x="347" d="M348 682 C345 719 323 780 223 780 C136 780 98 719 98 624 C98 601 98 465 98 438 L23 438 L23 372 L98 372 C98 372 98 87 98 -38 C98 -94 92 -119 57 -119 C14 -119 6 -98 6 -58 C6 -43 7 -32 9 -18 L-55 -14 C-61 -33 -65 -56 -63 -82 C-60 -119 -43 -180 57 -180 C154 -180 177 -117 177 -22 C177 1 177 372 177 372 L275 372 L275 438 L175 438 C175 462 175 616 175 648 C175 699 202 719 223 719 C266 719 279 693 279 655 C279 640 278 631 275 619 L340 614 C346 633 350 656 348 682 L348 682 Z " />
<glyph glyph-name="circumflex" unicode="&#x2c6;" horiz-adv-x="540" d="M395 636 L306 762 L234 762 L145 636 L194 636 L270 695 L346 636 L395 636 Z " />
<glyph glyph-name="caron" unicode="&#x2c7;" horiz-adv-x="540" d="M410 777 L335 777 L273 698 L214 777 L136 777 L245 635 L302 635 L410 777 Z " />
<glyph glyph-name="breve" unicode="&#x2d8;" horiz-adv-x="540" d="M425 744 L374 744 C362 713 340 694 270 694 C200 694 174 717 166 744 L115 744 C130 669 190 636 270 636 C350 636 410 669 425 744 L425 744 Z " />
<glyph glyph-name="dotaccent" unicode="&#x2d9;" horiz-adv-x="540" d="M320 635 L320 735 L221 735 L221 635 L320 635 Z " />
<glyph glyph-name="ring" unicode="&#x2da;" horiz-adv-x="540" d="M368 673 C368 726 324 768 270 768 C217 768 174 726 174 673 C174 621 217 578 270 578 C324 578 368 621 368 673 L368 673 Z M317 673 C317 649 295 628 270 628 C247 628 224 649 224 673 C224 697 247 718 270 718 C295 718 317 697 317 673 L317 673 Z " />
<glyph glyph-name="ogonek" unicode="&#x2db;" horiz-adv-x="540" d="M334 -106 C334 -96 333 -85 330 -71 L272 -71 C274 -79 278 -93 278 -103 C278 -116 272 -128 255 -128 C244 -128 239 -117 239 -100 C239 -61 290 -16 306 -6 L315 0 L265 0 L258 -4 C221 -25 179 -60 179 -100 C179 -138 204 -162 253 -162 C299 -162 334 -142 334 -106 L334 -106 Z " />
<glyph glyph-name="tilde" unicode="&#x2dc;" horiz-adv-x="540" d="M416 705 C416 733 412 746 407 757 L369 757 C376 729 369 698 337 698 C323 698 314 704 302 713 L280 730 C260 745 238 761 200 761 C145 761 125 733 125 685 C125 663 128 648 134 637 L173 637 C166 663 169 700 203 700 C218 700 230 692 243 681 L264 664 C277 653 302 635 334 635 C390 635 416 656 416 705 L416 705 Z " />
<glyph glyph-name="hungarumlaut" unicode="&#x2dd;" horiz-adv-x="540" d="M422 730 L422 739 L315 739 L259 635 L301 635 L422 730 Z M275 730 L275 739 L179 739 L123 635 L164 635 L275 730 Z " />
<glyph glyph-name="pi" unicode="&#x3c0;" horiz-adv-x="779" d="M738 397 C739 592 580 752 386 752 C190 752 32 592 32 397 C32 203 191 44 386 44 C579 44 738 203 738 397 L738 397 Z M688 397 C688 226 551 90 385 90 C217 90 82 226 82 397 C82 564 218 706 385 706 C551 706 688 564 688 397 L688 397 Z M532 468 C532 562 480 595 408 595 L280 595 L280 188 L346 188 L346 348 L401 348 C483 348 532 391 532 468 L532 468 Z M468 467 C468 425 443 399 406 399 L346 399 L346 543 L405 543 C441 543 468 521 468 467 L468 467 Z " />
<glyph glyph-name="endash" unicode="&#x2013;" horiz-adv-x="500" d="M500 294 L500 363 L0 363 L0 294 L500 294 Z " />
<glyph glyph-name="emdash" unicode="&#x2014;" horiz-adv-x="1000" d="M1000 294 L1000 363 L0 363 L0 294 L1000 294 Z " />
<glyph glyph-name="quoteleft" unicode="&#x2018;" horiz-adv-x="215" d="M182 720 L173 760 C142 756 114 747 95 733 C63 708 47 678 47 623 L47 499 L160 499 L160 623 L108 623 C102 649 108 677 127 695 C140 706 161 714 182 720 L182 720 Z " />
<glyph glyph-name="quoteright" unicode="&#x2019;" horiz-adv-x="215" d="M171 644 L171 768 L58 768 L58 644 L110 644 C116 618 110 590 91 572 C78 561 57 553 36 547 L45 507 C76 511 104 520 123 534 C155 559 171 589 171 644 L171 644 Z " />
<glyph glyph-name="quotesinglbase" unicode="&#x201a;" horiz-adv-x="215" d="M171 0 L171 124 L58 124 L58 0 L110 0 C116 -26 110 -54 91 -72 C78 -83 57 -91 36 -97 L45 -137 C76 -133 104 -124 123 -110 C155 -85 171 -55 171 0 L171 0 Z " />
<glyph glyph-name="quotedblleft" unicode="&#x201c;" horiz-adv-x="392" d="M358 720 L349 760 C318 756 290 747 271 733 C239 708 223 678 223 623 L223 499 L336 499 L336 623 L284 623 C278 649 284 677 303 695 C316 706 337 714 358 720 L358 720 Z M182 720 L173 760 C142 756 114 747 95 733 C63 708 47 678 47 623 L47 499 L160 499 L160 623 L108 623 C102 649 108 677 127 695 C140 706 161 714 182 720 L182 720 Z " />
<glyph glyph-name="quotedblright" unicode="&#x201d;" horiz-adv-x="392" d="M347 644 L347 768 L234 768 L234 644 L286 644 C292 618 286 590 267 572 C254 561 233 553 212 547 L221 507 C252 511 280 520 299 534 C331 559 347 589 347 644 L347 644 Z M171 644 L171 768 L58 768 L58 644 L110 644 C116 618 110 590 91 572 C78 561 57 553 36 547 L45 507 C76 511 104 520 123 534 C155 559 171 589 171 644 L171 644 Z " />
<glyph glyph-name="quotedblbase" unicode="&#x201e;" horiz-adv-x="392" d="M347 0 L347 124 L234 124 L234 0 L286 0 C292 -26 286 -54 267 -72 C254 -83 233 -91 212 -97 L221 -137 C252 -133 280 -124 299 -110 C331 -85 347 -55 347 0 L347 0 Z M171 0 L171 124 L58 124 L58 0 L110 0 C116 -26 110 -54 91 -72 C78 -83 57 -91 36 -97 L45 -137 C76 -133 104 -124 123 -110 C155 -85 171 -55 171 0 L171 0 Z " />
<glyph glyph-name="dagger" unicode="&#x2020;" horiz-adv-x="544" d="M486 492 L486 561 L311 561 L311 768 L233 768 L233 561 L58 561 L58 492 L233 492 L233 -144 L311 -144 L311 492 L486 492 Z " />
<glyph glyph-name="daggerdbl" unicode="&#x2021;" horiz-adv-x="544" d="M486 52 L486 122 L311 122 L311 504 L486 504 L486 573 L311 573 L311 768 L233 768 L233 573 L58 573 L58 504 L233 504 L233 122 L58 122 L58 52 L233 52 L233 -146 L311 -146 L311 52 L486 52 Z " />
<glyph glyph-name="bullet" unicode="&#x2022;" horiz-adv-x="500" d="M430 382 C430 481 349 561 249 561 C151 561 70 481 70 382 C70 285 151 205 249 205 C349 205 430 285 430 382 L430 382 Z " />
<glyph glyph-name="ellipsis" unicode="&#x2026;" horiz-adv-x="864" d="M780 0 L780 126 L661 126 L661 0 L780 0 Z M492 0 L492 126 L373 126 L373 0 L492 0 Z M204 0 L204 126 L85 126 L85 0 L204 0 Z " />
<glyph glyph-name="perthousand" unicode="&#x2030;" horiz-adv-x="1024" d="M988 188 C988 307 963 389 855 389 C747 389 722 308 722 188 C722 69 747 -12 855 -12 C963 -12 988 69 988 188 L988 188 Z M304 579 C304 698 279 780 171 780 C63 780 38 699 38 579 C38 460 63 379 171 379 C279 379 304 460 304 579 L304 579 Z M591 768 L527 768 L105 0 L170 0 L591 768 Z M658 188 C658 307 633 389 525 389 C417 389 392 308 392 188 C392 69 417 -12 525 -12 C633 -12 658 69 658 188 L658 188 Z M916 188 C916 82 912 47 855 47 C798 47 794 82 794 188 C794 294 798 329 855 329 C912 329 916 294 916 188 L916 188 Z M232 579 C232 473 228 438 171 438 C114 438 110 473 110 579 C110 685 114 720 171 720 C228 720 232 685 232 579 L232 579 Z M586 188 C586 82 582 47 525 47 C468 47 464 82 464 188 C464 294 468 329 525 329 C582 329 586 294 586 188 L586 188 Z " />
<glyph glyph-name="guilsinglleft" unicode="&#x2039;" horiz-adv-x="376" d="M307 36 L307 134 L129 276 L307 417 L307 515 L55 324 L55 229 L307 36 Z " />
<glyph glyph-name="guilsinglright" unicode="&#x203a;" horiz-adv-x="376" d="M321 229 L321 324 L67 515 L67 417 L248 276 L67 134 L67 36 L321 229 Z " />
<glyph glyph-name="fraction" unicode="&#x2044;" horiz-adv-x="111" d="M297 768 L235 768 L-187 0 L-124 0 L297 768 Z " />
<glyph glyph-name="trademark" unicode="&#x2122;" horiz-adv-x="623" d="M544 537 L544 768 L462 768 L415 591 L367 768 L285 768 L285 537 L334 537 L334 718 L385 537 L440 537 L488 718 L488 537 L544 537 Z M252 722 L252 768 L62 768 L62 722 L125 722 L125 537 L187 537 L187 722 L252 722 Z " />
<glyph glyph-name="Omega" unicode="&#x2126;" horiz-adv-x="593" d="M554 334 C554 481 438 601 296 601 C154 601 36 481 36 334 C36 187 154 67 296 67 C438 67 554 187 554 334 L554 334 Z M524 344 L381 272 L375 113 L231 244 L130 162 L177 339 L129 489 L323 455 L348 555 L415 386 L524 344 Z " />
<glyph glyph-name="partialdiff" unicode="&#x2202;" horiz-adv-x="593" d="M554 334 C554 481 438 601 296 601 C154 601 36 481 36 334 C36 187 154 67 296 67 C438 67 554 187 554 334 L554 334 Z M524 344 L381 272 L375 113 L231 244 L130 162 L177 339 L129 489 L323 455 L348 555 L415 386 L524 344 Z " />
<glyph glyph-name="Delta" unicode="&#x2206;" horiz-adv-x="593" d="M554 334 C554 481 438 601 296 601 C154 601 36 481 36 334 C36 187 154 67 296 67 C438 67 554 187 554 334 L554 334 Z M524 344 L381 272 L375 113 L231 244 L130 162 L177 339 L129 489 L323 455 L348 555 L415 386 L524 344 Z " />
<glyph glyph-name="product" unicode="&#x220f;" horiz-adv-x="593" d="M554 334 C554 481 438 601 296 601 C154 601 36 481 36 334 C36 187 154 67 296 67 C438 67 554 187 554 334 L554 334 Z M524 344 L381 272 L375 113 L231 244 L130 162 L177 339 L129 489 L323 455 L348 555 L415 386 L524 344 Z " />
<glyph glyph-name="summation" unicode="&#x2211;" horiz-adv-x="593" d="M554 334 C554 481 438 601 296 601 C154 601 36 481 36 334 C36 187 154 67 296 67 C438 67 554 187 554 334 L554 334 Z M524 344 L381 272 L375 113 L231 244 L130 162 L177 339 L129 489 L323 455 L348 555 L415 386 L524 344 Z " />
<glyph glyph-name="minus" unicode="&#x2212;" horiz-adv-x="593" d="M554 334 C554 481 438 601 296 601 C154 601 36 481 36 334 C36 187 154 67 296 67 C438 67 554 187 554 334 L554 334 Z M524 344 L381 272 L375 113 L231 244 L130 162 L177 339 L129 489 L323 455 L348 555 L415 386 L524 344 Z " />
<glyph glyph-name="radical" unicode="&#x221a;" horiz-adv-x="602" d="M586 850 L482 805 C424 709 374 593 313 431 C283 350 224 154 205 44 L122 271 L36 227 L184 -63 L253 -30 C274 88 327 268 381 416 C424 536 529 777 586 850 L586 850 Z " />
<glyph glyph-name="infinity" unicode="&#x221e;" horiz-adv-x="746" d="M686 0 L686 574 L608 574 L608 0 L686 0 Z M690 686 C690 748 623 780 520 780 C454 780 411 765 385 738 C363 757 321 780 262 780 C143 780 92 719 92 620 L92 574 L7 574 L7 506 L92 506 L92 0 L170 0 L170 506 L350 506 L350 0 L428 0 L428 506 L537 506 L537 574 L428 574 L428 640 C428 695 454 722 526 722 C591 722 609 702 609 676 C609 661 607 647 603 642 L684 638 C687 648 690 663 690 686 L690 686 Z M356 681 C352 663 350 643 350 620 L350 574 L170 574 L170 640 C170 695 196 722 268 722 C309 722 343 697 356 681 L356 681 Z " />
<glyph glyph-name="integral" unicode="&#x222b;" horiz-adv-x="593" d="M554 334 C554 481 438 601 296 601 C154 601 36 481 36 334 C36 187 154 67 296 67 C438 67 554 187 554 334 L554 334 Z M524 344 L381 272 L375 113 L231 244 L130 162 L177 339 L129 489 L323 455 L348 555 L415 386 L524 344 Z " />
<glyph glyph-name="approxequal" unicode="&#x2248;" horiz-adv-x="593" d="M554 334 C554 481 438 601 296 601 C154 601 36 481 36 334 C36 187 154 67 296 67 C438 67 554 187 554 334 L554 334 Z M524 344 L381 272 L375 113 L231 244 L130 162 L177 339 L129 489 L323 455 L348 555 L415 386 L524 344 Z " />
<glyph glyph-name="notequal" unicode="&#x2260;" horiz-adv-x="545" d="M580 640 C600 705 577 780 474 780 C428 780 398 766 379 743 C353 763 312 780 262 780 C158 780 92 734 92 620 L92 574 L7 574 L7 506 L92 506 L92 0 L170 0 L170 506 L350 506 L350 0 L428 0 L428 506 L537 506 L537 574 L428 574 L428 652 C428 696 446 719 476 719 C520 719 526 687 514 645 L580 640 Z M354 682 C351 667 350 650 350 632 L350 574 L170 574 L170 640 C170 695 196 722 268 722 C301 722 334 705 354 682 L354 682 Z " />
<glyph glyph-name="lessequal" unicode="&#x2264;" horiz-adv-x="593" d="M554 334 C554 481 438 601 296 601 C154 601 36 481 36 334 C36 187 154 67 296 67 C438 67 554 187 554 334 L554 334 Z M524 344 L381 272 L375 113 L231 244 L130 162 L177 339 L129 489 L323 455 L348 555 L415 386 L524 344 Z " />
<glyph glyph-name="greaterequal" unicode="&#x2265;" horiz-adv-x="593" d="M554 334 C554 481 438 601 296 601 C154 601 36 481 36 334 C36 187 154 67 296 67 C438 67 554 187 554 334 L554 334 Z M524 344 L381 272 L375 113 L231 244 L130 162 L177 339 L129 489 L323 455 L348 555 L415 386 L524 344 Z " />
<glyph glyph-name="lozenge" unicode="&#x25ca;" horiz-adv-x="593" d="M554 334 C554 481 438 601 296 601 C154 601 36 481 36 334 C36 187 154 67 296 67 C438 67 554 187 554 334 L554 334 Z M524 344 L381 272 L375 113 L231 244 L130 162 L177 339 L129 489 L323 455 L348 555 L415 386 L524 344 Z " />
<glyph glyph-name="fi" unicode="&#xfb01;" horiz-adv-x="488" d="M428 0 L428 574 L350 574 L350 0 L428 0 Z M432 686 C432 748 365 780 262 780 C130 780 92 722 92 620 L92 574 L7 574 L7 506 L92 506 L92 0 L170 0 L170 506 L279 506 L279 574 L170 574 L170 640 C170 695 196 722 268 722 C333 722 351 702 351 676 C351 657 349 647 345 642 L426 638 C429 648 432 663 432 686 L432 686 Z " />
<glyph glyph-name="fl" unicode="&#xfb02;" horiz-adv-x="488" d="M428 0 L428 757 L355 757 C333 771 298 780 262 780 C158 780 92 734 92 620 L92 574 L7 574 L7 506 L92 506 L92 0 L170 0 L170 506 L279 506 L279 574 L170 574 L170 640 C170 695 196 722 268 722 C307 722 337 700 350 686 L350 0 L428 0 Z " />
</font>
</svg>
