<?xml version="1.0" encoding="UTF-8"?>
<svg xmlns="http://www.w3.org/2000/svg" xmlns:xlink="http://www.w3.org/1999/xlink" version="1.2" >
<font id="BureauGrotesque-FiveFive">
<font-face  font-family="BureauGrotesque" units-per-em="1000" ascent="750" descent="-250" font-style="normal" font-weight="400" font-stretch="normal" cap-height="750" x-height="500" underline-position="-121.5" underline-thickness="23" />
<missing-glyph  horiz-adv-x="500" d="" />
<glyph glyph-name="CR" unicode="&#xd;" horiz-adv-x="250" d="" />
<glyph glyph-name="space" unicode="&#x20;" horiz-adv-x="270" d="" />
<glyph glyph-name="exclam" unicode="&#x21;" horiz-adv-x="282" d="M230 528 L230 768 L56 768 L56 528 L93 242 L198 242 L230 528 Z M233 0 L233 166 L53 166 L53 0 L233 0 Z " />
<glyph glyph-name="quotedbl" unicode="&#x22;" horiz-adv-x="511" d="M476 768 L297 768 L330 449 L442 449 L476 768 Z M218 768 L39 768 L72 449 L183 449 L218 768 Z " />
<glyph glyph-name="numbersign" unicode="&#x23;" horiz-adv-x="752" d="M693 607 L584 607 L609 768 L498 768 L472 607 L350 607 L376 768 L263 768 L239 607 L130 607 L108 457 L216 457 L191 312 L81 312 L59 162 L168 162 L142 0 L254 0 L279 162 L401 162 L376 0 L488 0 L514 162 L624 162 L646 312 L536 312 L562 457 L673 457 L693 607 Z M449 457 L426 312 L304 312 L328 457 L449 457 Z " />
<glyph glyph-name="dollar" unicode="&#x24;" horiz-adv-x="674" d="M617 231 C617 358 555 406 452 444 L365 476 L365 665 C414 657 428 635 428 588 C428 565 425 545 418 531 L573 531 C580 548 583 569 583 587 C583 689 504 768 365 768 L365 809 L294 809 L294 768 C144 768 52 665 52 568 C52 456 111 402 209 367 L294 337 L294 113 C238 115 221 148 221 201 C221 222 223 258 229 278 L74 267 C64 242 57 194 57 166 C57 52 161 8 294 2 L294 -90 L365 -90 L365 2 C535 9 617 86 617 231 L617 231 Z M294 496 C230 516 214 538 214 592 C214 634 245 662 294 665 L294 496 Z M453 212 C453 145 428 115 365 112 L365 313 C436 290 453 255 453 212 L453 212 Z " />
<glyph glyph-name="percent" unicode="&#x25;" horiz-adv-x="1072" d="M1020 214 C1020 389 946 480 810 480 C661 480 599 384 599 212 C599 61 681 -11 810 -11 C937 -11 1020 73 1020 214 L1020 214 Z M768 780 L700 780 L309 -16 L377 -16 L768 780 Z M475 514 C475 689 401 780 265 780 C116 780 54 684 54 512 C54 361 136 289 265 289 C392 289 475 373 475 514 L475 514 Z M895 229 C895 127 869 83 810 83 C751 83 726 132 726 229 C726 351 748 389 812 389 C869 389 895 354 895 229 L895 229 Z M350 529 C350 427 324 383 265 383 C206 383 181 432 181 529 C181 651 203 689 267 689 C324 689 350 654 350 529 L350 529 Z " />
<glyph glyph-name="ampersand" unicode="&#x26;" horiz-adv-x="825" d="M789 143 C789 181 775 244 775 244 L682 244 C689 217 691 196 691 167 C691 136 691 92 646 92 C620 92 593 122 565 166 C616 231 684 364 727 500 C692 500 629 500 629 500 C603 409 557 307 517 249 C502 272 478 311 460 341 C427 395 407 430 397 447 C487 492 565 531 565 632 C565 720 495 780 378 780 C238 780 176 712 176 616 C176 576 197 513 225 467 C109 411 36 335 36 207 C36 91 111 -12 254 -12 C319 -12 416 11 478 73 C519 21 552 -12 634 -12 C745 -12 789 59 789 143 L789 143 Z M455 641 C455 599 438 579 352 526 C339 547 304 609 304 637 C304 680 330 702 379 702 C422 702 455 680 455 641 L455 641 Z M430 145 C397 108 348 87 312 87 C219 87 174 134 174 222 C174 284 211 335 276 379 C300 340 331 295 356 256 C381 219 411 174 430 145 L430 145 Z " />
<glyph glyph-name="quotesingle" unicode="&#x27;" horiz-adv-x="253" d="M218 768 L39 768 L72 449 L183 449 L218 768 Z " />
<glyph glyph-name="parenleft" unicode="&#x28;" horiz-adv-x="418" d="M406 -114 C261 4 210 152 210 333 C210 521 273 671 406 780 L306 780 C137 674 56 534 56 333 C56 132 141 -13 306 -114 L406 -114 Z " />
<glyph glyph-name="parenright" unicode="&#x29;" horiz-adv-x="418" d="M362 333 C362 534 280 674 112 780 L12 780 C145 671 208 521 208 333 C208 152 157 4 12 -114 L112 -114 C277 -13 362 132 362 333 L362 333 Z " />
<glyph glyph-name="asterisk" unicode="&#x2a;" horiz-adv-x="425" d="M392 567 L305 613 L390 658 L342 735 L257 690 L257 780 L167 780 L167 690 L80 735 L31 658 L118 613 L30 567 L79 490 L167 536 L167 444 L257 444 L257 535 L342 490 L392 567 Z " />
<glyph glyph-name="plus" unicode="&#x2b;" horiz-adv-x="559" d="M511 275 L511 395 L341 395 L341 543 L218 543 L218 395 L49 395 L49 275 L218 275 L218 127 L341 127 L341 275 L511 275 Z " />
<glyph glyph-name="comma" unicode="&#x2c;" horiz-adv-x="295" d="M243 0 L243 175 L44 175 L44 0 L143 0 C143 -11 143 -21 142 -32 C137 -73 115 -101 60 -115 L74 -166 C101 -163 136 -154 164 -136 C212 -106 243 -69 243 0 L243 0 Z " />
<glyph glyph-name="hyphen" unicode="&#x2d;" horiz-adv-x="558" d="M503 275 L503 395 L55 395 L55 275 L503 275 Z " />
<glyph glyph-name="period" unicode="&#x2e;" horiz-adv-x="295" d="M242 0 L242 175 L45 175 L45 0 L242 0 Z " />
<glyph glyph-name="slash" unicode="&#x2f;" horiz-adv-x="524" d="M519 768 L411 768 L4 0 L117 0 L519 768 Z " />
<glyph glyph-name="zero" unicode="0" horiz-adv-x="572" d="M528 349 C528 633 461 780 285 780 C91 780 44 639 44 347 C44 92 111 -12 285 -12 C453 -12 528 103 528 349 L528 349 Z M365 376 C365 163 350 103 285 103 C220 103 207 176 207 376 C207 624 223 667 286 667 C341 667 365 623 365 376 L365 376 Z " />
<glyph glyph-name="one" unicode="1" horiz-adv-x="438" d="M361 0 L361 768 L254 768 C236 726 212 700 170 674 C125 646 77 631 19 630 L19 542 C43 539 86 538 115 538 C140 538 178 541 198 548 L198 0 L361 0 Z " />
<glyph glyph-name="two" unicode="2" horiz-adv-x="550" d="M519 0 L519 122 L202 122 C371 230 517 374 517 537 C517 700 436 780 274 780 C121 780 42 687 42 565 C42 516 48 485 55 444 L208 444 C206 459 197 504 197 541 C197 630 219 668 273 668 C329 668 351 638 351 540 C351 404 250 272 37 133 L37 0 L519 0 Z " />
<glyph glyph-name="three" unicode="3" horiz-adv-x="550" d="M520 253 C520 405 438 477 364 477 C335 477 313 474 290 462 L482 646 L482 768 L58 768 L58 650 L339 650 L119 438 L201 364 C227 384 249 394 274 394 C344 394 379 357 379 254 C379 134 333 99 273 99 C222 99 181 126 181 199 C181 230 186 247 190 266 L49 256 C43 234 37 202 37 164 C37 60 125 -12 261 -12 C408 -12 520 51 520 253 L520 253 Z " />
<glyph glyph-name="four" unicode="4" horiz-adv-x="550" d="M530 160 L530 280 L456 280 L456 768 L271 768 L20 309 L20 160 L318 160 L318 0 L456 0 L456 160 L530 160 Z M318 280 L137 280 L318 586 L318 280 Z " />
<glyph glyph-name="five" unicode="5" horiz-adv-x="550" d="M520 253 C520 419 461 517 342 517 C268 517 214 494 188 437 L206 649 L472 649 L478 768 L81 768 L59 351 L207 343 C214 377 228 408 285 408 C342 408 361 372 361 254 C361 135 340 93 274 93 C214 93 194 127 194 186 C194 201 196 220 199 238 L51 239 C47 218 44 188 44 166 C44 48 130 -12 274 -12 C416 -12 520 55 520 253 L520 253 Z " />
<glyph glyph-name="six" unicode="6" horiz-adv-x="550" d="M520 246 C520 435 434 485 324 485 C256 485 211 446 183 408 C180 425 180 488 180 512 C180 597 188 674 268 674 C322 674 352 642 352 589 C352 575 351 571 349 560 L491 565 C494 578 496 586 496 609 C496 711 426 780 289 780 C102 780 34 685 34 385 C34 78 142 -12 286 -12 C428 -12 520 58 520 246 L520 246 Z M368 248 C368 135 343 95 286 95 C223 95 190 136 190 248 C190 359 216 382 279 382 C339 382 368 360 368 248 L368 248 Z " />
<glyph glyph-name="seven" unicode="7" horiz-adv-x="546" d="M513 768 L44 768 L34 639 L386 639 C276 536 139 321 139 78 C139 48 141 14 142 0 L321 0 C316 30 313 100 313 164 C313 306 351 486 507 642 L513 768 Z " />
<glyph glyph-name="eight" unicode="8" horiz-adv-x="550" d="M520 203 C520 316 467 386 405 395 C467 407 508 473 508 552 C508 696 424 780 274 780 C131 780 45 700 45 552 C45 466 89 406 142 395 C81 383 27 319 27 203 C27 41 136 -12 274 -12 C435 -12 520 47 520 203 L520 203 Z M349 566 C349 484 329 442 274 442 C218 442 205 490 205 566 C205 634 220 677 274 677 C322 677 349 640 349 566 L349 566 Z M359 217 C359 132 334 94 274 94 C218 94 191 130 191 217 C191 305 208 348 274 348 C339 348 359 303 359 217 L359 217 Z " />
<glyph glyph-name="nine" unicode="9" horiz-adv-x="550" d="M514 382 C514 689 429 779 275 779 C125 779 27 709 27 521 C27 332 113 282 223 282 C291 282 337 321 365 359 C367 342 364 279 363 255 C359 170 360 99 279 99 C225 99 196 125 196 178 C196 192 197 196 199 207 L57 202 C54 189 52 181 52 158 C52 56 132 -13 258 -13 C445 -13 514 82 514 382 L514 382 Z M357 519 C357 416 323 385 268 385 C216 385 179 414 179 519 C179 625 213 672 271 672 C333 672 357 623 357 519 L357 519 Z " />
<glyph glyph-name="colon" unicode="&#x3a;" horiz-adv-x="295" d="M245 359 L245 534 L48 534 L48 359 L245 359 Z M245 0 L245 175 L48 175 L48 0 L245 0 Z " />
<glyph glyph-name="semicolon" unicode="&#x3b;" horiz-adv-x="295" d="M246 355 L246 530 L49 530 L49 355 L246 355 Z M247 0 L247 175 L48 175 L48 0 L147 0 C147 -11 147 -21 146 -32 C142 -73 120 -101 65 -115 L78 -166 C106 -163 141 -153 168 -136 C217 -105 247 -69 247 0 L247 0 Z " />
<glyph glyph-name="less" unicode="&#x3c;" horiz-adv-x="481" d="M405 124 L405 215 L166 322 L405 429 L405 520 L68 370 L68 274 L405 124 Z " />
<glyph glyph-name="equal" unicode="&#x3d;" horiz-adv-x="559" d="M498 395 L498 515 L60 515 L60 395 L498 395 Z M498 155 L498 275 L60 275 L60 155 L498 155 Z " />
<glyph glyph-name="greater" unicode="&#x3e;" horiz-adv-x="481" d="M411 274 L411 370 L75 520 L75 429 L313 322 L75 215 L75 124 L411 274 Z " />
<glyph glyph-name="question" unicode="&#x3f;" horiz-adv-x="526" d="M505 548 C505 695 418 780 277 780 C118 780 48 709 48 624 C48 595 51 582 57 565 L207 565 C202 574 200 588 200 606 C200 654 221 673 261 673 C307 673 331 643 331 543 C331 414 313 397 274 397 C241 397 218 410 201 455 L95 455 L95 235 L218 235 L218 326 C240 300 267 280 330 280 C420 280 505 347 505 548 L505 548 Z M263 0 L263 175 L73 175 L73 0 L263 0 Z " />
<glyph glyph-name="at" unicode="&#x40;" horiz-adv-x="961" d="M896 389 C896 645 737 780 495 780 C221 780 69 586 69 311 C69 19 228 -143 495 -143 C602 -143 686 -103 756 -43 L717 -3 C666 -50 584 -88 500 -88 C290 -88 147 44 147 310 C147 553 286 732 486 732 C686 732 822 616 822 388 C822 217 770 127 695 127 C661 127 649 143 649 169 C649 175 649 181 650 187 L690 428 C702 498 658 588 519 588 C360 588 307 518 307 426 C307 419 310 412 310 412 L428 423 C428 423 427 433 427 439 C427 477 440 514 496 514 C538 514 568 488 559 429 L554 395 C376 398 255 332 255 186 C255 115 312 72 385 72 C486 72 522 113 554 154 C553 115 595 72 668 72 C822 72 896 191 896 389 L896 389 Z M544 332 C544 332 532 255 530 243 C520 190 497 152 429 152 C392 152 375 169 375 214 C375 320 474 338 544 332 L544 332 Z " />
<glyph glyph-name="A" unicode="A" horiz-adv-x="669" d="M652 0 L439 768 L228 768 L16 0 L185 0 L225 157 L434 157 L478 0 L652 0 Z M399 284 L257 284 C257 284 277 373 291 430 C305 483 323 556 328 595 C333 556 351 483 364 431 C378 374 399 284 399 284 L399 284 Z " />
<glyph glyph-name="B" unicode="B" horiz-adv-x="670" d="M625 217 C625 335 546 394 464 403 C546 416 599 467 599 567 C599 691 502 768 342 768 L82 768 L82 0 L377 0 C503 0 625 46 625 217 L625 217 Z M425 558 C425 488 381 458 319 458 L249 458 L249 654 L317 654 C383 654 425 630 425 558 L425 558 Z M451 230 C451 149 407 115 333 115 L249 115 L249 348 L331 348 C401 348 451 300 451 230 L451 230 Z " />
<glyph glyph-name="C" unicode="C" horiz-adv-x="683" d="M648 281 L489 294 C498 174 471 105 362 105 C262 105 222 159 222 378 C222 607 258 665 357 665 C448 665 484 612 477 495 L641 505 C647 630 602 780 359 780 C166 780 45 668 45 370 C45 84 171 -12 368 -12 C568 -12 656 100 648 281 L648 281 Z " />
<glyph glyph-name="D" unicode="D" horiz-adv-x="712" d="M675 362 C675 643 542 768 348 768 L74 768 L74 0 L339 0 C551 0 675 134 675 362 L675 362 Z M498 380 C498 176 436 117 321 117 L236 117 L236 651 L308 651 C419 651 498 586 498 380 L498 380 Z " />
<glyph glyph-name="E" unicode="E" horiz-adv-x="609" d="M572 0 L572 124 L251 124 L251 330 L517 330 L517 460 L251 460 L251 645 L547 645 L547 768 L82 768 L82 0 L572 0 Z " />
<glyph glyph-name="F" unicode="F" horiz-adv-x="571" d="M535 647 L535 768 L82 768 L82 0 L251 0 L251 320 L510 320 L510 451 L251 451 L251 647 L535 647 Z " />
<glyph glyph-name="G" unicode="G" horiz-adv-x="708" d="M645 0 L645 394 L368 394 L368 271 L497 271 C497 271 497 251 496 239 C489 146 453 96 355 96 C263 96 221 147 221 363 C221 605 252 672 357 672 C451 672 487 608 478 506 L640 516 C646 672 556 780 357 780 C162 780 45 667 45 362 C45 68 174 -12 350 -12 C420 -12 481 14 517 52 L531 67 L575 0 L645 0 Z " />
<glyph glyph-name="H" unicode="H" horiz-adv-x="730" d="M657 0 L657 768 L486 768 L486 471 L244 471 L244 768 L74 768 L74 0 L244 0 L244 336 L486 336 L486 0 L657 0 Z " />
<glyph glyph-name="I" unicode="I" horiz-adv-x="338" d="M257 0 L257 768 L84 768 L84 0 L257 0 Z " />
<glyph glyph-name="J" unicode="J" horiz-adv-x="587" d="M510 219 L510 768 L338 768 L338 241 C338 149 312 112 252 112 C195 112 169 135 169 192 C169 214 173 244 179 266 L33 258 C25 238 19 211 19 187 C19 79 92 -12 252 -12 C428 -12 510 72 510 219 L510 219 Z " />
<glyph glyph-name="K" unicode="K" horiz-adv-x="689" d="M676 0 L392 412 L635 768 L450 768 L253 470 L253 768 L82 768 L82 0 L253 0 L253 337 L478 0 L676 0 Z " />
<glyph glyph-name="L" unicode="L" horiz-adv-x="564" d="M531 0 L531 136 L253 136 L253 768 L82 768 L82 0 L531 0 Z " />
<glyph glyph-name="M" unicode="M" horiz-adv-x="921" d="M838 0 L838 768 L595 768 C595 768 527 486 483 305 C474 267 460 176 460 176 C460 176 445 267 436 305 C394 485 326 768 326 768 L82 768 L82 0 L240 0 C240 0 240 283 240 464 C240 512 236 587 236 587 C236 587 254 500 262 464 C305 283 370 0 370 0 L550 0 C550 0 617 280 659 459 C668 497 687 587 687 587 C687 587 683 509 683 459 C683 280 683 0 683 0 L838 0 Z " />
<glyph glyph-name="N" unicode="N" horiz-adv-x="720" d="M638 0 L638 768 L485 768 C485 768 485 519 485 360 C485 340 491 278 491 278 C491 278 468 340 458 359 C372 519 235 768 235 768 L82 768 L82 0 L235 0 C235 0 235 238 235 390 C235 415 231 474 231 474 C231 474 256 418 268 395 C352 241 485 0 485 0 L638 0 Z " />
<glyph glyph-name="O" unicode="O" horiz-adv-x="723" d="M686 385 C686 650 575 780 361 780 C166 780 36 660 36 385 C36 105 140 -12 361 -12 C562 -12 686 98 686 385 L686 385 Z M509 383 C509 167 453 102 354 102 C271 102 213 167 213 383 C213 589 254 668 355 668 C447 668 509 593 509 383 L509 383 Z " />
<glyph glyph-name="P" unicode="P" horiz-adv-x="639" d="M615 530 C615 708 499 768 323 768 L82 768 L82 0 L253 0 L253 289 L342 289 C500 289 615 355 615 530 L615 530 Z M434 530 C434 445 389 409 329 409 L253 409 L253 651 L326 651 C393 651 434 615 434 530 L434 530 Z " />
<glyph glyph-name="Q" unicode="Q" horiz-adv-x="723" d="M685 385 C685 651 575 780 361 780 C166 780 37 666 37 385 C37 124 122 17 287 -2 C273 -17 268 -40 268 -53 C268 -152 339 -191 445 -191 C522 -191 571 -154 594 -126 L543 -55 C518 -82 491 -102 458 -102 C419 -102 385 -86 385 -40 C385 -29 392 -14 408 -4 C580 9 685 115 685 385 L685 385 Z M508 383 C508 162 456 105 354 105 C255 105 215 181 215 383 C215 570 239 668 355 668 C455 668 508 583 508 383 L508 383 Z " />
<glyph glyph-name="R" unicode="R" horiz-adv-x="678" d="M630 0 C616 13 604 54 602 86 C601 105 599 136 598 166 C594 292 563 358 464 373 C542 387 617 421 617 539 C617 688 526 768 351 768 L82 768 L82 0 L253 0 L253 303 L328 303 C399 303 420 262 421 208 C422 170 421 111 423 88 C425 53 432 15 453 0 L630 0 Z M441 538 C441 454 396 429 320 429 L253 429 L253 650 L300 650 C389 650 441 616 441 538 L441 538 Z " />
<glyph glyph-name="S" unicode="S" horiz-adv-x="631" d="M601 227 C601 318 551 396 442 440 L316 491 C239 522 209 545 209 597 C209 642 243 671 302 671 C363 671 399 647 399 575 C399 560 397 548 394 538 L544 542 C550 559 554 581 554 595 C554 705 458 780 315 780 C140 780 53 689 53 564 C53 478 86 407 178 372 L291 329 C407 285 437 249 437 196 C437 129 393 100 316 100 C236 100 207 136 207 191 C207 215 212 229 217 243 L57 238 C52 220 47 204 47 178 C47 60 140 -12 315 -12 C505 -12 601 68 601 227 L601 227 Z " />
<glyph glyph-name="T" unicode="T" horiz-adv-x="599" d="M573 642 L573 768 L24 768 L24 642 L213 642 L213 0 L384 0 L384 642 L573 642 Z " />
<glyph glyph-name="U" unicode="U" horiz-adv-x="713" d="M640 238 L640 768 L474 768 L474 255 C474 172 463 109 361 109 C270 109 250 159 250 255 L250 768 L81 768 L81 238 C81 84 145 -12 359 -12 C562 -12 640 84 640 238 L640 238 Z " />
<glyph glyph-name="V" unicode="V" horiz-adv-x="656" d="M639 768 L471 768 L338 202 L332 202 L189 768 L16 768 L227 0 L429 0 L639 768 Z " />
<glyph glyph-name="W" unicode="W" horiz-adv-x="934" d="M912 768 L747 768 L661 250 L566 768 L376 768 L279 250 L191 768 L22 768 L185 0 L367 0 L471 510 L566 0 L750 0 L912 768 Z " />
<glyph glyph-name="X" unicode="X" horiz-adv-x="676" d="M654 0 L429 400 L650 768 L480 768 L348 545 L223 768 L40 768 L250 394 L15 0 L184 0 L331 249 L472 0 L654 0 Z " />
<glyph glyph-name="Y" unicode="Y" horiz-adv-x="618" d="M613 768 L447 768 L318 472 L189 768 L5 768 L224 308 L224 0 L395 0 L395 308 L613 768 Z " />
<glyph glyph-name="Z" unicode="Z" horiz-adv-x="626" d="M569 0 L569 119 L215 119 L569 628 L569 768 L69 768 L69 649 L395 649 L44 146 L44 0 L569 0 Z " />
<glyph glyph-name="bracketleft" unicode="&#x5b;" horiz-adv-x="428" d="M379 -114 L379 -12 L229 -12 L229 666 L379 666 L379 768 L75 768 L75 -114 L379 -114 Z " />
<glyph glyph-name="backslash" unicode="&#x5c;" horiz-adv-x="524" d="M519 0 L112 768 L4 768 L407 0 L519 0 Z " />
<glyph glyph-name="bracketright" unicode="&#x5d;" horiz-adv-x="428" d="M334 -114 L334 768 L30 768 L30 666 L179 666 L179 -12 L30 -12 L30 -114 L334 -114 Z " />
<glyph glyph-name="asciicircum" unicode="&#x5e;" horiz-adv-x="577" d="M469 574 L342 768 L230 768 L104 574 L207 574 L286 678 L366 574 L469 574 Z " />
<glyph glyph-name="underscore" unicode="&#x5f;" horiz-adv-x="642" d="M642 -200 L642 -103 L0 -103 L0 -200 L642 -200 Z " />
<glyph glyph-name="grave" unicode="&#x60;" horiz-adv-x="396" d="M333 626 L252 751 L47 751 L47 740 L244 626 L333 626 Z " />
<glyph glyph-name="a" unicode="a" horiz-adv-x="648" d="M627 18 L627 95 C627 95 615 95 609 95 C562 95 540 101 540 143 L540 419 C540 538 458 592 306 592 C148 592 63 535 63 448 C63 420 68 406 70 399 L217 406 C213 412 209 418 209 438 C209 473 234 505 299 505 C384 505 385 445 387 388 C363 370 311 351 213 328 C125 307 40 253 40 161 C40 58 103 -12 229 -12 C308 -12 374 12 411 64 C421 7 461 -7 514 -7 C563 -7 598 5 627 18 L627 18 Z M385 293 C385 293 384 210 383 183 C381 129 352 84 286 84 C241 84 201 105 201 155 C201 204 222 243 317 267 C344 274 372 285 385 293 L385 293 Z " />
<glyph glyph-name="b" unicode="b" horiz-adv-x="659" d="M616 289 C616 519 500 586 385 586 C299 586 253 539 232 493 L232 768 L73 768 L73 0 L141 0 L201 80 C225 37 277 -7 370 -7 C508 -7 616 69 616 289 L616 289 Z M454 287 C454 130 400 100 339 100 C274 100 233 149 233 288 C233 408 272 476 338 476 C409 476 454 444 454 287 L454 287 Z " />
<glyph glyph-name="c" unicode="c" horiz-adv-x="603" d="M555 152 C555 183 552 207 547 226 L401 232 C403 223 405 207 405 194 C405 127 376 100 311 100 C241 100 206 149 206 301 C206 437 242 485 312 485 C365 485 393 455 393 402 C393 387 392 378 389 368 L541 372 C544 385 544 401 544 420 C544 511 473 592 320 592 C153 592 43 497 43 266 C43 62 140 -12 310 -12 C466 -12 555 78 555 152 L555 152 Z " />
<glyph glyph-name="d" unicode="d" horiz-adv-x="659" d="M586 0 L586 768 L427 768 L427 505 C394 561 345 581 283 581 C151 581 43 479 43 283 C43 75 133 -8 280 -8 C351 -8 399 18 432 69 L432 0 L586 0 Z M423 286 C423 142 384 95 317 95 C249 95 205 141 205 287 C205 421 247 480 315 480 C355 480 381 463 397 425 C412 389 423 338 423 286 L423 286 Z " />
<glyph glyph-name="e" unicode="e" horiz-adv-x="606" d="M562 144 C563 157 563 167 561 178 L411 188 C411 188 411 174 410 165 C407 122 378 95 313 95 C250 95 201 141 202 255 L553 255 C557 282 557 317 554 357 C540 517 444 592 311 592 C162 592 43 492 43 279 C43 71 147 -12 313 -12 C488 -12 557 76 562 144 L562 144 Z M404 348 L202 348 C207 438 241 482 309 482 C361 482 392 452 401 393 C405 377 405 361 404 348 L404 348 Z " />
<glyph glyph-name="f" unicode="f" horiz-adv-x="390" d="M429 696 C429 745 376 790 258 790 C152 790 92 730 92 642 C92 613 93 598 98 574 L15 574 L15 480 L95 480 L95 0 L260 0 L260 480 L365 480 L365 574 L245 574 C236 595 233 613 233 653 C233 682 249 702 275 702 C305 702 320 693 320 671 C320 660 319 650 317 642 L418 634 C422 645 429 667 429 696 L429 696 Z " />
<glyph glyph-name="g" unicode="g" horiz-adv-x="603" d="M596 -10 C596 108 521 173 372 165 L266 159 C176 154 161 160 161 180 C161 200 176 213 223 224 C247 218 278 214 328 214 C450 214 553 296 553 399 C553 474 517 519 473 543 L555 683 L406 683 L389 574 C370 579 351 584 302 584 C152 584 53 511 53 399 C53 334 91 270 159 240 C70 224 29 179 29 127 C29 85 54 30 145 24 C51 6 21 -27 21 -69 C21 -142 109 -188 290 -188 C508 -188 596 -108 596 -10 L596 -10 Z M394 399 C394 322 362 296 302 296 C250 296 212 326 212 399 C212 469 238 504 302 504 C364 504 394 469 394 399 L394 399 Z M475 -31 C475 -73 426 -105 294 -105 C177 -105 147 -87 147 -47 C147 -23 178 3 223 16 C257 20 302 24 349 24 C445 24 475 19 475 -31 L475 -31 Z " />
<glyph glyph-name="h" unicode="h" horiz-adv-x="657" d="M586 0 L586 421 C586 531 526 585 415 585 C318 585 261 542 232 473 L232 768 L73 768 L73 0 L238 0 L238 298 C238 407 273 467 341 467 C408 467 421 436 421 350 L421 0 L586 0 Z " />
<glyph glyph-name="i" unicode="i" horiz-adv-x="310" d="M240 629 L240 778 L70 778 L70 629 L240 629 Z M238 0 L238 574 L73 574 L73 0 L238 0 Z " />
<glyph glyph-name="j" unicode="j" horiz-adv-x="310" d="M241 629 L241 778 L70 778 L70 629 L241 629 Z M238 -27 L238 574 L73 574 C73 574 73 186 73 61 C73 28 78 7 84 -11 C89 -29 96 -42 96 -60 C96 -84 79 -92 51 -92 C29 -92 -1 -81 -1 -53 C-1 -47 -1 -40 1 -32 L-93 -23 C-103 -34 -110 -53 -110 -68 C-110 -149 -16 -180 62 -180 C178 -180 238 -126 238 -27 L238 -27 Z " />
<glyph glyph-name="k" unicode="k" horiz-adv-x="586" d="M576 0 L384 371 L553 574 L386 574 L232 370 L232 768 L73 768 L73 0 L232 0 L232 192 L286 256 L410 0 L576 0 Z " />
<glyph glyph-name="l" unicode="l" horiz-adv-x="310" d="M238 0 L238 768 L73 768 L73 0 L238 0 Z " />
<glyph glyph-name="m" unicode="m" horiz-adv-x="983" d="M913 0 L913 421 C913 531 862 585 751 585 C664 585 610 551 573 476 C554 560 495 585 408 585 C332 585 274 556 236 476 L236 574 L73 574 L73 0 L238 0 L238 298 C238 407 277 467 331 467 C392 467 410 441 410 350 L410 0 L575 0 L575 298 C575 397 607 467 673 467 C729 467 748 441 748 350 L748 0 L913 0 Z " />
<glyph glyph-name="n" unicode="n" horiz-adv-x="657" d="M595 0 L595 421 C595 530 526 585 415 585 C318 585 256 545 224 476 L224 574 L64 574 L64 0 L229 0 L229 298 C229 407 274 467 341 467 C405 467 430 441 430 350 L430 0 L595 0 Z " />
<glyph glyph-name="o" unicode="o" horiz-adv-x="631" d="M597 278 C597 470 486 592 316 592 C151 592 34 482 34 278 C34 80 140 -12 316 -12 C483 -12 597 80 597 278 L597 278 Z M434 282 C434 159 403 100 316 100 C238 100 197 157 197 282 C197 429 242 485 316 485 C392 485 434 433 434 282 L434 282 Z " />
<glyph glyph-name="p" unicode="p" horiz-adv-x="659" d="M625 289 C625 519 495 586 379 586 C298 586 236 540 219 485 L219 574 L64 574 L64 -164 L223 -164 L223 61 C250 24 290 -7 370 -7 C508 -7 625 74 625 289 L625 289 Z M463 287 C463 143 409 102 344 102 C267 102 223 157 223 288 C223 426 269 473 338 473 C414 473 463 433 463 287 L463 287 Z " />
<glyph glyph-name="q" unicode="q" horiz-adv-x="659" d="M586 -164 L586 574 L498 574 L447 498 C423 543 384 581 291 581 C153 581 43 482 43 276 C43 82 146 -9 282 -9 C348 -9 400 17 427 64 L427 -164 L586 -164 Z M426 289 C426 138 382 91 317 91 C243 91 205 144 205 282 C205 432 251 476 310 476 C362 476 426 445 426 289 L426 289 Z " />
<glyph glyph-name="r" unicode="r" horiz-adv-x="560" d="M550 423 C553 479 543 587 395 587 C302 587 253 524 234 481 C234 516 234 574 234 574 L73 574 L73 0 L238 0 L238 311 C238 415 277 457 345 457 C396 457 418 428 418 395 C418 387 417 380 415 372 L550 423 Z " />
<glyph glyph-name="s" unicode="s" horiz-adv-x="565" d="M531 170 C531 269 480 321 370 351 L276 377 C213 394 200 412 200 435 C200 465 218 494 274 494 C326 494 352 473 352 441 C352 428 350 418 345 410 L497 418 C502 427 505 438 505 454 C505 532 421 592 274 592 C144 592 41 526 41 423 C41 325 101 285 191 259 L279 234 C349 214 364 183 364 153 C364 114 339 87 284 87 C214 87 185 116 185 153 C185 165 186 176 191 190 L48 199 C40 179 33 160 33 135 C33 53 125 -12 284 -12 C450 -12 531 62 531 170 L531 170 Z " />
<glyph glyph-name="t" unicode="t" horiz-adv-x="476" d="M456 28 L456 124 C425 111 385 98 344 98 C286 98 263 114 263 161 L263 478 L426 478 L426 574 L263 574 L263 732 L102 732 L102 574 L7 574 L7 478 L102 478 L102 159 C102 42 178 -7 284 -7 C363 -7 431 16 456 28 L456 28 Z " />
<glyph glyph-name="u" unicode="u" horiz-adv-x="657" d="M584 0 L584 574 L419 574 L419 276 C419 167 383 107 316 107 C242 107 235 149 235 224 L235 574 L70 574 L70 166 C70 29 144 -11 242 -11 C334 -11 395 36 423 99 L423 0 L584 0 Z " />
<glyph glyph-name="v" unicode="v" horiz-adv-x="596" d="M577 574 L405 574 L297 140 L191 574 L8 574 L202 0 L387 0 L577 574 Z " />
<glyph glyph-name="w" unicode="w" horiz-adv-x="843" d="M835 574 L664 574 L602 206 L488 574 L359 574 L261 206 L186 574 L8 574 L176 0 L318 0 L422 361 L532 0 L669 0 L835 574 Z " />
<glyph glyph-name="x" unicode="x" horiz-adv-x="596" d="M591 0 L384 303 L571 574 L401 574 L306 404 L218 574 L26 574 L213 297 L5 0 L177 0 L290 199 L398 0 L591 0 Z " />
<glyph glyph-name="y" unicode="y" horiz-adv-x="585" d="M577 574 L408 574 L298 124 L192 574 L8 574 L205 -3 C223 -55 201 -81 156 -81 C119 -81 109 -65 109 -45 C109 -37 110 -29 112 -21 L-14 -21 C-19 -33 -20 -45 -20 -56 C-20 -124 44 -180 152 -180 C284 -180 341 -131 383 -5 L577 574 Z " />
<glyph glyph-name="z" unicode="z" horiz-adv-x="564" d="M511 0 L511 116 L213 116 L511 438 L511 574 L55 574 L55 458 L338 458 L40 129 L40 0 L511 0 Z " />
<glyph glyph-name="braceleft" unicode="&#x7b;" horiz-adv-x="420" d="M374 -114 L374 -16 L319 -16 C285 -16 276 9 276 38 C276 118 276 172 276 264 C276 316 250 346 208 353 C250 359 276 387 276 436 C276 488 276 554 276 616 C276 640 287 670 319 670 L374 670 L374 768 L258 768 C154 768 122 715 122 632 C122 597 122 488 122 457 C122 409 118 398 69 398 L42 398 L42 308 L69 308 C110 308 122 296 122 256 C122 187 122 90 122 19 C122 -84 165 -114 258 -114 L374 -114 Z " />
<glyph glyph-name="bar" unicode="&#x7c;" horiz-adv-x="267" d="M191 -200 L191 800 L76 800 L76 -200 L191 -200 Z " />
<glyph glyph-name="braceright" unicode="&#x7d;" horiz-adv-x="420" d="M390 308 L390 398 L363 398 C315 398 310 409 310 457 C310 488 310 597 310 632 C310 715 278 768 174 768 L58 768 L58 670 L113 670 C145 670 156 640 156 616 C156 554 156 488 156 436 C156 385 178 361 224 353 C179 346 156 316 156 264 C156 172 156 118 156 38 C156 9 147 -16 113 -16 L58 -16 L58 -114 L174 -114 C267 -114 310 -84 310 19 C310 90 310 187 310 256 C310 296 322 308 363 308 L390 308 Z " />
<glyph glyph-name="asciitilde" unicode="&#x7e;" horiz-adv-x="577" d="M504 699 C504 734 497 750 489 764 L434 764 C445 729 434 694 389 694 C370 694 356 702 339 713 L307 734 C277 754 244 773 190 773 C110 773 81 734 81 674 C81 646 86 627 95 613 L151 613 C148 621 146 629 146 637 C146 660 158 678 194 678 C216 678 234 669 253 655 L283 633 C302 619 339 600 384 600 C464 600 504 637 504 699 L504 699 Z " />
<glyph glyph-name="nbspace" unicode="&#xa0;" horiz-adv-x="135" d="" />
<glyph glyph-name="exclamdown" unicode="&#xa1;" horiz-adv-x="282" d="M233 602 L233 768 L53 768 L53 602 L233 602 Z M230 0 L230 240 L198 526 L93 526 L56 240 L56 0 L230 0 Z " />
<glyph glyph-name="cent" unicode="&#xa2;" horiz-adv-x="604" d="M553 292 C553 323 550 350 544 369 L399 375 C403 366 405 347 405 334 C405 258 392 226 344 221 L344 607 C378 603 393 577 393 516 C393 501 392 493 389 482 L539 486 C541 499 542 515 542 534 C542 631 481 708 344 715 L344 768 L278 768 L278 714 C149 702 45 610 45 390 C45 206 129 121 278 113 L278 42 L344 42 L344 113 C483 123 553 217 553 292 L553 292 Z M278 221 C223 228 208 273 208 425 C208 560 233 602 278 608 L278 221 Z " />
<glyph glyph-name="sterling" unicode="&#xa3;" horiz-adv-x="672" d="M668 187 C668 202 663 220 659 235 L510 252 C511 240 513 229 513 216 C513 147 503 113 445 113 C409 113 386 121 351 135 C381 170 397 214 397 266 C397 280 395 303 393 314 L505 314 L505 428 L366 428 C345 470 330 533 330 587 C330 637 359 666 400 666 C453 666 465 634 465 582 C465 560 462 530 458 508 L618 521 C623 535 626 558 626 577 C626 716 534 780 403 780 C257 780 167 695 167 559 C167 502 184 460 203 428 L118 428 L118 314 L243 314 C250 290 253 268 253 234 C253 210 249 192 240 174 C216 186 178 194 137 194 C69 194 12 149 12 78 C12 27 58 -11 123 -11 C179 -11 223 6 266 41 C335 7 386 -12 476 -12 C582 -12 668 47 668 187 L668 187 Z M185 75 C166 58 141 52 122 52 C108 52 96 58 96 69 C96 81 104 92 124 92 C152 92 167 82 185 75 L185 75 Z " />
<glyph glyph-name="currency" unicode="&#xa4;" horiz-adv-x="652" d="M593 331 C593 479 472 600 324 600 C176 600 55 479 55 331 C55 183 176 63 324 63 C472 63 593 183 593 331 L593 331 Z M535 330 L418 246 L363 128 L310 239 L120 254 L208 364 L151 470 L306 441 L382 534 L434 406 L535 330 Z " />
<glyph glyph-name="yen" unicode="&#xa5;" horiz-adv-x="618" d="M613 768 L447 768 L318 472 L189 768 L5 768 L112 543 L14 543 L14 458 L153 458 L201 357 L14 357 L14 272 L224 272 L224 0 L395 0 L395 272 L591 272 L591 357 L418 357 L465 458 L591 458 L591 543 L506 543 L613 768 Z " />
<glyph glyph-name="brokenbar" unicode="&#xa6;" horiz-adv-x="652" d="M593 331 C593 479 472 600 324 600 C176 600 55 479 55 331 C55 183 176 63 324 63 C472 63 593 183 593 331 L593 331 Z M535 330 L418 246 L363 128 L310 239 L120 254 L208 364 L151 470 L306 441 L382 534 L434 406 L535 330 Z " />
<glyph glyph-name="section" unicode="&#xa7;" horiz-adv-x="572" d="M530 103 C530 165 502 208 460 238 C499 262 530 293 530 361 C530 454 468 501 363 531 L273 557 C202 578 188 593 188 626 C188 656 207 690 274 690 C340 690 367 666 367 627 C367 613 362 599 359 589 L497 597 C501 608 505 620 505 638 C505 726 414 780 272 780 C143 780 48 725 48 611 C48 527 88 496 131 475 C76 449 48 405 48 353 C48 263 104 224 191 198 L275 173 C369 145 380 127 380 85 C380 40 352 9 276 9 C198 9 178 49 178 91 C178 103 182 115 185 129 L57 136 C48 116 41 90 41 65 C41 -29 129 -82 281 -82 C446 -82 530 -17 530 103 L530 103 Z M380 339 C380 315 368 297 346 285 L239 316 C205 326 188 337 188 366 C188 407 217 426 258 429 L335 404 C365 394 380 379 380 339 L380 339 Z " />
<glyph glyph-name="dieresis" unicode="&#xa8;" horiz-adv-x="396" d="M408 626 L408 752 L258 752 L258 626 L408 626 Z M133 626 L133 752 L-15 752 L-15 626 L133 626 Z " />
<glyph glyph-name="copyright" unicode="&#xa9;" horiz-adv-x="779" d="M743 397 C744 592 585 752 391 752 C195 752 37 592 37 397 C37 203 196 42 391 42 C584 42 742 203 743 397 L743 397 Z M680 397 C680 233 551 100 391 100 C229 100 99 233 99 397 C99 558 230 695 391 695 C551 695 680 558 680 397 L680 397 Z M530 339 L453 346 C457 282 444 244 391 244 C343 244 323 273 323 389 C323 512 342 542 390 542 C433 542 451 514 448 452 L527 457 C530 524 511 604 390 604 C290 604 239 544 239 385 C239 233 288 182 395 182 C495 182 533 242 530 339 L530 339 Z " />
<glyph glyph-name="ordfeminine" unicode="&#xaa;" horiz-adv-x="514" d="M445 427 L445 475 C445 475 438 475 433 475 C399 475 395 485 395 504 L395 674 C395 748 341 780 247 780 C152 780 97 746 97 692 C97 675 101 666 103 662 L192 666 C191 668 189 673 189 686 C189 708 203 727 243 727 C296 727 297 691 298 655 C281 644 250 631 190 618 C132 606 85 573 85 515 C85 452 119 409 199 409 C248 409 289 424 312 456 C319 420 342 411 375 411 C405 411 427 420 445 427 L445 427 Z M443 319 L443 374 L87 374 L87 319 L443 319 Z M297 597 L295 529 C294 497 276 468 236 468 C208 468 182 481 182 512 C182 542 196 565 255 580 C272 585 288 592 297 597 L297 597 Z " />
<glyph glyph-name="guillemotleft" unicode="&#xab;" horiz-adv-x="694" d="M643 36 L643 156 L443 276 L643 395 L643 515 L353 344 L353 209 L643 36 Z M349 36 L349 156 L152 276 L349 395 L349 515 L60 344 L60 209 L349 36 Z " />
<glyph glyph-name="logicalnot" unicode="&#xac;" horiz-adv-x="652" d="M593 331 C593 479 472 600 324 600 C176 600 55 479 55 331 C55 183 176 63 324 63 C472 63 593 183 593 331 L593 331 Z M535 330 L418 246 L363 128 L310 239 L120 254 L208 364 L151 470 L306 441 L382 534 L434 406 L535 330 Z " />
<glyph glyph-name="registered" unicode="&#xae;" horiz-adv-x="779" d="M743 397 C743 592 585 752 391 752 C195 752 37 592 37 397 C37 203 196 42 391 42 C584 42 743 203 743 397 L743 397 Z M680 397 C680 233 551 100 391 100 C229 100 99 233 99 397 C99 558 230 695 391 695 C551 695 680 558 680 397 L680 397 Z M530 468 C530 569 474 595 406 595 L262 595 L262 188 L341 188 L341 347 L401 347 C423 347 442 334 442 306 C442 285 442 288 442 237 C442 212 446 199 449 188 L526 188 C523 198 520 217 520 233 C518 319 519 366 445 375 C501 381 530 419 530 468 L530 468 Z M441 467 C441 425 431 402 401 402 L341 402 L341 539 L400 539 C423 539 441 521 441 467 L441 467 Z " />
<glyph glyph-name="macron" unicode="&#xaf;" horiz-adv-x="396" d="M342 643 L342 729 L54 729 L54 643 L342 643 Z " />
<glyph glyph-name="degree" unicode="&#xb0;" horiz-adv-x="473" d="M385 645 C385 720 319 780 236 780 C154 780 88 720 88 645 C88 570 154 510 236 510 C319 510 385 570 385 645 L385 645 Z M310 645 C310 608 280 576 236 576 C192 576 163 608 163 645 C163 682 191 714 236 714 C280 714 310 682 310 645 L310 645 Z " />
<glyph glyph-name="plusminus" unicode="&#xb1;" horiz-adv-x="1091" d="M1019 0 L1019 768 L854 768 L854 0 L1019 0 Z M819 696 C819 747 774 790 649 790 C542 790 483 730 483 642 C483 613 484 598 488 574 L406 574 L406 480 L485 480 L485 0 L650 0 L650 480 L756 480 L756 574 L636 574 C627 595 624 613 624 653 C624 682 639 702 665 702 C695 702 711 693 711 671 C711 660 709 650 707 642 L808 634 C813 645 819 667 819 696 L819 696 Z M429 696 C429 744 386 790 258 790 C152 790 92 730 92 642 C92 613 93 598 98 574 L15 574 L15 480 L95 480 L95 0 L260 0 L260 480 L365 480 L365 574 L245 574 C236 595 233 613 233 653 C233 682 249 702 275 702 C305 702 320 693 320 671 C320 660 319 650 317 642 L418 634 C422 645 429 667 429 696 L429 696 Z " />
<glyph glyph-name="twosuperior" unicode="&#xb2;" horiz-adv-x="652" d="M593 331 C593 479 472 600 324 600 C176 600 55 479 55 331 C55 183 176 63 324 63 C472 63 593 183 593 331 L593 331 Z M535 330 L418 246 L363 128 L310 239 L120 254 L208 364 L151 470 L306 441 L382 534 L434 406 L535 330 Z " />
<glyph glyph-name="threesuperior" unicode="&#xb3;" horiz-adv-x="652" d="M593 331 C593 479 472 600 324 600 C176 600 55 479 55 331 C55 183 176 63 324 63 C472 63 593 183 593 331 L593 331 Z M535 330 L418 246 L363 128 L310 239 L120 254 L208 364 L151 470 L306 441 L382 534 L434 406 L535 330 Z " />
<glyph glyph-name="acute" unicode="&#xb4;" horiz-adv-x="396" d="M362 740 L362 751 L157 751 L76 626 L165 626 L362 740 Z " />
<glyph glyph-name="mu" unicode="&#xb5;" horiz-adv-x="652" d="M593 331 C593 479 472 600 324 600 C176 600 55 479 55 331 C55 183 176 63 324 63 C472 63 593 183 593 331 L593 331 Z M535 330 L418 246 L363 128 L310 239 L120 254 L208 364 L151 470 L306 441 L382 534 L434 406 L535 330 Z " />
<glyph glyph-name="paragraph" unicode="&#xb6;" horiz-adv-x="685" d="M608 -47 L608 768 L243 768 C146 768 24 703 24 512 C24 331 146 274 234 274 L323 274 L323 -47 L441 -47 L441 694 L491 694 L491 -47 L608 -47 Z M323 351 L309 351 C263 351 250 393 250 512 C250 661 266 694 311 694 L323 694 L323 351 Z " />
<glyph glyph-name="periodcentered" unicode="&#xb7;" horiz-adv-x="331" d="M266 386 C266 436 220 478 165 478 C110 478 64 436 64 386 C64 336 110 294 165 294 C220 294 266 336 266 386 L266 386 Z " />
<glyph glyph-name="cedilla" unicode="&#xb8;" horiz-adv-x="396" d="M334 -108 C334 -57 286 -20 205 -20 C188 -20 157 -20 157 -20 L134 -88 C181 -71 227 -78 227 -111 C227 -124 224 -142 185 -142 C122 -142 95 -127 68 -110 L27 -164 C55 -183 117 -200 189 -200 C282 -200 334 -164 334 -108 L334 -108 Z " />
<glyph glyph-name="onesuperior" unicode="&#xb9;" horiz-adv-x="652" d="M593 331 C593 479 472 600 324 600 C176 600 55 479 55 331 C55 183 176 63 324 63 C472 63 593 183 593 331 L593 331 Z M535 330 L418 246 L363 128 L310 239 L120 254 L208 364 L151 470 L306 441 L382 534 L434 406 L535 330 Z " />
<glyph glyph-name="ordmasculine" unicode="&#xba;" horiz-adv-x="514" d="M425 586 C425 700 367 780 257 780 C150 780 90 708 90 586 C90 467 148 405 257 405 C361 405 425 461 425 586 L425 586 Z M425 319 L425 374 L90 374 L90 319 L425 319 Z M326 588 C326 516 310 474 257 474 C209 474 189 511 189 588 C189 677 212 714 257 714 C305 714 326 672 326 588 L326 588 Z " />
<glyph glyph-name="guillemotright" unicode="&#xbb;" horiz-adv-x="694" d="M634 210 L634 345 L345 516 L345 396 L542 277 L345 157 L345 37 L634 210 Z M341 210 L341 345 L51 516 L51 396 L251 277 L51 157 L51 37 L341 210 Z " />
<glyph glyph-name="onequarter" unicode="&#xbc;" horiz-adv-x="652" d="M593 331 C593 479 472 600 324 600 C176 600 55 479 55 331 C55 183 176 63 324 63 C472 63 593 183 593 331 L593 331 Z M535 330 L418 246 L363 128 L310 239 L120 254 L208 364 L151 470 L306 441 L382 534 L434 406 L535 330 Z " />
<glyph glyph-name="onehalf" unicode="&#xbd;" horiz-adv-x="652" d="M593 331 C593 479 472 600 324 600 C176 600 55 479 55 331 C55 183 176 63 324 63 C472 63 593 183 593 331 L593 331 Z M535 330 L418 246 L363 128 L310 239 L120 254 L208 364 L151 470 L306 441 L382 534 L434 406 L535 330 Z " />
<glyph glyph-name="threequarters" unicode="&#xbe;" horiz-adv-x="652" d="M593 331 C593 479 472 600 324 600 C176 600 55 479 55 331 C55 183 176 63 324 63 C472 63 593 183 593 331 L593 331 Z M535 330 L418 246 L363 128 L310 239 L120 254 L208 364 L151 470 L306 441 L382 534 L434 406 L535 330 Z " />
<glyph glyph-name="questiondown" unicode="&#xbf;" horiz-adv-x="526" d="M466 593 L466 768 L276 768 L276 593 L466 593 Z M491 144 C491 173 488 186 482 203 L332 203 C337 194 339 180 339 162 C339 114 318 95 278 95 C232 95 208 118 208 225 C208 354 225 371 265 371 C298 371 321 358 338 313 L444 313 L444 533 L321 533 L321 442 C299 468 272 488 209 488 C101 488 34 421 34 220 C34 73 107 -12 262 -12 C421 -12 491 59 491 144 L491 144 Z " />
<glyph glyph-name="Agrave" unicode="&#xc0;" horiz-adv-x="669" d="M652 0 L439 768 L228 768 L16 0 L185 0 L225 157 L434 157 L478 0 L652 0 Z M399 284 L257 284 C257 284 277 373 291 430 C305 483 323 556 328 595 C333 556 351 483 364 431 C378 374 399 284 399 284 L399 284 Z M386 806 L305 931 L100 931 L100 920 L297 806 L386 806 Z " />
<glyph glyph-name="Aacute" unicode="&#xc1;" horiz-adv-x="669" d="M652 0 L439 768 L228 768 L16 0 L185 0 L225 157 L434 157 L478 0 L652 0 Z M399 284 L257 284 C257 284 277 373 291 430 C305 483 323 556 328 595 C333 556 351 483 364 431 C378 374 399 284 399 284 L399 284 Z M567 920 L567 931 L362 931 L281 806 L370 806 L567 920 Z " />
<glyph glyph-name="Acircumflex" unicode="&#xc2;" horiz-adv-x="669" d="M652 0 L439 768 L228 768 L16 0 L185 0 L225 157 L434 157 L478 0 L652 0 Z M399 284 L257 284 C257 284 277 373 291 430 C305 483 323 556 328 595 C333 556 351 483 364 431 C378 374 399 284 399 284 L399 284 Z M493 806 L404 931 L258 931 L169 806 L243 806 L331 858 L419 806 L493 806 Z " />
<glyph glyph-name="Atilde" unicode="&#xc3;" horiz-adv-x="669" d="M652 0 L439 768 L228 768 L16 0 L185 0 L225 157 L434 157 L478 0 L652 0 Z M399 284 L257 284 C257 284 277 373 291 430 C305 483 323 556 328 595 C333 556 351 483 364 431 C378 374 399 284 399 284 L399 284 Z M497 885 C497 910 489 930 483 941 L416 941 C419 934 421 926 421 917 C421 902 415 889 392 889 C372 889 345 904 330 914 C293 937 274 947 235 947 C158 947 141 909 141 867 C141 837 146 822 153 811 L220 811 C218 818 216 828 216 836 C216 848 222 859 245 859 C266 859 287 843 301 834 C332 815 359 805 399 805 C476 805 497 843 497 885 L497 885 Z " />
<glyph glyph-name="Adieresis" unicode="&#xc4;" horiz-adv-x="669" d="M652 0 L439 768 L228 768 L16 0 L185 0 L225 157 L434 157 L478 0 L652 0 Z M399 284 L257 284 C257 284 277 373 291 430 C305 483 323 556 328 595 C333 556 351 483 364 431 C378 374 399 284 399 284 L399 284 Z M545 806 L545 932 L395 932 L395 806 L545 806 Z M270 806 L270 932 L122 932 L122 806 L270 806 Z " />
<glyph glyph-name="Aring" unicode="&#xc5;" horiz-adv-x="669" d="M652 0 L450 728 C470 751 481 779 481 810 C481 885 414 946 331 946 C249 946 181 885 181 810 C181 777 195 747 216 724 L16 0 L185 0 L225 157 L434 157 L478 0 L652 0 Z M405 810 C405 773 372 741 331 741 C290 741 257 773 257 810 C257 847 290 879 331 879 C372 879 405 847 405 810 L405 810 Z M399 284 L257 284 C257 284 277 373 291 430 C305 483 323 556 328 595 C333 556 351 483 364 431 C378 374 399 284 399 284 L399 284 Z " />
<glyph glyph-name="AE" unicode="&#xc6;" horiz-adv-x="954" d="M916 0 L916 124 L595 124 L595 330 L861 330 L861 460 L595 460 L595 645 L891 645 L891 768 L342 768 L16 0 L185 0 L250 157 L432 157 L432 0 L916 0 Z M432 284 L293 284 L432 636 L432 284 Z " />
<glyph glyph-name="Ccedilla" unicode="&#xc7;" horiz-adv-x="683" d="M648 281 L489 294 C498 174 471 105 362 105 C262 105 222 159 222 378 C222 607 258 665 357 665 C448 665 484 612 477 495 L641 505 C647 630 602 780 359 780 C166 780 45 668 45 370 C45 84 171 -12 368 -12 C568 -12 656 100 648 281 L648 281 Z M478 -114 C478 -63 430 -26 349 -26 C332 -26 301 -26 301 -26 L278 -94 C325 -77 371 -84 371 -117 C371 -130 368 -148 329 -148 C266 -148 239 -133 212 -116 L171 -170 C199 -189 261 -206 333 -206 C426 -206 478 -170 478 -114 L478 -114 Z " />
<glyph glyph-name="Egrave" unicode="&#xc8;" horiz-adv-x="609" d="M572 0 L572 124 L251 124 L251 330 L517 330 L517 460 L251 460 L251 645 L547 645 L547 768 L82 768 L82 0 L572 0 Z M396 806 L315 931 L110 931 L110 920 L307 806 L396 806 Z " />
<glyph glyph-name="Eacute" unicode="&#xc9;" horiz-adv-x="609" d="M572 0 L572 124 L251 124 L251 330 L517 330 L517 460 L251 460 L251 645 L547 645 L547 768 L82 768 L82 0 L572 0 Z M535 920 L535 931 L330 931 L249 806 L338 806 L535 920 Z " />
<glyph glyph-name="Ecircumflex" unicode="&#xca;" horiz-adv-x="609" d="M572 0 L572 124 L251 124 L251 330 L517 330 L517 460 L251 460 L251 645 L547 645 L547 768 L82 768 L82 0 L572 0 Z M490 806 L401 931 L255 931 L166 806 L240 806 L328 858 L416 806 L490 806 Z " />
<glyph glyph-name="Edieresis" unicode="&#xcb;" horiz-adv-x="609" d="M572 0 L572 124 L251 124 L251 330 L517 330 L517 460 L251 460 L251 645 L547 645 L547 768 L82 768 L82 0 L572 0 Z M526 806 L526 932 L376 932 L376 806 L526 806 Z M251 806 L251 932 L103 932 L103 806 L251 806 Z " />
<glyph glyph-name="Igrave" unicode="&#xcc;" horiz-adv-x="337" d="M257 0 L257 768 L84 768 L84 0 L257 0 Z M223 806 L142 931 L-63 931 L-63 920 L134 806 L223 806 Z " />
<glyph glyph-name="Iacute" unicode="&#xcd;" horiz-adv-x="338" d="M257 0 L257 768 L84 768 L84 0 L257 0 Z M406 920 L406 931 L201 931 L120 806 L209 806 L406 920 Z " />
<glyph glyph-name="Icircumflex" unicode="&#xce;" horiz-adv-x="338" d="M257 0 L257 768 L84 768 L84 0 L257 0 Z M333 806 L244 931 L98 931 L9 806 L83 806 L171 858 L259 806 L333 806 Z " />
<glyph glyph-name="Idieresis" unicode="&#xcf;" horiz-adv-x="338" d="M257 0 L257 768 L84 768 L84 0 L257 0 Z M382 806 L382 932 L232 932 L232 806 L382 806 Z M107 806 L107 932 L-41 932 L-41 806 L107 806 Z " />
<glyph glyph-name="Eth" unicode="&#xd0;" horiz-adv-x="712" d="M678 362 C678 643 546 768 359 768 L93 768 L93 430 L36 430 L36 308 L93 308 L93 0 L350 0 C562 0 678 134 678 362 L678 362 Z M500 380 C500 176 438 117 332 117 L256 117 L256 308 L399 308 L399 430 L256 430 L256 651 L319 651 C421 651 500 586 500 380 L500 380 Z " />
<glyph glyph-name="Ntilde" unicode="&#xd1;" horiz-adv-x="720" d="M638 0 L638 768 L485 768 C485 768 485 519 485 360 C485 340 491 278 491 278 C491 278 468 340 458 359 C372 519 235 768 235 768 L82 768 L82 0 L235 0 C235 0 235 238 235 390 C235 415 231 474 231 474 C231 474 256 418 268 395 C352 241 485 0 485 0 L638 0 Z M529 886 C529 911 521 931 515 942 L448 942 C451 935 453 927 453 918 C453 903 447 890 424 890 C404 890 377 905 362 915 C325 938 306 948 267 948 C190 948 173 910 173 868 C173 838 178 823 185 812 L252 812 C250 819 248 829 248 837 C248 849 254 860 277 860 C298 860 319 844 333 835 C364 816 391 806 431 806 C508 806 529 844 529 886 L529 886 Z " />
<glyph glyph-name="Ograve" unicode="&#xd2;" horiz-adv-x="723" d="M686 385 C686 650 575 780 361 780 C166 780 36 660 36 385 C36 105 140 -12 361 -12 C562 -12 686 98 686 385 L686 385 Z M509 383 C509 167 453 102 354 102 C271 102 213 167 213 383 C213 589 254 668 355 668 C447 668 509 593 509 383 L509 383 Z M435 806 L354 931 L149 931 L149 920 L346 806 L435 806 Z " />
<glyph glyph-name="Oacute" unicode="&#xd3;" horiz-adv-x="723" d="M686 385 C686 650 575 780 361 780 C166 780 36 660 36 385 C36 105 140 -12 361 -12 C562 -12 686 98 686 385 L686 385 Z M509 383 C509 167 453 102 354 102 C271 102 213 167 213 383 C213 589 254 668 355 668 C447 668 509 593 509 383 L509 383 Z M579 920 L579 931 L374 931 L293 806 L382 806 L579 920 Z " />
<glyph glyph-name="Ocircumflex" unicode="&#xd4;" horiz-adv-x="723" d="M686 385 C686 650 575 780 361 780 C166 780 36 660 36 385 C36 105 140 -12 361 -12 C562 -12 686 98 686 385 L686 385 Z M509 383 C509 167 453 102 354 102 C271 102 213 167 213 383 C213 589 254 668 355 668 C447 668 509 593 509 383 L509 383 Z M521 806 L432 931 L286 931 L197 806 L271 806 L359 858 L447 806 L521 806 Z " />
<glyph glyph-name="Otilde" unicode="&#xd5;" horiz-adv-x="723" d="M686 385 C686 650 575 780 361 780 C166 780 36 660 36 385 C36 105 140 -12 361 -12 C562 -12 686 98 686 385 L686 385 Z M509 383 C509 167 453 102 354 102 C271 102 213 167 213 383 C213 589 254 668 355 668 C447 668 509 593 509 383 L509 383 Z M534 885 C534 910 526 930 520 941 L453 941 C456 934 458 926 458 917 C458 902 452 889 429 889 C409 889 382 904 367 914 C330 937 311 947 272 947 C195 947 178 909 178 867 C178 837 183 822 190 811 L257 811 C255 818 253 828 253 836 C253 848 259 859 282 859 C303 859 324 843 338 834 C369 815 396 805 436 805 C513 805 534 843 534 885 L534 885 Z " />
<glyph glyph-name="Odieresis" unicode="&#xd6;" horiz-adv-x="723" d="M686 385 C686 650 575 780 361 780 C166 780 36 660 36 385 C36 105 140 -12 361 -12 C562 -12 686 98 686 385 L686 385 Z M509 383 C509 167 453 102 354 102 C271 102 213 167 213 383 C213 589 254 668 355 668 C447 668 509 593 509 383 L509 383 Z M571 806 L571 932 L421 932 L421 806 L571 806 Z M296 806 L296 932 L148 932 L148 806 L296 806 Z " />
<glyph glyph-name="multiply" unicode="&#xd7;" horiz-adv-x="652" d="M593 331 C593 479 472 600 324 600 C176 600 55 479 55 331 C55 183 176 63 324 63 C472 63 593 183 593 331 L593 331 Z M535 330 L418 246 L363 128 L310 239 L120 254 L208 364 L151 470 L306 441 L382 534 L434 406 L535 330 Z " />
<glyph glyph-name="Oslash" unicode="&#xd8;" horiz-adv-x="723" d="M696 780 L610 780 L568 721 C517 762 448 780 361 780 C166 780 45 659 45 385 C45 237 67 139 115 78 L52 -12 L142 -12 L172 29 C219 0 282 -12 361 -12 C556 -12 678 97 678 385 C678 513 657 606 615 669 L696 780 Z M473 591 L231 235 C224 274 222 323 222 383 C222 591 239 668 355 668 C411 668 450 647 473 591 L473 591 Z M500 383 C500 156 456 102 354 102 C310 102 279 115 258 147 L495 496 C498 464 500 426 500 383 L500 383 Z " />
<glyph glyph-name="Ugrave" unicode="&#xd9;" horiz-adv-x="713" d="M640 238 L640 768 L474 768 L474 255 C474 172 463 109 361 109 C270 109 250 159 250 255 L250 768 L81 768 L81 238 C81 84 145 -12 359 -12 C562 -12 640 84 640 238 L640 238 Z M426 806 L345 931 L140 931 L140 920 L337 806 L426 806 Z " />
<glyph glyph-name="Uacute" unicode="&#xda;" horiz-adv-x="713" d="M640 238 L640 768 L474 768 L474 255 C474 172 463 109 361 109 C270 109 250 159 250 255 L250 768 L81 768 L81 238 C81 84 145 -12 359 -12 C562 -12 640 84 640 238 L640 238 Z M580 920 L580 931 L375 931 L294 806 L383 806 L580 920 Z " />
<glyph glyph-name="Ucircumflex" unicode="&#xdb;" horiz-adv-x="713" d="M640 238 L640 768 L474 768 L474 255 C474 172 463 109 361 109 C270 109 250 159 250 255 L250 768 L81 768 L81 238 C81 84 145 -12 359 -12 C562 -12 640 84 640 238 L640 238 Z M527 806 L438 931 L292 931 L203 806 L277 806 L365 858 L453 806 L527 806 Z " />
<glyph glyph-name="Udieresis" unicode="&#xdc;" horiz-adv-x="713" d="M640 238 L640 768 L474 768 L474 255 C474 172 463 109 361 109 C270 109 250 159 250 255 L250 768 L81 768 L81 238 C81 84 145 -12 359 -12 C562 -12 640 84 640 238 L640 238 Z M574 806 L574 932 L424 932 L424 806 L574 806 Z M299 806 L299 932 L151 932 L151 806 L299 806 Z " />
<glyph glyph-name="Yacute" unicode="&#xdd;" horiz-adv-x="618" d="M613 768 L447 768 L318 472 L189 768 L5 768 L224 308 L224 0 L395 0 L395 308 L613 768 Z M548 894 L548 905 L343 905 L262 780 L351 780 L548 894 Z " />
<glyph glyph-name="Thorn" unicode="&#xde;" horiz-adv-x="639" d="M615 382 C615 560 495 620 323 620 L253 620 L253 768 L82 768 L82 0 L253 0 L253 141 L342 141 C496 141 615 207 615 382 L615 382 Z M434 382 C434 297 389 261 329 261 L253 261 L253 503 L326 503 C393 503 434 467 434 382 L434 382 Z " />
<glyph glyph-name="germandbls" unicode="&#xdf;" horiz-adv-x="642" d="M602 217 C602 332 546 401 445 416 C532 431 562 506 562 580 C562 665 500 780 337 780 C172 780 79 709 79 574 L79 0 L244 0 L244 582 C244 638 266 673 326 673 C376 673 403 641 403 568 C403 512 375 459 311 459 L311 350 C393 350 443 296 443 221 C443 121 389 95 311 95 L311 0 L338 0 C508 0 602 71 602 217 L602 217 Z " />
<glyph glyph-name="agrave" unicode="&#xe0;" horiz-adv-x="648" d="M627 18 L627 95 C627 95 615 95 609 95 C562 95 540 101 540 143 L540 419 C540 538 458 592 306 592 C148 592 63 535 63 448 C63 420 68 406 70 399 L217 406 C213 412 209 418 209 438 C209 473 234 505 299 505 C384 505 385 445 387 388 C363 370 311 351 213 328 C125 307 40 253 40 161 C40 58 103 -12 229 -12 C308 -12 374 12 411 64 C421 7 461 -7 514 -7 C563 -7 598 5 627 18 L627 18 Z M385 293 C385 293 384 210 383 183 C381 129 352 84 286 84 C241 84 201 105 201 155 C201 204 222 243 317 267 C344 274 372 285 385 293 L385 293 Z M372 626 L291 751 L86 751 L86 740 L283 626 L372 626 Z " />
<glyph glyph-name="aacute" unicode="&#xe1;" horiz-adv-x="648" d="M627 18 L627 95 C627 95 615 95 609 95 C562 95 540 101 540 143 L540 419 C540 538 458 592 306 592 C148 592 63 535 63 448 C63 420 68 406 70 399 L217 406 C213 412 209 418 209 438 C209 473 234 505 299 505 C384 505 385 445 387 388 C363 370 311 351 213 328 C125 307 40 253 40 161 C40 58 103 -12 229 -12 C308 -12 374 12 411 64 C421 7 461 -7 514 -7 C563 -7 598 5 627 18 L627 18 Z M385 293 C385 293 384 210 383 183 C381 129 352 84 286 84 C241 84 201 105 201 155 C201 204 222 243 317 267 C344 274 372 285 385 293 L385 293 Z M532 740 L532 751 L327 751 L246 626 L335 626 L532 740 Z " />
<glyph glyph-name="acircumflex" unicode="&#xe2;" horiz-adv-x="648" d="M627 18 L627 95 C627 95 615 95 609 95 C562 95 540 101 540 143 L540 419 C540 538 458 592 306 592 C148 592 63 535 63 448 C63 420 68 406 70 399 L217 406 C213 412 209 418 209 438 C209 473 234 505 299 505 C384 505 385 445 387 388 C363 370 311 351 213 328 C125 307 40 253 40 161 C40 58 103 -12 229 -12 C308 -12 374 12 411 64 C421 7 461 -7 514 -7 C563 -7 598 5 627 18 L627 18 Z M385 293 C385 293 384 210 383 183 C381 129 352 84 286 84 C241 84 201 105 201 155 C201 204 222 243 317 267 C344 274 372 285 385 293 L385 293 Z M465 626 L376 751 L230 751 L141 626 L215 626 L303 678 L391 626 L465 626 Z " />
<glyph glyph-name="atilde" unicode="&#xe3;" horiz-adv-x="648" d="M627 18 L627 95 C627 95 615 95 609 95 C562 95 540 101 540 143 L540 419 C540 538 458 592 306 592 C148 592 63 535 63 448 C63 420 68 406 70 399 L217 406 C213 412 209 418 209 438 C209 473 234 505 299 505 C384 505 385 445 387 388 C363 370 311 351 213 328 C125 307 40 253 40 161 C40 58 103 -12 229 -12 C308 -12 374 12 411 64 C421 7 461 -7 514 -7 C563 -7 598 5 627 18 L627 18 Z M385 293 C385 293 384 210 383 183 C381 129 352 84 286 84 C241 84 201 105 201 155 C201 204 222 243 317 267 C344 274 372 285 385 293 L385 293 Z M482 705 C482 730 474 750 468 761 L401 761 C404 754 406 746 406 737 C406 722 400 709 377 709 C357 709 330 724 315 734 C278 757 259 767 220 767 C143 767 126 729 126 687 C126 657 131 642 138 631 L205 631 C203 638 201 648 201 656 C201 668 207 679 230 679 C251 679 272 663 286 654 C317 635 344 625 384 625 C461 625 482 663 482 705 L482 705 Z " />
<glyph glyph-name="adieresis" unicode="&#xe4;" horiz-adv-x="648" d="M627 18 L627 95 C627 95 615 95 609 95 C562 95 540 101 540 143 L540 419 C540 538 458 592 306 592 C148 592 63 535 63 448 C63 420 68 406 70 399 L217 406 C213 412 209 418 209 438 C209 473 234 505 299 505 C384 505 385 445 387 388 C363 370 311 351 213 328 C125 307 40 253 40 161 C40 58 103 -12 229 -12 C308 -12 374 12 411 64 C421 7 461 -7 514 -7 C563 -7 598 5 627 18 L627 18 Z M385 293 C385 293 384 210 383 183 C381 129 352 84 286 84 C241 84 201 105 201 155 C201 204 222 243 317 267 C344 274 372 285 385 293 L385 293 Z M515 626 L515 752 L365 752 L365 626 L515 626 Z M240 626 L240 752 L92 752 L92 626 L240 626 Z " />
<glyph glyph-name="aring" unicode="&#xe5;" horiz-adv-x="648" d="M627 18 L627 95 C627 95 615 95 609 95 C562 95 540 101 540 143 L540 419 C540 538 458 592 306 592 C148 592 63 535 63 448 C63 420 68 406 70 399 L217 406 C213 412 209 418 209 438 C209 473 234 505 299 505 C384 505 385 445 387 388 C363 370 311 351 213 328 C125 307 40 253 40 161 C40 58 103 -12 229 -12 C308 -12 374 12 411 64 C421 7 461 -7 514 -7 C563 -7 598 5 627 18 L627 18 Z M385 293 C385 293 384 210 383 183 C381 129 352 84 286 84 C241 84 201 105 201 155 C201 204 222 243 317 267 C344 274 372 285 385 293 L385 293 Z M445 762 C445 837 378 898 296 898 C213 898 146 837 146 762 C146 687 213 626 296 626 C378 626 445 687 445 762 L445 762 Z M369 762 C369 725 336 693 296 693 C255 693 222 725 222 762 C222 799 255 831 296 831 C336 831 369 799 369 762 L369 762 Z " />
<glyph glyph-name="ae" unicode="&#xe6;" horiz-adv-x="944" d="M900 144 C901 157 901 167 899 178 L749 188 C749 188 749 174 748 165 C745 122 723 95 651 95 C575 95 539 141 540 255 L891 255 C893 271 894 289 894 310 C894 325 893 340 892 357 C879 517 776 592 649 592 C584 592 513 568 481 527 C455 572 387 592 306 592 C145 592 63 531 63 448 C63 420 68 406 70 399 L217 406 C213 412 209 418 209 438 C209 473 234 505 299 505 C384 505 385 445 387 388 C363 370 310 348 213 328 C118 308 40 253 40 161 C40 58 107 -12 229 -12 C308 -12 396 20 423 88 C461 16 546 -12 651 -12 C822 -12 894 76 900 144 L900 144 Z M741 348 L540 348 C544 438 579 482 647 482 C698 482 729 452 739 393 C742 377 742 361 741 348 L741 348 Z M385 293 L383 183 C382 129 352 84 286 84 C241 84 201 105 201 155 C201 204 222 243 317 267 C344 274 372 285 385 293 L385 293 Z " />
<glyph glyph-name="ccedilla" unicode="&#xe7;" horiz-adv-x="603" d="M555 152 C555 183 552 207 547 226 L401 232 C403 223 405 207 405 194 C405 127 376 100 311 100 C241 100 206 149 206 301 C206 437 242 485 312 485 C365 485 393 455 393 402 C393 387 392 378 389 368 L541 372 C544 385 544 401 544 420 C544 511 473 592 320 592 C153 592 43 497 43 266 C43 62 140 -12 310 -12 C466 -12 555 78 555 152 L555 152 Z M438 -108 C438 -57 390 -20 309 -20 C292 -20 261 -20 261 -20 L238 -88 C285 -71 331 -78 331 -111 C331 -124 328 -142 289 -142 C226 -142 199 -127 172 -110 L131 -164 C159 -183 221 -200 293 -200 C386 -200 438 -164 438 -108 L438 -108 Z " />
<glyph glyph-name="egrave" unicode="&#xe8;" horiz-adv-x="606" d="M562 144 C563 157 563 167 561 178 L411 188 C411 188 411 174 410 165 C407 122 378 95 313 95 C250 95 201 141 202 255 L553 255 C557 282 557 317 554 357 C540 517 444 592 311 592 C162 592 43 492 43 279 C43 71 147 -12 313 -12 C488 -12 557 76 562 144 L562 144 Z M404 348 L202 348 C207 438 241 482 309 482 C361 482 392 452 401 393 C405 377 405 361 404 348 L404 348 Z M375 626 L294 751 L89 751 L89 740 L286 626 L375 626 Z " />
<glyph glyph-name="eacute" unicode="&#xe9;" horiz-adv-x="606" d="M562 144 C563 157 563 167 561 178 L411 188 C411 188 411 174 410 165 C407 122 378 95 313 95 C250 95 201 141 202 255 L553 255 C557 282 557 317 554 357 C540 517 444 592 311 592 C162 592 43 492 43 279 C43 71 147 -12 313 -12 C488 -12 557 76 562 144 L562 144 Z M404 348 L202 348 C207 438 241 482 309 482 C361 482 392 452 401 393 C405 377 405 361 404 348 L404 348 Z M538 740 L538 751 L333 751 L252 626 L341 626 L538 740 Z " />
<glyph glyph-name="ecircumflex" unicode="&#xea;" horiz-adv-x="606" d="M562 144 C563 157 563 167 561 178 L411 188 C411 188 411 174 410 165 C407 122 378 95 313 95 C250 95 201 141 202 255 L553 255 C557 282 557 317 554 357 C540 517 444 592 311 592 C162 592 43 492 43 279 C43 71 147 -12 313 -12 C488 -12 557 76 562 144 L562 144 Z M404 348 L202 348 C207 438 241 482 309 482 C361 482 392 452 401 393 C405 377 405 361 404 348 L404 348 Z M467 626 L378 751 L232 751 L143 626 L217 626 L305 678 L393 626 L467 626 Z " />
<glyph glyph-name="edieresis" unicode="&#xeb;" horiz-adv-x="606" d="M562 144 C563 157 563 167 561 178 L411 188 C411 188 411 174 410 165 C407 122 378 95 313 95 C250 95 201 141 202 255 L553 255 C557 282 557 317 554 357 C540 517 444 592 311 592 C162 592 43 492 43 279 C43 71 147 -12 313 -12 C488 -12 557 76 562 144 L562 144 Z M404 348 L202 348 C207 438 241 482 309 482 C361 482 392 452 401 393 C405 377 405 361 404 348 L404 348 Z M518 626 L518 752 L368 752 L368 626 L518 626 Z M243 626 L243 752 L95 752 L95 626 L243 626 Z " />
<glyph glyph-name="igrave" unicode="&#xec;" horiz-adv-x="310" d="M238 0 L238 574 L73 574 L73 0 L238 0 Z M211 626 L130 751 L-75 751 L-75 740 L122 626 L211 626 Z " />
<glyph glyph-name="iacute" unicode="&#xed;" horiz-adv-x="310" d="M238 0 L238 574 L73 574 L73 0 L238 0 Z M386 740 L386 751 L181 751 L100 626 L189 626 L386 740 Z " />
<glyph glyph-name="icircumflex" unicode="&#xee;" horiz-adv-x="310" d="M238 0 L238 574 L73 574 L73 0 L238 0 Z M320 626 L231 751 L85 751 L-4 626 L70 626 L158 678 L246 626 L320 626 Z " />
<glyph glyph-name="idieresis" unicode="&#xef;" horiz-adv-x="310" d="M238 0 L238 574 L73 574 L73 0 L238 0 Z M367 626 L367 752 L217 752 L217 626 L367 626 Z M92 626 L92 752 L-56 752 L-56 626 L92 626 Z " />
<glyph glyph-name="eth" unicode="&#xf0;" horiz-adv-x="629" d="M577 270 C577 447 550 579 498 668 C538 689 564 715 564 745 C564 770 542 799 517 808 L469 783 C476 779 486 765 486 754 C486 743 480 731 458 724 C410 776 350 802 278 802 C183 802 124 777 91 752 L157 662 C200 697 247 708 297 698 C263 680 246 657 246 634 C246 610 269 577 295 570 L343 595 C333 602 327 613 327 625 C327 637 334 651 363 656 C389 619 405 572 409 534 C382 548 342 556 310 556 C145 556 43 460 43 270 C43 76 146 -12 310 -12 C466 -12 577 72 577 270 L577 270 Z M425 270 C425 152 390 100 310 100 C233 100 200 153 200 270 C200 401 235 445 310 445 C385 445 425 400 425 270 L425 270 Z " />
<glyph glyph-name="ntilde" unicode="&#xf1;" horiz-adv-x="657" d="M595 0 L595 421 C595 530 526 585 415 585 C318 585 256 545 224 476 L224 574 L64 574 L64 0 L229 0 L229 298 C229 407 274 467 341 467 C405 467 430 441 430 350 L430 0 L595 0 Z M512 703 C512 728 504 748 498 759 L431 759 C434 752 436 744 436 735 C436 720 430 707 407 707 C387 707 360 722 345 732 C308 755 289 765 250 765 C173 765 156 727 156 685 C156 655 161 640 168 629 L235 629 C233 636 231 646 231 654 C231 666 237 677 260 677 C281 677 302 661 316 652 C347 633 374 623 414 623 C491 623 512 661 512 703 L512 703 Z " />
<glyph glyph-name="ograve" unicode="&#xf2;" horiz-adv-x="631" d="M597 278 C597 470 486 592 316 592 C151 592 34 482 34 278 C34 80 140 -12 316 -12 C483 -12 597 80 597 278 L597 278 Z M434 282 C434 159 403 100 316 100 C238 100 197 157 197 282 C197 429 242 485 316 485 C392 485 434 433 434 282 L434 282 Z M371 626 L290 751 L85 751 L85 740 L282 626 L371 626 Z " />
<glyph glyph-name="oacute" unicode="&#xf3;" horiz-adv-x="631" d="M597 278 C597 470 486 592 316 592 C151 592 34 482 34 278 C34 80 140 -12 316 -12 C483 -12 597 80 597 278 L597 278 Z M434 282 C434 159 403 100 316 100 C238 100 197 157 197 282 C197 429 242 485 316 485 C392 485 434 433 434 282 L434 282 Z M545 740 L545 751 L340 751 L259 626 L348 626 L545 740 Z " />
<glyph glyph-name="ocircumflex" unicode="&#xf4;" horiz-adv-x="631" d="M597 278 C597 470 486 592 316 592 C151 592 34 482 34 278 C34 80 140 -12 316 -12 C483 -12 597 80 597 278 L597 278 Z M434 282 C434 159 403 100 316 100 C238 100 197 157 197 282 C197 429 242 485 316 485 C392 485 434 433 434 282 L434 282 Z M477 626 L388 751 L242 751 L153 626 L227 626 L315 678 L403 626 L477 626 Z " />
<glyph glyph-name="otilde" unicode="&#xf5;" horiz-adv-x="631" d="M597 278 C597 470 486 592 316 592 C151 592 34 482 34 278 C34 80 140 -12 316 -12 C483 -12 597 80 597 278 L597 278 Z M434 282 C434 159 403 100 316 100 C238 100 197 157 197 282 C197 429 242 485 316 485 C392 485 434 433 434 282 L434 282 Z M495 703 C495 728 487 748 481 759 L414 759 C417 752 419 744 419 735 C419 720 413 707 390 707 C370 707 343 722 328 732 C291 755 272 765 233 765 C156 765 139 727 139 685 C139 655 144 640 151 629 L218 629 C216 636 214 646 214 654 C214 666 220 677 243 677 C264 677 285 661 299 652 C330 633 357 623 397 623 C474 623 495 661 495 703 L495 703 Z " />
<glyph glyph-name="odieresis" unicode="&#xf6;" horiz-adv-x="631" d="M597 278 C597 470 486 592 316 592 C151 592 34 482 34 278 C34 80 140 -12 316 -12 C483 -12 597 80 597 278 L597 278 Z M434 282 C434 159 403 100 316 100 C238 100 197 157 197 282 C197 429 242 485 316 485 C392 485 434 433 434 282 L434 282 Z M525 626 L525 752 L375 752 L375 626 L525 626 Z M250 626 L250 752 L102 752 L102 626 L250 626 Z " />
<glyph glyph-name="divide" unicode="&#xf7;" horiz-adv-x="652" d="M593 331 C593 479 472 600 324 600 C176 600 55 479 55 331 C55 183 176 63 324 63 C472 63 593 183 593 331 L593 331 Z M535 330 L418 246 L363 128 L310 239 L120 254 L208 364 L151 470 L306 441 L382 534 L434 406 L535 330 Z " />
<glyph glyph-name="oslash" unicode="&#xf8;" horiz-adv-x="631" d="M588 278 C588 379 565 457 519 510 L580 591 L503 591 L473 551 C431 578 378 592 316 592 C151 592 43 488 43 278 C43 177 66 105 110 59 L51 -19 L133 -19 L161 20 C202 -2 254 -12 316 -12 C473 -12 588 78 588 278 L588 278 Z M395 449 L212 196 C208 220 206 248 206 282 C206 427 250 485 316 485 C351 485 377 475 395 449 L395 449 Z M426 282 C426 149 385 100 316 100 C284 100 260 108 242 127 L420 377 C423 351 426 320 426 282 L426 282 Z " />
<glyph glyph-name="ugrave" unicode="&#xf9;" horiz-adv-x="657" d="M584 0 L584 574 L419 574 L419 276 C419 167 383 107 316 107 C242 107 235 149 235 224 L235 574 L70 574 L70 166 C70 29 144 -11 242 -11 C334 -11 395 36 423 99 L423 0 L584 0 Z M377 626 L296 751 L91 751 L91 740 L288 626 L377 626 Z " />
<glyph glyph-name="uacute" unicode="&#xfa;" horiz-adv-x="657" d="M584 0 L584 574 L419 574 L419 276 C419 167 383 107 316 107 C242 107 235 149 235 224 L235 574 L70 574 L70 166 C70 29 144 -11 242 -11 C334 -11 395 36 423 99 L423 0 L584 0 Z M557 740 L557 751 L352 751 L271 626 L360 626 L557 740 Z " />
<glyph glyph-name="ucircumflex" unicode="&#xfb;" horiz-adv-x="657" d="M584 0 L584 574 L419 574 L419 276 C419 167 383 107 316 107 C242 107 235 149 235 224 L235 574 L70 574 L70 166 C70 29 144 -11 242 -11 C334 -11 395 36 423 99 L423 0 L584 0 Z M487 626 L398 751 L252 751 L163 626 L237 626 L325 678 L413 626 L487 626 Z " />
<glyph glyph-name="udieresis" unicode="&#xfc;" horiz-adv-x="657" d="M584 0 L584 574 L419 574 L419 276 C419 167 383 107 316 107 C242 107 235 149 235 224 L235 574 L70 574 L70 166 C70 29 144 -11 242 -11 C334 -11 395 36 423 99 L423 0 L584 0 Z M540 626 L540 752 L390 752 L390 626 L540 626 Z M265 626 L265 752 L117 752 L117 626 L265 626 Z " />
<glyph glyph-name="yacute" unicode="&#xfd;" horiz-adv-x="585" d="M577 574 L408 574 L298 124 L192 574 L8 574 L205 -3 C223 -55 201 -81 156 -81 C119 -81 109 -65 109 -45 C109 -37 110 -29 112 -21 L-14 -21 C-19 -33 -20 -45 -20 -56 C-20 -124 44 -180 152 -180 C284 -180 341 -131 383 -5 L577 574 Z M536 740 L536 751 L331 751 L250 626 L339 626 L536 740 Z " />
<glyph glyph-name="thorn" unicode="&#xfe;" horiz-adv-x="659" d="M616 287 C616 525 491 586 385 586 C291 586 253 541 232 493 L232 768 L73 768 L73 -164 L232 -164 L232 59 C255 27 282 -9 370 -9 C504 -9 616 67 616 287 L616 287 Z M454 287 C454 135 408 102 344 102 C267 102 231 157 232 288 C232 417 272 476 338 476 C405 476 454 439 454 287 L454 287 Z " />
<glyph glyph-name="ydieresis" unicode="&#xff;" horiz-adv-x="585" d="M577 574 L408 574 L298 124 L192 574 L8 574 L205 -3 C223 -55 201 -81 156 -81 C119 -81 109 -65 109 -45 C109 -37 110 -29 112 -21 L-14 -21 C-19 -33 -20 -45 -20 -56 C-20 -124 44 -180 152 -180 C284 -180 341 -131 383 -5 L577 574 Z M510 626 L510 752 L360 752 L360 626 L510 626 Z M235 626 L235 752 L87 752 L87 626 L235 626 Z " />
<glyph glyph-name="dotlessi" unicode="&#x131;" horiz-adv-x="310" d="M238 0 L238 574 L73 574 L73 0 L238 0 Z " />
<glyph glyph-name="Lslash" unicode="&#x141;" horiz-adv-x="586" d="M553 0 L553 132 L275 132 L275 294 L483 442 L418 520 L275 419 L275 768 L104 768 L104 299 L1 225 L66 147 L104 174 L104 0 L553 0 Z " />
<glyph glyph-name="lslash" unicode="&#x142;" horiz-adv-x="376" d="M375 386 L310 464 L271 436 L271 768 L106 768 L106 319 L1 245 L66 167 L106 195 L106 0 L271 0 L271 312 L375 386 Z " />
<glyph glyph-name="OE" unicode="&#x152;" horiz-adv-x="1005" d="M968 0 L968 124 L647 124 L647 330 L913 330 L913 460 L647 460 L647 645 L943 645 L943 768 L478 768 C458 773 417 780 361 780 C166 780 45 668 45 385 C45 86 140 -12 361 -12 C408 -12 445 -8 478 0 L968 0 Z M478 151 C453 121 426 102 354 102 C255 102 222 176 222 383 C222 583 239 668 355 668 C409 668 452 655 478 619 L478 151 Z " />
<glyph glyph-name="oe" unicode="&#x153;" horiz-adv-x="981" d="M937 144 C938 157 938 167 936 178 L786 188 C786 188 786 174 785 165 C782 122 760 95 688 95 C612 95 576 144 577 255 L928 255 C930 271 931 289 931 309 C931 324 930 340 929 357 C916 517 825 592 686 592 C609 592 540 566 498 519 C458 565 388 592 307 592 C132 592 34 487 34 278 C34 70 131 -12 307 -12 C383 -12 449 5 491 47 C526 7 603 -12 688 -12 C867 -12 931 71 937 144 L937 144 Z M779 348 L577 348 C582 438 616 482 684 482 C736 482 765 452 776 393 C779 377 780 361 779 348 L779 348 Z M417 282 C417 155 394 100 307 100 C229 100 197 162 197 282 C197 431 233 485 307 485 C383 485 417 434 417 282 L417 282 Z " />
<glyph glyph-name="Scaron" unicode="&#x160;" horiz-adv-x="631" d="M601 227 C601 318 551 396 442 440 L316 491 C239 522 209 545 209 597 C209 642 243 671 302 671 C363 671 399 647 399 575 C399 560 397 548 394 538 L544 542 C550 559 554 581 554 595 C554 705 458 780 315 780 C140 780 53 689 53 564 C53 478 86 407 178 372 L291 329 C407 285 437 249 437 196 C437 129 393 100 316 100 C236 100 207 136 207 191 C207 215 212 229 217 243 L57 238 C52 220 47 204 47 178 C47 60 140 -12 315 -12 C505 -12 601 68 601 227 L601 227 Z M473 925 L399 925 L311 873 L223 925 L150 925 L239 800 L384 800 L473 925 Z " />
<glyph glyph-name="scaron" unicode="&#x161;" horiz-adv-x="565" d="M531 170 C531 269 480 321 370 351 L276 377 C213 394 200 412 200 435 C200 465 218 494 274 494 C326 494 352 473 352 441 C352 428 350 418 345 410 L497 418 C502 427 505 438 505 454 C505 532 421 592 274 592 C144 592 41 526 41 423 C41 325 101 285 191 259 L279 234 C349 214 364 183 364 153 C364 114 339 87 284 87 C214 87 185 116 185 153 C185 165 186 176 191 190 L48 199 C40 179 33 160 33 135 C33 53 125 -12 284 -12 C450 -12 531 62 531 170 L531 170 Z M438 751 L364 751 L276 699 L188 751 L115 751 L204 626 L349 626 L438 751 Z " />
<glyph glyph-name="Ydieresis" unicode="&#x178;" horiz-adv-x="618" d="M613 768 L447 768 L318 472 L189 768 L5 768 L224 308 L224 0 L395 0 L395 308 L613 768 Z M532 806 L532 932 L382 932 L382 806 L532 806 Z M257 806 L257 932 L109 932 L109 806 L257 806 Z " />
<glyph glyph-name="Zcaron" unicode="&#x17d;" horiz-adv-x="626" d="M569 0 L569 119 L215 119 L569 628 L569 768 L69 768 L69 649 L395 649 L44 146 L44 0 L569 0 Z M472 925 L398 925 L310 873 L222 925 L149 925 L238 800 L383 800 L472 925 Z " />
<glyph glyph-name="zcaron" unicode="&#x17e;" horiz-adv-x="564" d="M511 0 L511 116 L213 116 L511 438 L511 574 L55 574 L55 458 L338 458 L40 129 L40 0 L511 0 Z M455 751 L381 751 L293 699 L205 751 L132 751 L221 626 L366 626 L455 751 Z " />
<glyph glyph-name="florin" unicode="&#x192;" horiz-adv-x="390" d="M429 696 C429 745 383 790 258 790 C152 790 92 730 92 642 C92 613 93 598 98 574 L15 574 L15 480 L95 480 C95 480 95 186 95 61 C95 -6 118 -25 118 -60 C118 -84 101 -92 73 -92 C51 -92 21 -81 21 -53 C21 -47 21 -40 23 -32 L-71 -23 C-81 -34 -88 -53 -88 -68 C-88 -154 -4 -180 84 -180 C200 -180 260 -126 260 -27 L260 480 L365 480 L365 574 L245 574 C236 595 233 613 233 653 C233 682 249 702 275 702 C305 702 320 693 320 671 C320 660 319 649 317 642 L418 634 C422 645 429 667 429 696 L429 696 Z " />
<glyph glyph-name="circumflex" unicode="&#x2c6;" horiz-adv-x="396" d="M360 626 L271 751 L125 751 L36 626 L110 626 L198 678 L286 626 L360 626 Z " />
<glyph glyph-name="caron" unicode="&#x2c7;" horiz-adv-x="396" d="M364 750 L290 750 L202 698 L114 750 L41 750 L130 625 L275 625 L364 750 Z " />
<glyph glyph-name="breve" unicode="&#x2d8;" horiz-adv-x="396" d="M372 742 L288 742 C290 713 254 683 196 683 C135 683 102 713 103 742 L18 742 C18 659 53 613 196 613 C337 613 372 659 372 742 L372 742 Z " />
<glyph glyph-name="dotaccent" unicode="&#x2d9;" horiz-adv-x="396" d="M273 626 L273 756 L123 756 L123 626 L273 626 Z " />
<glyph glyph-name="ring" unicode="&#x2da;" horiz-adv-x="396" d="M345 732 C345 807 278 868 196 868 C113 868 46 807 46 732 C46 657 113 596 196 596 C278 596 345 657 345 732 L345 732 Z M269 732 C269 695 236 663 196 663 C155 663 122 695 122 732 C122 769 155 801 196 801 C236 801 269 769 269 732 L269 732 Z " />
<glyph glyph-name="ogonek" unicode="&#x2db;" horiz-adv-x="396" d="M323 -134 C323 -121 321 -108 318 -98 L229 -98 C233 -108 236 -116 236 -129 C236 -149 225 -161 200 -161 C178 -161 164 -146 164 -116 C164 -67 217 -27 283 0 L203 0 C110 -33 69 -75 69 -125 C69 -173 102 -203 191 -203 C287 -203 323 -178 323 -134 L323 -134 Z " />
<glyph glyph-name="tilde" unicode="&#x2dc;" horiz-adv-x="396" d="M376 703 C376 728 368 748 362 759 L295 759 C298 752 300 744 300 735 C300 720 294 707 271 707 C251 707 224 722 209 732 C172 755 153 765 114 765 C37 765 20 727 20 685 C20 655 25 640 32 629 L99 629 C97 636 95 646 95 654 C95 666 101 677 124 677 C145 677 166 661 180 652 C211 633 238 623 278 623 C355 623 376 661 376 703 L376 703 Z " />
<glyph glyph-name="hungarumlaut" unicode="&#x2dd;" horiz-adv-x="396" d="M411 740 L411 751 L267 751 L189 625 L263 625 L411 740 Z M224 740 L224 751 L80 751 L2 625 L76 625 L224 740 Z " />
<glyph glyph-name="pi" unicode="&#x3c0;" horiz-adv-x="779" d="M736 397 C737 592 578 752 384 752 C188 752 30 592 30 397 C30 203 189 42 384 42 C577 42 735 203 736 397 L736 397 Z M673 397 C673 233 544 100 384 100 C222 100 92 233 92 397 C92 558 223 695 384 695 C544 695 673 558 673 397 L673 397 Z M537 468 C537 569 476 595 408 595 L269 595 L269 188 L348 188 L348 347 L416 347 C481 347 537 376 537 468 L537 468 Z M457 467 C457 425 442 402 406 402 L348 402 L348 539 L405 539 C436 539 457 521 457 467 L457 467 Z " />
<glyph glyph-name="endash" unicode="&#x2013;" horiz-adv-x="660" d="M605 275 L605 395 L55 395 L55 275 L605 275 Z " />
<glyph glyph-name="emdash" unicode="&#x2014;" horiz-adv-x="1137" d="M1082 275 L1082 395 L55 395 L55 275 L1082 275 Z " />
<glyph glyph-name="quoteleft" unicode="&#x2018;" horiz-adv-x="315" d="M265 736 L253 781 C212 776 172 765 145 751 C99 726 64 689 64 627 L64 461 L255 461 L255 627 L166 627 C164 633 164 640 164 647 C164 672 174 697 190 708 C209 721 233 730 265 736 L265 736 Z " />
<glyph glyph-name="quoteright" unicode="&#x2019;" horiz-adv-x="315" d="M257 602 L257 768 L66 768 L66 602 L155 602 C157 596 157 589 157 582 C157 557 147 532 131 521 C112 508 88 499 56 493 L68 448 C109 453 150 464 176 478 C222 503 257 540 257 602 L257 602 Z " />
<glyph glyph-name="quotesinglbase" unicode="&#x201a;" horiz-adv-x="315" d="M241 0 L241 146 L82 146 L82 0 L155 0 C157 -7 158 -15 158 -22 C158 -44 150 -65 131 -81 C112 -94 82 -103 56 -109 L68 -154 C109 -149 148 -140 173 -124 C217 -97 241 -62 241 0 L241 0 Z " />
<glyph glyph-name="quotedblleft" unicode="&#x201c;" horiz-adv-x="576" d="M527 736 L515 781 C474 776 433 765 407 751 C361 726 326 689 326 627 L326 461 L517 461 L517 627 L428 627 C426 634 426 641 426 648 C426 670 436 697 452 708 C471 721 495 730 527 736 L527 736 Z M265 736 L253 781 C212 776 172 765 145 751 C99 726 64 689 64 627 L64 461 L255 461 L255 627 L166 627 C164 634 164 642 164 649 C164 671 174 697 190 708 C209 721 233 730 265 736 L265 736 Z " />
<glyph glyph-name="quotedblright" unicode="&#x201d;" horiz-adv-x="576" d="M519 602 L519 768 L328 768 L328 602 L417 602 C419 596 419 589 419 582 C419 557 409 532 393 521 C374 508 350 499 318 493 L330 448 C371 453 411 464 438 478 C484 503 519 540 519 602 L519 602 Z M257 602 L257 768 L66 768 L66 602 L155 602 C157 596 157 589 157 582 C157 557 147 532 131 521 C112 508 88 499 56 493 L68 448 C109 453 150 464 176 478 C222 503 257 540 257 602 L257 602 Z " />
<glyph glyph-name="quotedblbase" unicode="&#x201e;" horiz-adv-x="576" d="M481 0 L481 146 L322 146 L322 0 L395 0 C397 -7 398 -16 398 -23 C398 -45 389 -65 371 -81 C352 -94 322 -103 296 -109 L308 -154 C349 -149 388 -139 412 -124 C456 -96 481 -62 481 0 L481 0 Z M242 0 L242 146 L84 146 L84 0 L155 0 C157 -7 158 -15 158 -22 C158 -44 151 -66 131 -81 C114 -95 84 -103 56 -109 L68 -154 C109 -149 148 -140 174 -124 C217 -97 242 -62 242 0 L242 0 Z " />
<glyph glyph-name="dagger" unicode="&#x2020;" horiz-adv-x="568" d="M499 501 L499 611 L361 611 L361 768 L207 768 L207 611 L68 611 L68 501 L207 501 L207 -88 L361 -88 L361 501 L499 501 Z " />
<glyph glyph-name="daggerdbl" unicode="&#x2021;" horiz-adv-x="568" d="M499 117 L499 227 L361 227 L361 501 L499 501 L499 611 L361 611 L361 768 L207 768 L207 611 L68 611 L68 501 L207 501 L207 227 L68 227 L68 117 L207 117 L207 -88 L361 -88 L361 117 L499 117 Z " />
<glyph glyph-name="bullet" unicode="&#x2022;" horiz-adv-x="652" d="M609 334 C609 481 482 601 326 601 C169 601 40 481 40 334 C40 187 169 67 326 67 C482 67 609 187 609 334 L609 334 Z " />
<glyph glyph-name="ellipsis" unicode="&#x2026;" horiz-adv-x="884" d="M832 0 L832 175 L635 175 L635 0 L832 0 Z M537 0 L537 175 L340 175 L340 0 L537 0 Z M242 0 L242 175 L45 175 L45 0 L242 0 Z " />
<glyph glyph-name="perthousand" unicode="&#x2030;" horiz-adv-x="1560" d="M1498 214 C1498 389 1424 480 1288 480 C1139 480 1077 384 1077 212 C1077 61 1159 -11 1288 -11 C1415 -11 1498 73 1498 214 L1498 214 Z M1020 214 C1020 389 946 480 810 480 C661 480 599 384 599 212 C599 61 681 -11 810 -11 C937 -11 1020 73 1020 214 L1020 214 Z M768 780 L700 780 L309 -16 L377 -16 L768 780 Z M475 514 C475 689 401 780 265 780 C116 780 54 684 54 512 C54 361 136 289 265 289 C392 289 475 373 475 514 L475 514 Z M1373 229 C1373 127 1347 83 1288 83 C1229 83 1204 132 1204 229 C1204 351 1226 389 1290 389 C1347 389 1373 354 1373 229 L1373 229 Z M895 229 C895 127 869 83 810 83 C751 83 726 132 726 229 C726 351 748 389 812 389 C869 389 895 354 895 229 L895 229 Z M350 529 C350 427 324 383 265 383 C206 383 181 432 181 529 C181 651 203 689 267 689 C324 689 350 654 350 529 L350 529 Z " />
<glyph glyph-name="guilsinglleft" unicode="&#x2039;" horiz-adv-x="401" d="M349 36 L349 156 L152 276 L349 395 L349 515 L60 344 L60 208 L349 36 Z " />
<glyph glyph-name="guilsinglright" unicode="&#x203a;" horiz-adv-x="401" d="M341 210 L341 345 L51 516 L51 396 L251 277 L51 157 L51 37 L341 210 Z " />
<glyph glyph-name="fraction" unicode="&#x2044;" horiz-adv-x="341" d="M562 780 L434 780 L-221 -14 L-97 -14 L562 780 Z " />
<glyph glyph-name="trademark" unicode="&#x2122;" horiz-adv-x="651" d="M582 537 L582 768 L494 768 L442 591 L389 768 L301 768 L301 537 L353 537 L353 718 L409 537 L470 537 L522 718 L522 537 L582 537 Z M263 722 L263 768 L54 768 L54 722 L126 722 L126 537 L188 537 L188 722 L263 722 Z " />
<glyph glyph-name="Omega" unicode="&#x2126;" horiz-adv-x="652" d="M593 331 C593 479 472 600 324 600 C176 600 55 479 55 331 C55 183 176 63 324 63 C472 63 593 183 593 331 L593 331 Z M535 330 L418 246 L363 128 L310 239 L120 254 L208 364 L151 470 L306 441 L382 534 L434 406 L535 330 Z " />
<glyph glyph-name="partialdiff" unicode="&#x2202;" horiz-adv-x="652" d="M593 331 C593 479 472 600 324 600 C176 600 55 479 55 331 C55 183 176 63 324 63 C472 63 593 183 593 331 L593 331 Z M535 330 L418 246 L363 128 L310 239 L120 254 L208 364 L151 470 L306 441 L382 534 L434 406 L535 330 Z " />
<glyph glyph-name="Delta" unicode="&#x2206;" horiz-adv-x="652" d="M593 331 C593 479 472 600 324 600 C176 600 55 479 55 331 C55 183 176 63 324 63 C472 63 593 183 593 331 L593 331 Z M535 330 L418 246 L363 128 L310 239 L120 254 L208 364 L151 470 L306 441 L382 534 L434 406 L535 330 Z " />
<glyph glyph-name="product" unicode="&#x220f;" horiz-adv-x="652" d="M593 331 C593 479 472 600 324 600 C176 600 55 479 55 331 C55 183 176 63 324 63 C472 63 593 183 593 331 L593 331 Z M535 330 L418 246 L363 128 L310 239 L120 254 L208 364 L151 470 L306 441 L382 534 L434 406 L535 330 Z " />
<glyph glyph-name="summation" unicode="&#x2211;" horiz-adv-x="652" d="M593 331 C593 479 472 600 324 600 C176 600 55 479 55 331 C55 183 176 63 324 63 C472 63 593 183 593 331 L593 331 Z M535 330 L418 246 L363 128 L310 239 L120 254 L208 364 L151 470 L306 441 L382 534 L434 406 L535 330 Z " />
<glyph glyph-name="minus" unicode="&#x2212;" horiz-adv-x="652" d="M593 331 C593 479 472 600 324 600 C176 600 55 479 55 331 C55 183 176 63 324 63 C472 63 593 183 593 331 L593 331 Z M535 330 L418 246 L363 128 L310 239 L120 254 L208 364 L151 470 L306 441 L382 534 L434 406 L535 330 Z " />
<glyph glyph-name="radical" unicode="&#x221a;" horiz-adv-x="863" d="M867 909 L707 873 C608 739 536 611 474 475 C419 354 361 197 320 39 L172 347 L0 276 L275 -144 L400 -95 C437 76 497 244 588 446 C651 587 769 799 867 909 L867 909 Z " />
<glyph glyph-name="infinity" unicode="&#x221e;" horiz-adv-x="1091" d="M1021 629 L1021 778 L851 778 L851 629 L1021 629 Z M1019 0 L1019 574 L854 574 L854 0 L1019 0 Z M819 696 C819 745 771 790 649 790 C542 790 483 730 483 642 C483 613 484 598 488 574 L406 574 L406 480 L485 480 L485 0 L650 0 L650 480 L756 480 L756 574 L636 574 C627 595 624 613 624 653 C624 682 639 702 665 702 C695 702 711 693 711 671 C711 660 709 650 707 642 L808 634 C813 645 819 667 819 696 L819 696 Z M429 696 C429 747 385 790 258 790 C152 790 92 730 92 642 C92 613 93 598 98 574 L15 574 L15 480 L95 480 L95 0 L260 0 L260 480 L365 480 L365 574 L245 574 C236 595 233 613 233 653 C233 682 249 702 275 702 C305 702 320 693 320 671 C320 660 319 650 317 642 L418 634 C422 645 429 667 429 696 L429 696 Z " />
<glyph glyph-name="integral" unicode="&#x222b;" horiz-adv-x="652" d="M593 331 C593 479 472 600 324 600 C176 600 55 479 55 331 C55 183 176 63 324 63 C472 63 593 183 593 331 L593 331 Z M535 330 L418 246 L363 128 L310 239 L120 254 L208 364 L151 470 L306 441 L382 534 L434 406 L535 330 Z " />
<glyph glyph-name="approxequal" unicode="&#x2248;" horiz-adv-x="652" d="M593 331 C593 479 472 600 324 600 C176 600 55 479 55 331 C55 183 176 63 324 63 C472 63 593 183 593 331 L593 331 Z M535 330 L418 246 L363 128 L310 239 L120 254 L208 364 L151 470 L306 441 L382 534 L434 406 L535 330 Z " />
<glyph glyph-name="notequal" unicode="&#x2260;" horiz-adv-x="781" d="M819 696 C819 742 767 790 649 790 C542 790 483 730 483 642 C483 613 484 598 488 574 L406 574 L406 480 L485 480 L485 0 L650 0 L650 480 L756 480 L756 574 L636 574 C627 595 624 613 624 653 C624 682 639 702 665 702 C695 702 711 693 711 671 C711 660 709 650 707 642 L808 634 C813 645 819 667 819 696 L819 696 Z M429 696 C429 746 376 790 258 790 C152 790 92 730 92 642 C92 613 93 598 98 574 L15 574 L15 480 L95 480 L95 0 L260 0 L260 480 L365 480 L365 574 L245 574 C236 595 233 613 233 653 C233 682 249 702 275 702 C305 702 320 693 320 671 C320 660 319 650 317 642 L418 634 C422 645 429 667 429 696 L429 696 Z " />
<glyph glyph-name="lessequal" unicode="&#x2264;" horiz-adv-x="652" d="M593 331 C593 479 472 600 324 600 C176 600 55 479 55 331 C55 183 176 63 324 63 C472 63 593 183 593 331 L593 331 Z M535 330 L418 246 L363 128 L310 239 L120 254 L208 364 L151 470 L306 441 L382 534 L434 406 L535 330 Z " />
<glyph glyph-name="greaterequal" unicode="&#x2265;" horiz-adv-x="652" d="M593 331 C593 479 472 600 324 600 C176 600 55 479 55 331 C55 183 176 63 324 63 C472 63 593 183 593 331 L593 331 Z M535 330 L418 246 L363 128 L310 239 L120 254 L208 364 L151 470 L306 441 L382 534 L434 406 L535 330 Z " />
<glyph glyph-name="lozenge" unicode="&#x25ca;" horiz-adv-x="652" d="M593 331 C593 479 472 600 324 600 C176 600 55 479 55 331 C55 183 176 63 324 63 C472 63 593 183 593 331 L593 331 Z M535 330 L418 246 L363 128 L310 239 L120 254 L208 364 L151 470 L306 441 L382 534 L434 406 L535 330 Z " />
<glyph glyph-name="fi" unicode="&#xfb01;" horiz-adv-x="701" d="M630 629 L630 778 L461 778 L461 629 L630 629 Z M628 0 L628 574 L463 574 L463 0 L628 0 Z M429 696 C429 744 384 790 258 790 C152 790 92 730 92 642 C92 613 93 598 98 574 L15 574 L15 480 L95 480 L95 0 L260 0 L260 480 L365 480 L365 574 L245 574 C236 595 233 613 233 653 C233 682 249 702 275 702 C305 702 320 693 320 671 C320 660 319 650 317 642 L418 634 C422 645 429 667 429 696 L429 696 Z " />
<glyph glyph-name="fl" unicode="&#xfb02;" horiz-adv-x="701" d="M628 0 L628 768 L463 768 L463 0 L628 0 Z M429 696 C429 746 384 790 258 790 C152 790 92 730 92 642 C92 613 93 598 98 574 L15 574 L15 480 L95 480 L95 0 L260 0 L260 480 L365 480 L365 574 L245 574 C236 595 233 613 233 653 C233 682 249 702 275 702 C305 702 320 693 320 671 C320 660 319 650 317 642 L418 634 C422 645 429 667 429 696 L429 696 Z " />
</font>
</svg>
